osu file format v14

[General]
AudioFilename: audio.mp3
AudioLeadIn: 0
PreviewTime: 81627
Countdown: 0
SampleSet: Soft
StackLeniency: 0.5
Mode: 0
LetterboxInBreaks: 0
WidescreenStoryboard: 0

[Editor]
Bookmarks: 1555,11660,21765,31871,41976,52081,62187,72292,82397,92502,102608,112713,122818,132923,143029,153134,163239,173344,183450,193555,203660,213765,223871,233976,244081,255450,266818,276923,287029,297134
DistanceSpacing: 0.95
BeatDivisor: 4
GridSize: 32
TimelineZoom: 3.699999

[Metadata]
Title:oyasumination
TitleUnicode:oyasumination
Artist:vally.exe
ArtistUnicode:vally.exe
Creator:nooj
Version:5.9722 x 10^24 kg
Source:
Tags:ippo.tsk vallychuuu oddeeoo eleanor forte english japanese pop rock female vocal vocalist
BeatmapID:4308932
BeatmapSetID:2061188

[Difficulty]
HPDrainRate:5
CircleSize:4
OverallDifficulty:9.2
ApproachRate:9.4
SliderMultiplier:2
SliderTickRate:0.5

[Events]
//Background and Video events
0,0,"bg.jpeg",0,0
//Break Periods
//Storyboard Layer 0 (Background)
//Storyboard Layer 1 (Fail)
//Storyboard Layer 2 (Pass)
//Storyboard Layer 3 (Foreground)
//Storyboard Layer 4 (Overlay)
//Storyboard Sound Samples

[TimingPoints]
318,315.789473684211,4,2,0,69,1,0
1186,-100,4,2,0,35,0,0
1581,-344.827586206897,4,2,0,35,0,0
6318,-200,4,2,0,35,0,0
6633,-250,4,2,0,35,0,0
8054,-181.818181818182,4,2,0,35,0,0
8290,-181.818181818182,4,2,0,5,0,0
8370,-222.222222222222,4,2,0,35,0,0
9002,-333.333333333333,4,2,0,35,0,0
10739,-125,4,2,0,45,0,0
11291,-125,4,2,0,5,0,0
11370,-333.333333333333,4,2,0,45,0,0
11686,-333.333333333333,4,2,0,60,0,0
12002,-111.111111111111,4,2,0,60,0,0
12554,-111.111111111111,4,2,0,5,0,0
12633,-111.111111111111,4,2,0,60,0,0
14448,-111.111111111111,4,2,0,5,0,0
14528,-111.111111111111,4,2,0,60,0,0
15554,-111.111111111111,4,2,0,5,0,0
15633,-111.111111111111,4,2,0,60,0,0
16659,-111.111111111111,4,2,0,5,0,0
16739,-111.111111111111,4,2,0,60,0,0
18080,-111.111111111111,4,2,0,5,0,0
18160,-111.111111111111,4,2,0,60,0,0
19581,-333.333333333333,4,2,0,50,0,0
20528,-250,4,2,0,55,0,0
20606,-250,4,2,0,5,0,0
20686,-250,4,2,0,55,0,0
21080,-250,4,2,0,5,0,0
21160,-250,4,2,0,55,0,0
21475,-166.666666666666,4,2,0,55,0,0
21711,-166.666666666666,4,2,0,5,0,0
21791,-90.9090909090909,4,2,0,70,0,0
22027,-90.9090909090909,4,2,0,5,0,0
22107,-90.9090909090909,4,2,0,70,0,0
23290,-90.9090909090909,4,2,0,5,0,0
23370,-90.9090909090909,4,2,0,70,0,0
25185,-90.9090909090909,4,2,0,5,0,0
25265,-90.9090909090909,4,2,0,70,0,0
26290,-90.9090909090909,4,2,0,5,0,0
26370,-90.9090909090909,4,2,0,70,0,0
27080,-90.9090909090909,4,2,0,5,0,0
27160,-90.9090909090909,4,2,0,70,0,0
27869,-90.9090909090909,4,2,0,5,0,0
27949,-90.9090909090909,4,2,0,70,0,0
30553,-90.9090909090909,4,2,0,5,0,0
30633,-90.9090909090909,4,2,0,70,0,0
31343,-90.9090909090909,4,2,0,5,0,0
31423,-90.9090909090909,4,2,0,70,0,0
31501,-90.9090909090909,4,2,0,5,0,0
31581,-90.9090909090909,4,2,0,70,0,0
32132,-90.9090909090909,4,2,0,5,0,0
32212,-90.9090909090909,4,2,0,70,0,0
33396,-90.9090909090909,4,2,0,5,0,0
33475,-90.9090909090909,4,2,0,70,0,0
35606,-90.9090909090909,4,2,0,5,0,0
35686,-90.9090909090909,4,2,0,70,0,0
36553,-90.9090909090909,4,2,0,5,0,0
36633,-90.9090909090909,4,2,0,70,0,0
39396,-90.9090909090909,4,2,0,5,0,0
39475,-90.9090909090909,4,2,0,70,0,0
40185,-90.9090909090909,4,2,0,5,0,0
40265,-90.9090909090909,4,2,0,70,0,0
41448,-90.9090909090909,4,2,0,5,0,0
41528,-90.9090909090909,4,2,0,70,0,0
41844,-153.846153846154,4,2,0,70,0,0
41922,-153.846153846154,4,2,1,45,0,0
50922,-153.846153846154,4,2,1,5,0,0
51002,-153.846153846154,4,2,1,45,0,0
51949,-100,4,2,1,65,0,0
53448,-100,4,2,1,5,0,0
53528,-100,4,2,1,65,0,0
56764,-100,4,2,1,5,0,0
56844,-100,4,2,1,65,0,0
58501,-100,4,2,1,5,0,0
58581,-100,4,2,1,65,0,0
61659,-100,4,2,1,5,0,0
61739,-100,4,2,1,65,0,0
62054,-666.666666666667,4,2,1,50,0,0
63318,-200,4,2,1,50,0,0
66791,-250,4,2,1,50,0,0
69791,-200,4,2,1,50,0,0
71686,-285.714285714286,4,2,1,50,0,0
72160,-142.857142857143,4,2,1,60,0,0
77290,-142.857142857143,4,2,1,5,0,0
77370,-125,4,2,1,65,0,0
79896,-111.111111111111,4,2,1,70,0,0
80606,-111.111111111111,4,2,1,5,0,0
80686,-111.111111111111,4,2,1,70,0,0
81160,-142.857142857143,4,2,1,70,0,0
81712,-142.857142857143,4,2,1,5,0,0
81791,-500,4,2,1,50,0,0
82423,-83.3333333333333,4,2,1,75,0,0
82659,-83.3333333333333,4,2,1,5,0,0
82739,-83.3333333333333,4,2,1,75,0,0
83764,-83.3333333333333,4,2,1,5,0,0
83844,-83.3333333333333,4,2,1,75,0,0
83922,-83.3333333333333,4,2,1,5,0,0
84002,-83.3333333333333,4,2,1,75,0,0
85185,-83.3333333333333,4,2,1,5,0,0
85265,-83.3333333333333,4,2,1,75,0,0
85817,-83.3333333333333,4,2,1,5,0,0
85896,-83.3333333333333,4,2,1,75,0,0
88027,-83.3333333333333,4,2,1,5,0,0
88107,-83.3333333333333,4,2,1,75,0,0
88817,-83.3333333333333,4,2,1,5,0,0
88896,-83.3333333333333,4,2,1,75,0,0
89922,-83.3333333333333,4,2,1,5,0,0
90002,-83.3333333333333,4,2,1,75,0,0
90238,-83.3333333333333,4,2,1,5,0,0
90318,-83.3333333333333,4,2,1,75,0,0
91027,-83.3333333333333,4,2,1,5,0,0
91107,-83.3333333333333,4,2,1,75,0,0
91343,-83.3333333333333,4,2,1,5,0,0
91423,-83.3333333333333,4,2,1,75,0,0
91501,-83.3333333333333,4,2,1,5,0,0
91581,-83.3333333333333,4,2,1,75,0,0
92212,-100,4,2,1,75,0,0
92290,-100,4,2,1,5,0,0
92370,-100,4,2,1,75,0,0
92528,-100,4,2,1,70,0,0
96396,-100,4,2,1,5,0,0
96475,-100,4,2,1,70,0,0
97581,-166.666666666667,4,2,1,60,0,0
97817,-166.666666666667,4,2,1,5,0,0
97896,-166.666666666667,4,2,1,60,0,0
98290,-166.666666666667,4,2,1,5,0,0
98370,-166.666666666667,4,2,1,60,0,0
98764,-166.666666666667,4,2,1,5,0,0
98844,-166.666666666667,4,2,1,60,0,0
99238,-166.666666666667,4,2,1,5,0,0
99318,-166.666666666667,4,2,1,60,0,0
99475,-100,4,2,1,60,0,0
100107,-200,4,2,1,60,0,0
101054,-200,4,2,1,55,0,0
101448,-200,4,2,1,5,0,0
101528,-200,4,2,1,55,0,0
101922,-200,4,2,1,5,0,0
102002,-200,4,2,1,55,0,0
102633,-90.9090909090909,4,2,1,70,0,0
103185,-90.9090909090909,4,2,1,5,0,0
103265,-90.9090909090909,4,2,1,70,0,0
104290,-90.9090909090909,4,2,1,5,0,0
104370,-90.9090909090909,4,2,1,70,0,0
105396,-90.9090909090909,4,2,1,5,0,0
105475,-90.9090909090909,4,2,1,70,0,0
105869,-90.9090909090909,4,2,1,5,0,0
105949,-90.9090909090909,4,2,1,70,0,0
108238,-90.9090909090909,4,2,1,5,0,0
108318,-90.9090909090909,4,2,1,70,0,0
108711,-90.9090909090909,4,2,1,5,0,0
108791,-90.9090909090909,4,2,1,70,0,0
112185,-90.9090909090909,4,2,1,5,0,0
112265,-90.9090909090909,4,2,1,70,0,0
112581,-153.846153846154,4,2,1,70,0,0
112657,-153.846153846154,4,2,1,45,0,0
114869,-153.846153846154,4,2,1,5,0,0
114949,-153.846153846154,4,2,1,50,0,0
118817,-153.846153846154,4,2,1,5,0,0
118896,-153.846153846154,4,2,1,50,0,0
121423,-153.846153846154,4,2,1,60,0,0
122212,-100,4,2,1,65,0,0
122290,-100,4,2,1,5,0,0
122370,-100,4,2,1,65,0,0
122686,-100,4,2,1,70,0,0
127343,-100,4,2,1,5,0,0
127423,-100,4,2,1,70,0,0
127739,-83.3333333333333,4,2,1,75,0,0
128606,-83.3333333333333,4,2,1,5,0,0
128686,-83.3333333333333,4,2,1,75,0,0
129081,-71.4285714285714,4,2,1,75,0,0
129238,-71.4285714285714,4,2,1,5,0,0
129318,-83.3333333333333,4,2,1,75,0,0
129396,-83.3333333333333,4,2,1,5,0,0
129475,-100,4,2,1,75,0,0
131290,-100,4,2,1,5,0,0
131370,-100,4,2,1,75,0,0
131448,-100,4,2,1,5,0,0
131528,-100,4,2,1,75,0,0
131922,-100,4,2,1,5,0,0
132002,-100,4,2,1,75,0,0
132396,-100,4,2,1,5,0,0
132475,-100,4,2,1,75,0,0
132553,-100,4,2,1,5,0,0
132633,-100,4,2,1,75,0,0
132711,-100,4,2,1,5,0,0
132791,-100,4,2,1,75,0,0
133265,-100,4,2,1,50,0,0
133739,-142.857142857143,4,2,1,50,0,0
138002,-125,4,2,1,55,0,0
140528,-125,4,2,1,60,0,0
142896,-100,4,2,1,65,0,0
146290,-100,4,2,1,5,0,0
146370,-100,4,2,1,65,0,0
148107,-133.333333333333,4,2,1,60,0,0
150633,-90.9090909090909,4,2,1,65,0,0
151501,-90.9090909090909,4,2,1,5,0,0
151581,-90.9090909090909,4,2,1,65,0,0
151896,-90.9090909090909,4,2,1,70,0,0
152132,-90.9090909090909,4,2,1,5,0,0
152212,-90.9090909090909,4,2,1,70,0,0
153002,-76.9230769230769,4,2,1,80,0,0
154501,-76.9230769230769,4,2,1,5,0,0
154581,-76.9230769230769,4,2,1,80,0,0
155922,-76.9230769230769,4,2,1,5,0,0
156002,-76.9230769230769,4,2,1,80,0,0
157817,-76.9230769230769,4,2,1,5,0,0
157896,-76.9230769230769,4,2,1,80,0,0
159238,-76.9230769230769,4,2,1,5,0,0
159318,-76.9230769230769,4,2,1,80,0,0
161922,-76.9230769230769,4,2,1,5,0,0
162002,-76.9230769230769,4,2,1,80,0,0
163027,-76.9230769230769,4,2,1,5,0,0
163107,-76.9230769230769,4,2,1,80,0,0
163265,-90.9090909090909,4,2,1,70,0,0
163501,-90.9090909090909,4,2,1,5,0,0
163581,-90.9090909090909,4,2,1,70,0,0
165711,-90.9090909090909,4,2,1,5,0,0
165791,-90.9090909090909,4,2,1,70,0,0
168238,-90.9090909090909,4,2,1,5,0,0
168318,-111.111111111111,4,2,1,60,0,0
168554,-111.111111111111,4,2,1,5,0,0
168633,-111.111111111111,4,2,1,60,0,0
169265,-125,4,2,1,60,0,0
170606,-125,4,2,1,5,0,0
170686,-125,4,2,1,60,0,0
170844,-100,4,2,1,70,0,0
171080,-100,4,2,1,5,0,0
171160,-100,4,2,1,70,0,0
171238,-100,4,2,1,5,0,0
171318,-100,4,2,1,70,0,0
173370,-83.3333333333333,4,2,1,75,0,0
173606,-83.3333333333333,4,2,1,5,0,0
173686,-83.3333333333333,4,2,1,75,0,0
174711,-83.3333333333333,4,2,1,5,0,0
174791,-83.3333333333333,4,2,1,75,0,0
174869,-83.3333333333333,4,2,1,5,0,0
174949,-83.3333333333333,4,2,1,75,0,0
176132,-83.3333333333333,4,2,1,5,0,0
176212,-83.3333333333333,4,2,1,75,0,0
176764,-83.3333333333333,4,2,1,5,0,0
176844,-83.3333333333333,4,2,1,75,0,0
178975,-83.3333333333333,4,2,1,5,0,0
179054,-83.3333333333333,4,2,1,75,0,0
179448,-83.3333333333333,4,2,1,5,0,0
179528,-83.3333333333333,4,2,1,75,0,0
179764,-83.3333333333333,4,2,1,5,0,0
179844,-83.3333333333333,4,2,1,75,0,0
180869,-83.3333333333333,4,2,1,5,0,0
180949,-83.3333333333333,4,2,1,75,0,0
181974,-83.3333333333333,4,2,1,5,0,0
182054,-83.3333333333333,4,2,1,75,0,0
182290,-83.3333333333333,4,2,1,5,0,0
182370,-83.3333333333333,4,2,1,75,0,0
182448,-83.3333333333333,4,2,1,5,0,0
182528,-83.3333333333333,4,2,1,75,0,0
183160,-111.111111111111,4,2,1,75,0,0
183238,-111.111111111111,4,2,1,5,0,0
183318,-111.111111111111,4,2,1,75,0,0
183475,-111.111111111111,4,2,1,70,0,0
184974,-111.111111111111,4,2,1,5,0,0
185054,-111.111111111111,4,2,1,70,0,0
186002,-83.3333333333333,4,2,1,70,0,0
186553,-83.3333333333333,4,2,1,5,0,0
186633,-83.3333333333333,4,2,1,70,0,0
187343,-83.3333333333333,4,2,1,5,0,0
187423,-83.3333333333333,4,2,1,70,0,0
188528,-250,4,2,1,70,0,0
189002,-83.3333333333333,4,2,1,70,0,0
189080,-83.3333333333333,4,2,1,5,0,0
189318,-83.3333333333333,4,2,1,70,0,0
189633,-250,4,2,1,70,0,0
189949,-83.3333333333333,4,2,1,70,0,0
190027,-83.3333333333333,4,2,1,5,0,0
190265,-83.3333333333333,4,2,1,70,0,0
190423,-250,4,2,1,70,0,0
191054,-333.333333333333,4,2,1,70,0,0
191131,-333.333333333333,4,2,1,50,0,0
192001,-333.333333333333,4,2,1,20,0,0
192318,-333.333333333333,4,2,1,25,0,0
192396,-333.333333333333,4,2,1,27,0,0
192475,-333.333333333333,4,2,1,30,0,0
192554,-333.333333333333,4,2,1,33,0,0
192633,-133.333333333333,4,2,1,35,0,0
192711,-133.333333333333,4,2,1,40,0,0
192790,-133.333333333333,4,2,1,45,0,0
192869,-133.333333333333,4,2,1,50,0,0
192949,-100,4,2,1,55,0,0
193027,-100,4,2,1,60,0,0
193106,-100,4,2,1,65,0,0
193185,-100,4,2,1,70,0,0
193265,-100,4,2,1,75,0,0
193423,-100,4,2,1,80,0,0
193581,-50,4,2,1,85,0,0
193817,-50,4,2,1,5,0,0
193896,-71.4285714285714,4,2,1,85,0,0
194290,-71.4285714285714,4,2,1,5,0,0
194370,-71.4285714285714,4,2,1,85,0,0
194528,-58.8235294117647,4,2,1,85,0,0
194606,-58.8235294117647,4,2,1,5,0,0
194686,-71.4285714285714,4,2,1,85,0,0
194922,-71.4285714285714,4,2,1,5,0,0
195002,-71.4285714285714,4,2,1,85,0,0
195080,-71.4285714285714,4,2,1,5,0,0
195160,-71.4285714285714,4,2,1,85,0,0
195711,-71.4285714285714,4,2,1,5,0,0
195791,-71.4285714285714,4,2,1,85,0,0
196107,-62.5,4,2,1,85,0,0
196343,-62.5,4,2,1,5,0,0
196423,-90.9090909090909,4,2,1,85,0,0
196501,-90.9090909090909,4,2,1,5,0,0
196581,-90.9090909090909,4,2,1,85,0,0
196739,-71.4285714285714,4,2,1,85,0,0
196975,-71.4285714285714,4,2,1,5,0,0
197054,-71.4285714285714,4,2,1,85,0,0
197132,-71.4285714285714,4,2,1,5,0,0
197212,-71.4285714285714,4,2,1,85,0,0
197448,-71.4285714285714,4,2,1,5,0,0
197528,-71.4285714285714,4,2,1,85,0,0
197606,-71.4285714285714,4,2,1,5,0,0
197686,-71.4285714285714,4,2,1,85,0,0
198554,-71.4285714285714,4,2,1,5,0,0
198633,-55.5555555555556,4,2,1,85,0,0
198869,-55.5555555555556,4,2,1,5,0,0
198949,-71.4285714285714,4,2,1,85,0,0
199027,-71.4285714285714,4,2,1,5,0,0
199107,-60.6060606060606,4,2,1,85,0,0
199501,-60.6060606060606,4,2,1,5,0,0
199581,-60.6060606060606,4,2,1,85,0,0
199739,-71.4285714285714,4,2,1,85,0,0
199975,-71.4285714285714,4,2,1,5,0,0
200054,-90.9090909090909,4,2,1,85,0,0
200132,-90.9090909090909,4,2,1,5,0,0
200212,-90.9090909090909,4,2,1,85,0,0
200686,-71.4285714285714,4,2,1,85,0,0
200764,-71.4285714285714,4,2,1,5,0,0
200844,-62.5,4,2,1,85,0,0
201081,-71.4285714285714,4,2,1,5,0,0
201160,-71.4285714285714,4,2,1,85,0,0
201553,-71.4285714285714,4,2,1,5,0,0
201633,-71.4285714285714,4,2,1,85,0,0
201711,-71.4285714285714,4,2,1,5,0,0
201791,-71.4285714285714,4,2,1,85,0,0
202265,-55.5555555555556,4,2,1,85,0,0
202501,-55.5555555555556,4,2,1,5,0,0
202581,-55.5555555555556,4,2,1,85,0,0
202817,-55.5555555555556,4,2,1,5,0,0
202896,-55.5555555555556,4,2,1,85,0,0
202974,-55.5555555555556,4,2,1,5,0,0
203054,-50,4,2,1,85,0,0
203686,-55.5555555555556,4,2,1,85,0,0
203922,-55.5555555555556,4,2,1,5,0,0
204002,-71.4285714285714,4,2,1,85,0,0
204396,-71.4285714285714,4,2,1,5,0,0
204475,-71.4285714285714,4,2,1,85,0,0
204869,-71.4285714285714,4,2,1,5,0,0
204949,-71.4285714285714,4,2,1,85,0,0
205659,-71.4285714285714,4,2,1,5,0,0
205739,-71.4285714285714,4,2,1,85,0,0
205974,-71.4285714285714,4,2,1,5,0,0
206054,-71.4285714285714,4,2,1,85,0,0
206251,-71.4285714285714,4,2,1,5,0,0
206291,-71.4285714285714,4,2,1,85,0,0
206330,-71.4285714285714,4,2,1,5,0,0
206370,-71.4285714285714,4,2,1,85,0,0
206409,-71.4285714285714,4,2,1,5,0,0
206528,-71.4285714285714,4,2,1,85,0,0
206764,-71.4285714285714,4,2,1,5,0,0
206844,-71.4285714285714,4,2,1,85,0,0
206922,-71.4285714285714,4,2,1,5,0,0
207002,-71.4285714285714,4,2,1,85,0,0
207475,-58.8235294117647,4,2,1,85,0,0
207553,-58.8235294117647,4,2,1,5,0,0
207633,-58.8235294117647,4,2,1,85,0,0
207711,-58.8235294117647,4,2,1,5,0,0
207791,-58.8235294117647,4,2,1,85,0,0
208107,-71.4285714285714,4,2,1,85,0,0
208185,-71.4285714285714,4,2,1,5,0,0
208265,-71.4285714285714,4,2,1,85,0,0
208343,-71.4285714285714,4,2,1,5,0,0
208423,-71.4285714285714,4,2,1,85,0,0
208659,-71.4285714285714,4,2,1,5,0,0
208739,-55.5555555555556,4,2,1,85,0,0
208975,-55.5555555555556,4,2,1,5,0,0
209054,-71.4285714285714,4,2,1,85,0,0
209448,-71.4285714285714,4,2,1,5,0,0
209528,-71.4285714285714,4,2,1,85,0,0
209922,-71.4285714285714,4,2,1,5,0,0
210002,-71.4285714285714,4,2,1,85,0,0
210238,-71.4285714285714,4,2,1,5,0,0
210318,-71.4285714285714,4,2,1,85,0,0
210633,-66.6666666666667,4,2,1,85,0,0
210949,-71.4285714285714,4,2,1,85,0,0
211185,-71.4285714285714,4,2,1,5,0,0
211265,-71.4285714285714,4,2,1,85,0,0
211581,-100,4,2,1,85,0,0
211659,-100,4,2,1,5,0,0
211739,-100,4,2,1,85,0,0
211974,-100,4,2,1,5,0,0
212054,-100,4,2,1,85,0,0
212922,-100,4,2,1,5,0,0
213002,-100,4,2,1,85,0,0
213318,-83.3333333333333,4,2,1,85,0,0
213396,-83.3333333333333,4,2,1,5,0,0
213475,-71.4285714285714,4,2,1,85,0,0
213553,-71.4285714285714,4,2,1,5,0,0
213633,-100,4,2,1,85,0,0
214027,-100,4,2,1,5,0,0
214107,-125,4,2,1,75,0,0
214343,-125,4,2,1,5,0,0
214423,-100,4,2,1,75,0,0
215054,-90.9090909090909,4,2,1,75,0,0
221290,-90.9090909090909,4,2,1,5,0,0
221370,-90.9090909090909,4,2,1,75,0,0
221764,-90.9090909090909,4,2,1,5,0,0
221844,-90.9090909090909,4,2,1,75,0,0
222080,-90.9090909090909,4,2,1,5,0,0
222160,-90.9090909090909,4,2,1,75,0,0
223343,-90.9090909090909,4,2,1,5,0,0
223423,-90.9090909090909,4,2,1,75,0,0
223896,-100,4,2,1,70,0,0
224132,-100,4,2,1,5,0,0
224212,-100,4,2,1,70,0,0
225238,-100,4,2,1,5,0,0
225318,-100,4,2,1,70,0,0
226343,-100,4,2,1,5,0,0
226423,-100,4,2,1,70,0,0
226659,-100,4,2,1,5,0,0
226739,-100,4,2,1,70,0,0
228949,-100,4,2,1,80,0,0
229027,-100,4,2,1,5,0,0
229107,-100,4,2,1,80,0,0
229343,-100,4,2,1,5,0,0
229423,-100,4,2,1,80,0,0
229974,-100,4,2,1,5,0,0
230054,-100,4,2,1,80,0,0
230606,-100,4,2,1,5,0,0
230686,-100,4,2,1,80,0,0
231869,-100,4,2,1,5,0,0
231949,-100,4,2,1,80,0,0
232185,-100,4,2,1,5,0,0
232265,-100,4,2,1,80,0,0
232581,-83.3333333333333,4,2,1,80,0,0
232817,-83.3333333333333,4,2,1,5,0,0
232896,-83.3333333333333,4,2,1,80,0,0
232974,-83.3333333333333,4,2,1,5,0,0
233054,-83.3333333333333,4,2,1,80,0,0
233132,-83.3333333333333,4,2,1,5,0,0
233212,-83.3333333333333,4,2,1,80,0,0
233764,-83.3333333333333,4,2,1,5,0,0
233844,-83.3333333333333,4,2,1,80,0,0
238739,-83.3333333333333,4,2,1,45,0,0
238817,-83.3333333333333,4,2,1,5,0,0
238896,-370.37037037037,4,2,1,45,0,0
243002,-370.37037037037,4,2,1,60,0,0
243160,-200,4,2,1,60,0,0
243396,-200,4,2,1,5,0,0
243475,-200,4,2,1,75,0,0
243949,-74.0740740740741,4,2,1,85,0,0
244185,-74.0740740740741,4,2,1,5,0,0
244265,-74.0740740740741,4,2,1,85,0,0
244343,-74.0740740740741,4,2,1,5,0,0
244423,-74.0740740740741,4,2,1,85,0,0
245132,-74.0740740740741,4,2,1,5,0,0
245212,-74.0740740740741,4,2,1,85,0,0
245448,-74.0740740740741,4,2,1,5,0,0
245528,-74.0740740740741,4,2,1,85,0,0
247185,-74.0740740740741,4,2,1,5,0,0
247265,-74.0740740740741,4,2,1,85,0,0
247975,-74.0740740740741,4,2,1,5,0,0
248054,-74.0740740740741,4,2,1,85,0,0
248132,-74.0740740740741,4,2,1,5,0,0
248212,-74.0740740740741,4,2,1,85,0,0
248844,-166.666666666667,4,2,1,75,0,0
249080,-166.666666666667,4,2,1,5,0,0
249160,-83.3333333333333,4,2,1,75,0,0
251686,-83.3333333333333,4,2,1,80,0,0
251764,-83.3333333333333,4,2,1,5,0,0
251844,-83.3333333333333,4,2,1,80,0,0
252238,-83.3333333333333,4,2,1,5,0,0
252318,-83.3333333333333,4,2,1,80,0,0
252711,-83.3333333333333,4,2,1,5,0,0
252791,-83.3333333333333,4,2,1,80,0,0
252869,-83.3333333333333,4,2,1,5,0,0
252949,-83.3333333333333,4,2,1,80,0,0
253027,-83.3333333333333,4,2,1,5,0,0
253107,-83.3333333333333,4,2,1,80,0,0
253501,-83.3333333333333,4,2,1,5,0,0
253581,-83.3333333333333,4,2,1,85,0,0
253896,-76.9230769230769,4,2,1,85,0,0
253974,-76.9230769230769,4,2,1,5,0,0
254054,-76.9230769230769,4,2,1,85,0,0
254132,-76.9230769230769,4,2,1,5,0,0
254212,-76.9230769230769,4,2,1,90,0,0
255160,-71.4285714285714,4,2,1,90,0,0
255238,-71.4285714285714,4,2,1,5,0,0
255318,-71.4285714285714,4,2,1,90,0,0
255396,-71.4285714285714,4,2,1,5,0,0
255475,-90.9090909090909,4,2,1,90,0,0
256107,-250,4,2,1,40,0,0
257844,-285.714285714286,4,2,1,40,0,0
258317,-285.714285714286,4,2,1,50,0,0
258633,-285.714285714286,4,2,1,60,0,0
259265,-76.9230769230769,4,2,1,80,0,0
259501,-76.9230769230769,4,2,1,5,0,0
259581,-76.9230769230769,4,2,1,80,0,0
262343,-76.9230769230769,4,2,1,5,0,0
262423,-76.9230769230769,4,2,1,80,0,0
265659,-76.9230769230769,4,2,1,5,0,0
265739,-76.9230769230769,4,2,1,80,0,0
266212,-100,4,2,1,80,0,0
266290,-100,4,2,1,5,0,0
266370,-100,4,2,1,80,0,0
266448,-100,4,2,1,5,0,0
266528,-100,4,2,1,80,0,0
266844,-90.9090909090909,4,2,1,75,0,0
271817,-90.9090909090909,4,2,1,5,0,0
271896,-166.666666666667,4,2,1,65,0,0
272132,-166.666666666667,4,2,1,5,0,0
272212,-166.666666666667,4,2,1,65,0,0
272606,-166.666666666667,4,2,1,5,0,0
272686,-166.666666666667,4,2,1,65,0,0
273080,-166.666666666667,4,2,1,5,0,0
273160,-166.666666666667,4,2,1,65,0,0
273554,-166.666666666667,4,2,1,5,0,0
273633,-166.666666666667,4,2,1,65,0,0
273791,-125,4,2,1,65,0,0
274423,-333.333333333333,4,2,1,65,0,0
276633,-333.333333333333,4,2,1,50,0,0
278212,-333.333333333333,4,2,1,60,0,0
278764,-333.333333333333,4,2,1,5,0,0
278844,-333.333333333333,4,2,1,60,0,0
279475,-80,4,2,1,75,0,0
279711,-80,4,2,1,5,0,0
279791,-80,4,2,1,75,0,0
280817,-80,4,2,1,5,0,0
280896,-80,4,2,1,75,0,0
282554,-80,4,2,1,5,0,0
282633,-80,4,2,1,75,0,0
284764,-80,4,2,1,5,0,0
284844,-80,4,2,1,75,0,0
285475,-80,4,2,1,80,0,0
285553,-80,4,2,1,5,0,0
285633,-80,4,2,1,80,0,0
285711,-80,4,2,1,5,0,0
285791,-80,4,2,1,80,0,0
286974,-80,4,2,1,5,0,0
287054,-83.3333333333333,4,2,1,80,0,0
287290,-83.3333333333333,4,2,1,5,0,0
287370,-83.3333333333333,4,2,1,80,0,0
289817,-83.3333333333333,4,2,1,5,0,0
289896,-83.3333333333333,4,2,1,80,0,0
290764,-83.3333333333333,4,2,1,5,0,0
290844,-83.3333333333333,4,2,1,80,0,0
291080,-83.3333333333333,4,2,1,5,0,0
291160,-83.3333333333333,4,2,1,80,0,0
291553,-83.3333333333333,4,2,1,5,0,0
291633,-83.3333333333333,4,2,1,80,0,0
291711,-83.3333333333333,4,2,1,5,0,0
291791,-83.3333333333333,4,2,1,80,0,0
292107,-83.3333333333333,4,2,1,85,0,0
292185,-83.3333333333333,4,2,1,5,0,0
292265,-83.3333333333333,4,2,1,85,0,0
294318,-100,4,2,1,85,0,0
294633,-100,4,2,1,90,0,0
294711,-100,4,2,1,5,0,0
294791,-100,4,2,1,90,0,0
295027,-100,4,2,1,5,0,0
295107,-100,4,2,1,90,0,0
295343,-100,4,2,1,5,0,0
295423,-100,4,2,1,90,0,0
295659,-100,4,2,1,5,0,0
295739,-100,4,2,1,90,0,0
295974,-100,4,2,1,5,0,0
296054,-100,4,2,1,90,0,0
296212,-90.9090909090909,4,2,1,90,0,0
296290,-90.9090909090909,4,2,1,5,0,0
296370,-90.9090909090909,4,2,1,90,0,0
296528,-83.3333333333333,4,2,1,90,0,0
296606,-83.3333333333333,4,2,1,5,0,0
296686,-83.3333333333333,4,2,1,90,0,0
296844,-76.9230769230769,4,2,1,90,0,0
296922,-76.9230769230769,4,2,1,5,0,0
297002,-125,4,2,1,70,0,0
297475,-125,4,2,1,60,0,0
298420,-125,4,2,1,50,0,0
299684,-125,4,2,1,40,0,0
300947,-125,4,2,1,30,0,0

[Colours]
Combo1 : 247,70,97
Combo2 : 2,136,181

[HitObjects]
378,136,1186,5,2,2:0:0:0:
378,136,1581,6,0,B|385:22|200:107|184:-35|321:-133|514:-76|668:172|630:337|472:339|374:56|187:59|212:220|268:245,1,840.999999999999,2|0,2:0|2:0,2:0:0:0:
352,230,6318,6,0,P|331:205|317:170,1,50,2|0,2:0|2:0,2:0:0:0:
196,283,6633,2,0,B|182:349|75:416|0:374|31:302|71:350,1,240,2|2,2:0|2:0,2:0:0:0:
63,342,7896,5,2,2:0:0:0:
127,302,8054,2,0,P|145:251|129:207,1,82.4999999999999,2|0,2:0|2:0,2:0:0:0:
104,221,8370,2,0,B|80:141|64:202|33:88,1,135,2|2,2:0|2:0,2:0:0:0:
0,0,9002,6,0,P|88:39|252:113,1,270,2|0,2:0|2:0,2:0:0:0:
40,66,10739,6,2,B|61:144|121:153|134:18|242:-15|273:50,1,280,0|0,3:0|2:0,2:0:0:0:
278,12,11370,6,0,L|291:45,1,30,2|0,2:0|2:0,2:0:0:0:
510,166,11686,5,4,1:0:0:0:
439,199,11844,1,0,3:0:0:0:
366,31,12002,6,0,B|385:83|398:58|420:114,1,90.0000000000001,8|0,2:0|2:0,2:0:0:0:
502,245,12318,2,0,B|477:322|455:278|422:393,1,135,8|0,2:0|2:0,2:0:0:0:
432,359,12633,5,2,3:2:0:0:
362,165,12791,2,0,P|310:146|291:95,1,90.0000000000001,10|0,2:0|2:0,2:0:0:0:
465,175,13107,6,0,P|379:202|292:229,1,180,10|2,2:0|1:2,2:0:0:0:
139,276,13581,1,8,2:0:0:0:
65,252,13739,1,2,3:2:0:0:
232,175,13896,5,10,2:0:0:0:
172,356,14054,1,0,3:0:0:0:
257,383,14212,2,0,P|240:317|213:247,1,135,6|0,1:2|2:0,2:0:0:0:
216,254,14528,6,0,P|271:271|311:281,1,90.0000000000001,8|0,2:0|1:0,2:0:0:0:
86,346,14844,2,0,P|32:366|-8:376,1,90.0000000000001,8|0,2:0|1:0,2:0:0:0:
28,280,15160,5,2,1:2:0:0:
162,330,15318,2,0,B|141:253|117:286|96:205,1,135,10|0,2:0|2:0,2:0:0:0:
98,213,15633,2,0,L|128:110,1,90.0000000000001,10|0,2:0|2:0,2:0:0:0:
209,129,15949,5,2,1:2:0:0:
3,29,16107,1,8,2:0:0:0:
47,107,16265,1,2,3:2:0:0:
47,107,16344,1,0,3:0:0:0:
47,107,16423,2,0,P|107:93|176:46,1,135,10|0,2:0|2:0,2:0:0:0:
226,0,16739,6,0,P|303:15|339:121,1,180,6|8,1:2|2:0,2:0:0:0:
284,157,17212,5,0,1:0:0:0:
419,75,17370,2,0,P|460:94|515:109,1,90.0000000000001,10|0,2:0|2:0,2:0:0:0:
490,22,17686,5,2,1:2:0:0:
337,223,17844,2,0,P|387:197|480:181,1,135,8|0,2:0|2:0,2:0:0:0:
463,181,18160,5,8,2:0:0:0:
368,296,18318,1,2,3:2:0:0:
284,157,18475,1,0,1:0:0:0:
292,287,18633,2,0,P|285:333|274:377,1,90.0000000000001,8|0,2:0|2:0,2:0:0:0:
213,123,18949,2,0,P|165:106|128:89,1,90.0000000000001,10|8,2:0|3:0,2:0:0:0:
109,93,19186,1,4,3:0:0:0:
106,75,19265,1,4,1:2:0:0:
106,75,19581,6,0,P|93:32|85:8,1,60.0000000000001,2|0,2:0|2:0,2:0:0:0:
178,25,20212,5,2,1:2:0:0:
178,25,20370,1,0,1:0:0:0:
77,154,20528,6,0,L|44:167,1,20,10|0,2:0|2:0,2:0:0:0:
215,201,20686,1,0,1:0:0:0:
156,140,20844,1,2,1:2:0:0:
379,65,21002,6,0,L|402:71,1,20,8|0,2:0|2:0,2:0:0:0:
276,0,21160,1,0,1:0:0:0:
238,130,21318,1,0,1:0:0:0:
238,130,21396,1,0,1:0:0:0:
238,130,21475,2,0,P|230:95|206:20,1,90.0000000000004,10|0,2:0|2:0,2:0:0:0:
306,78,21791,6,0,P|376:102|488:128,1,165,6|0,1:0|2:0,2:0:0:0:
464,123,22107,2,0,P|406:140|355:162,1,110,10|0,2:0|2:0,2:0:0:0:
168,266,22423,5,0,1:2:0:0:
316,360,22581,1,2,3:2:0:0:
218,203,22739,1,8,2:0:0:0:
218,384,22896,2,0,P|236:319|248:266,1,110,2|2,1:2|2:0,2:0:0:0:
311,224,23212,6,0,L|328:294,1,55,2|0,1:2|2:0,2:0:0:0:
124,342,23370,1,10,2:0:0:0:
37,260,23528,1,2,3:2:0:0:
62,267,23607,1,2,3:0:0:0:
88,274,23686,1,0,3:2:0:0:
56,384,23844,5,2,1:2:0:0:
168,266,24002,1,8,2:0:0:0:
0,184,24160,1,2,3:2:0:0:
44,301,24318,6,0,P|75:235|74:184,1,110,6|0,1:2|2:0,2:0:0:0:
182,4,24633,2,0,P|190:57|213:108,1,110,10|0,2:0|2:0,2:0:0:0:
151,179,24949,5,0,1:2:0:0:
42,112,25107,2,0,L|95:123,1,55,2|0,3:2|2:0,2:0:0:0:
267,51,25265,1,8,2:0:0:0:
110,48,25423,6,0,P|52:3|-18:10,1,110,2|2,1:2|2:0,2:0:0:0:
96,124,25739,1,2,1:2:0:0:
323,60,25896,2,0,L|459:92,1,110,10|2,2:0|3:2,2:0:0:0:
430,85,26133,1,2,3:0:0:0:
430,85,26212,2,0,L|405:10,1,55,0|0,3:2|2:0,2:0:0:0:
487,0,26370,5,2,1:2:0:0:
326,204,26528,1,10,2:0:0:0:
377,262,26686,1,2,3:2:0:0:
512,79,26844,6,0,P|430:128|406:236,1,165,6|0,1:2|2:0,2:0:0:0:
404,189,27160,2,0,P|469:204|524:218,1,110,10|0,2:0|2:0,2:0:0:0:
293,281,27475,2,0,P|258:328|178:321,1,110,0|2,1:0|2:0,2:0:0:0:
266,149,27791,6,0,L|251:83,1,55,8|0,2:0|2:0,2:0:0:0:
337,124,27949,1,2,1:2:0:0:
326,202,28107,5,2,3:2:0:0:
173,132,28265,1,2,1:2:0:0:
308,31,28423,1,10,2:0:0:0:
136,45,28581,1,2,3:2:0:0:
161,52,28660,1,2,3:0:0:0:
187,59,28739,1,0,3:0:0:0:
41,176,28896,5,2,1:2:0:0:
76,0,29054,2,0,P|86:57|94:115,1,110,8|2,2:0|2:0,2:0:0:0:
120,264,29370,6,0,P|187:287|249:310,1,110,6|0,1:2|2:0,2:0:0:0:
50,311,29686,2,0,B|103:193|126:256|176:121,1,220,10|0,2:0|1:0,2:0:0:0:
244,102,30160,5,2,3:2:0:0:
2,43,30318,1,8,2:0:0:0:
49,107,30475,2,0,L|101:91,1,55,2|0,1:2|2:0,2:0:0:0:
178,52,30633,5,2,3:2:0:0:
195,27,30712,1,0,3:0:0:0:
233,16,30791,1,2,1:2:0:0:
280,25,30870,1,0,3:0:0:0:
317,56,30949,1,2,3:2:0:0:
365,64,31028,1,0,3:0:0:0:
401,50,31107,1,2,1:2:0:0:
411,20,31186,1,8,3:2:0:0:
403,22,31265,6,0,L|428:93,1,55,0|0,1:0|2:0,2:0:0:0:
318,256,31423,2,0,L|389:234,1,55,2|0,1:2|2:0,2:0:0:0:
497,231,31581,5,10,1:2:0:0:
467,191,31660,1,8,2:0:0:0:
423,168,31739,1,10,2:0:0:0:
374,158,31818,1,8,2:0:0:0:
374,158,31896,6,0,B|398:275|414:194|441:333,1,165,4|0,1:0|2:0,2:0:0:0:
435,308,32212,2,0,P|372:323|329:349,1,110,10|0,2:0|2:0,2:0:0:0:
223,142,32528,5,0,1:0:0:0:
294,175,32686,1,2,3:2:0:0:
253,353,32844,1,8,2:0:0:0:
161,195,33002,2,0,P|107:181|60:154,1,110,2|2,1:2|2:0,2:0:0:0:
218,281,33318,6,0,L|232:223,1,55,2|0,1:2|2:0,2:0:0:0:
359,123,33475,1,10,2:0:0:0:
305,256,33633,1,2,3:2:0:0:
332,250,33712,1,2,3:0:0:0:
357,244,33791,1,0,3:0:0:0:
296,175,33949,5,2,1:2:0:0:
413,311,34107,1,8,2:0:0:0:
508,180,34265,1,2,3:2:0:0:
444,134,34423,6,0,P|419:184|405:237,1,110,6|0,1:2|2:0,2:0:0:0:
494,31,34739,2,0,P|389:64|284:96,1,220,10|0,2:0|1:0,2:0:0:0:
217,52,35212,5,2,3:2:0:0:
95,176,35370,1,8,2:0:0:0:
30,130,35528,2,0,L|55:72,1,55,2|0,1:2|2:0,2:0:0:0:
126,110,35686,5,2,3:2:0:0:
0,17,35844,1,2,1:2:0:0:
11,225,36002,2,0,P|68:204|128:191,1,110,10|2,2:0|3:2,2:0:0:0:
115,192,36239,1,2,3:0:0:0:
115,192,36318,1,0,3:0:0:0:
116,25,36475,6,0,L|140:88,1,55,2|0,1:2|2:0,2:0:0:0:
265,185,36633,1,10,2:0:0:0:
333,148,36791,1,2,3:2:0:0:
212,130,36949,6,0,P|167:198|172:261,1,110,6|0,1:2|2:0,2:0:0:0:
300,324,37265,2,0,L|524:384,1,220,10|0,2:0|1:0,2:0:0:0:
451,330,37739,5,2,1:2:0:0:
240,383,37896,1,8,2:0:0:0:
340,260,38054,2,0,P|341:314|313:361,1,110,2|2,1:2|2:0,2:0:0:0:
183,321,38370,5,2,1:2:0:0:
0,301,38528,2,0,L|106:273,1,110,10|2,2:0|3:2,2:0:0:0:
106,273,38765,1,2,3:0:0:0:
106,273,38844,1,0,3:0:0:0:
97,361,39002,5,2,1:2:0:0:
95,105,39160,2,0,B|130:220|155:153|181:243,1,165,8|0,2:0|2:0,2:0:0:0:
180,241,39475,5,4,1:0:0:0:
8,144,39633,1,0,1:0:0:0:
217,24,39791,1,10,2:0:0:0:
178,96,39949,1,0,1:0:0:0:
83,10,40107,6,0,L|157:38,1,55,8|0,2:0|2:0,2:0:0:0:
332,190,40265,1,2,1:2:0:0:
401,157,40423,1,0,1:0:0:0:
263,343,40581,5,14,3:2:0:0:
282,340,40660,1,0,3:0:0:0:
298,319,40739,1,2,3:2:0:0:
301,281,40818,1,0,3:0:0:0:
274,247,40896,1,2,1:2:0:0:
236,220,40975,1,0,3:0:0:0:
225,171,41054,1,10,3:2:0:0:
246,128,41133,1,0,3:0:0:0:
276,108,41212,1,2,3:2:0:0:
299,115,41291,1,0,3:0:0:0:
296,123,41370,6,0,L|276:46,1,55,0|0,1:0|2:0,2:0:0:0:
201,300,41528,1,10,1:2:0:0:
171,340,41607,1,8,2:0:0:0:
126,361,41686,1,10,2:0:0:0:
76,360,41765,1,8,2:0:0:0:
76,360,41844,6,0,B|102:290|123:316|147:222,1,130,4|0,1:0|1:0,2:0:0:0:
34,139,42318,1,8,2:0:0:0:
34,139,42633,5,2,3:2:0:0:
103,174,42791,1,2,1:2:0:0:
101,97,42949,1,8,2:0:0:0:
32,53,43107,6,0,P|106:81|242:130,1,195,2|8,1:2|2:0,2:0:0:0:
214,120,43896,5,0,3:0:0:0:
289,99,44054,1,0,1:0:0:0:
348,150,44212,1,10,2:0:0:0:
505,73,44370,6,0,B|475:144|453:109|420:182,1,130,6|0,1:2|2:0,2:0:0:0:
374,235,44844,2,0,L|303:263,1,64.9999999999999,10|0,2:0|2:0,2:0:0:0:
210,366,45160,5,2,3:2:0:0:
139,332,45318,1,2,1:2:0:0:
171,260,45475,1,8,2:0:0:0:
244,295,45633,6,0,P|332:325|363:368,1,130,2|0,1:2|2:0,2:0:0:0:
432,365,46107,2,0,P|465:360|490:330,1,64.9999999999999,10|0,2:0|2:0,2:0:0:0:
490,262,46423,5,2,3:2:0:0:
411,261,46581,1,2,1:2:0:0:
368,323,46739,1,8,2:0:0:0:
372,192,46896,6,0,B|401:106|410:164|444:57,1,130,6|0,1:2|1:0,2:0:0:0:
298,0,47370,1,10,2:0:0:0:
298,0,47686,5,2,3:2:0:0:
304,79,47844,1,2,1:2:0:0:
369,36,48002,1,8,2:0:0:0:
317,38,48160,6,0,P|197:71|110:93,1,195,2|8,1:2|2:0,2:0:0:0:
133,92,49107,5,0,1:0:0:0:
133,92,49265,1,8,2:0:0:0:
0,44,49423,6,0,B|35:127|45:76|87:173,1,130,6|0,1:2|2:0,2:0:0:0:
8,316,49896,1,10,2:0:0:0:
8,316,50370,5,0,1:0:0:0:
2,233,50528,2,0,P|44:249|81:262,1,64.9999999999999,8|2,2:0|2:0,2:0:0:0:
185,382,50844,2,0,L|167:336,1,32.5,0|0,1:0|2:0,2:0:0:0:
96,331,51002,5,2,3:2:0:0:
158,257,51160,5,10,2:0:0:0:
293,229,51318,5,2,3:2:0:0:
417,300,51475,5,2,3:2:0:0:
412,310,51554,1,2,3:0:0:0:
426,311,51633,2,0,L|481:331,2,32.5,2|2|8,3:2|3:0|2:0,2:0:0:0:
335,375,51949,6,0,B|382:254|402:335|461:181,1,200,4|0,1:0|1:0,2:0:0:0:
512,23,52423,2,0,L|395:59,1,100,10|0,2:0|2:0,2:0:0:0:
345,218,52739,5,2,1:2:0:0:
467,125,52896,1,2,3:2:0:0:
343,19,53054,1,8,2:0:0:0:
387,151,53212,6,0,P|331:100|259:84,1,150,2|0,1:2|2:0,2:0:0:0:
259,83,53528,1,0,1:0:0:0:
39,69,53686,2,0,L|231:10,1,200,8|0,2:0|1:0,2:0:0:0:
219,163,54160,5,0,3:0:0:0:
341,81,54318,1,10,2:0:0:0:
230,10,54475,2,0,B|204:124|147:71|124:189,1,200,2|0,1:2|1:0,2:0:0:0:
302,156,54949,6,0,P|346:178|402:186,1,100,10|0,2:0|2:0,2:0:0:0:
293,78,55265,1,2,1:2:0:0:
217,189,55423,1,2,3:2:0:0:
392,307,55581,1,8,2:0:0:0:
336,252,55739,6,0,P|234:273|139:336,1,200,2|0,1:2|1:0,2:0:0:0:
52,190,56212,2,0,P|95:215|143:227,1,100,10|0,2:0|2:0,2:0:0:0:
217,189,56528,5,2,1:2:0:0:
77,339,56686,2,0,P|68:297|41:263,1,50,2|0,3:2|2:0,2:0:0:0:
0,250,56844,5,8,2:0:0:0:
159,379,57002,2,0,P|183:269|236:155,1,200,2|0,1:2|1:0,2:0:0:0:
105,56,57475,2,0,P|128:100|144:156,1,100,10|0,2:0|2:0,2:0:0:0:
261,289,57791,5,2,1:2:0:0:
117,223,57949,1,2,3:2:0:0:
307,117,58107,1,8,2:0:0:0:
291,212,58265,6,0,P|358:179|461:176,1,150,2|0,1:2|2:0,2:0:0:0:
432,171,58581,1,0,1:0:0:0:
323,41,58739,1,8,2:0:0:0:
323,41,58896,1,0,3:0:0:0:
468,37,59054,6,0,P|405:88|361:96,1,100,0|0,1:0|2:0,2:0:0:0:
470,290,59370,1,10,2:0:0:0:
262,380,59528,2,0,P|323:282|411:255,1,200,2|0,1:2|1:0,2:0:0:0:
511,214,60002,6,0,P|458:192|399:168,1,100,10|0,2:0|2:0,2:0:0:0:
189,83,60318,1,2,1:2:0:0:
260,205,60475,1,2,1:2:0:0:
359,20,60633,1,8,2:0:0:0:
195,162,60791,6,0,P|99:192|0:215,1,200,2|0,1:2|1:0,2:0:0:0:
265,125,61265,2,0,B|276:25,1,100,10|0,2:0|3:0,2:0:0:0:
273,22,61502,5,0,3:0:0:0:
270,17,61581,2,0,L|283:103,1,50,2|0,1:2|2:0,2:0:0:0:
333,170,61739,1,10,2:0:0:0:
340,224,61818,1,8,2:0:0:0:
306,255,61896,1,8,2:0:0:0:
270,252,61975,1,8,2:0:0:0:
270,252,62054,6,0,P|252:285|251:312,1,60,4|0,1:0|1:0,2:0:0:0:
277,384,62844,1,8,2:0:0:0:
277,384,63002,1,0,1:0:0:0:
277,384,63318,6,0,P|264:346|207:309,1,100,0|0,1:0|1:0,2:0:0:0:
143,331,63791,1,0,1:0:0:0:
143,331,64107,5,10,2:0:0:0:
105,264,64265,2,0,P|124:213|142:151,1,100,0|0,1:0|1:0,2:0:0:0:
256,190,64739,6,0,P|338:166|392:128,1,150,8|0,2:0|1:0,2:0:0:0:
438,39,65370,1,8,2:0:0:0:
438,39,65528,2,0,P|455:86|476:131,2,100,2|0|0,1:2|1:0|1:0,2:0:0:0:
509,201,66318,1,0,1:0:0:0:
364,380,66633,5,10,2:0:0:0:
435,348,66791,2,0,P|474:366|522:383,1,80,0|0,1:0|1:0,2:0:0:0:
508,378,67265,6,0,P|485:320|465:267,1,120,10|0,2:0|1:0,2:0:0:0:
359,205,67896,1,8,2:0:0:0:
359,205,68054,1,0,1:0:0:0:
509,201,68370,6,0,P|472:217|428:233,1,80,0|0,1:0|1:0,2:0:0:0:
401,308,68844,1,0,1:0:0:0:
272,181,69160,2,0,L|283:142,2,40,8|0|0,2:0|3:0|3:0,2:0:0:0:
240,313,69633,5,0,1:0:0:0:
240,313,69791,2,0,P|194:330|90:357,1,150,10|0,2:0|1:0,2:0:0:0:
2,384,70423,2,0,P|9:364|16:330,1,50,8|0,2:0|2:0,2:0:0:0:
10,181,70739,5,2,2:0:0:0:
15,335,70896,2,0,B|47:254|58:308|92:199,1,150,10|0,1:2|1:0,2:0:0:0:
89,207,71686,6,0,L|128:192,1,35,10|0,2:0|1:0,2:0:0:0:
194,164,72002,1,0,3:0:0:0:
4,64,72160,6,0,P|45:81|141:110,1,140,6|0,1:2|2:0,2:0:0:0:
283,49,72633,2,0,P|270:98|259:138,1,69.9999999999999,10|2,2:0|2:0,2:0:0:0:
194,164,72949,5,0,1:0:0:0:
346,103,73107,1,2,1:2:0:0:
290,266,73265,1,8,2:0:0:0:
269,191,73423,5,2,1:2:0:0:
269,191,73739,1,2,1:2:0:0:
241,365,73896,2,0,P|307:345|396:322,1,140,8|0,2:0|1:0,2:0:0:0:
449,366,74370,1,2,1:2:0:0:
449,366,74528,1,10,2:0:0:0:
512,217,74686,6,0,B|481:127|460:175|421:79,1,140,2|0,1:2|2:0,2:0:0:0:
512,3,75160,2,0,P|472:17|427:30,1,69.9999999999999,10|0,2:0|2:0,2:0:0:0:
370,165,75475,5,2,1:2:0:0:
455,101,75633,1,2,1:2:0:0:
290,0,75791,1,8,2:0:0:0:
370,165,75949,6,0,P|356:121|336:82,1,69.9999999999999,2|0,1:2|2:0,2:0:0:0:
368,27,76265,1,2,1:2:0:0:
289,178,76423,2,0,P|251:218|156:262,1,140,8|0,2:0|1:2,2:0:0:0:
12,245,76896,5,0,1:0:0:0:
164,348,77054,2,0,P|118:319|59:314,1,105,10|0,2:0|2:0,2:0:0:0:
68,312,77370,6,0,P|92:271|93:221,1,80,6|0,1:2|1:0,2:0:0:0:
211,126,77686,1,10,2:0:0:0:
56,171,77844,5,8,3:0:0:0:
41,156,77923,1,8,3:0:0:0:
32,136,78002,1,4,3:0:0:0:
28,115,78081,1,4,3:0:0:0:
31,94,78160,1,2,1:2:0:0:
144,172,78318,1,8,2:0:0:0:
6,3,78475,5,8,3:0:0:0:
6,3,78554,1,4,3:0:0:0:
6,3,78633,2,0,L|105:38,1,80,0|0,1:0|1:0,2:0:0:0:
211,126,78949,2,0,L|304:103,1,80,10|0,2:0|1:0,2:0:0:0:
288,106,79186,1,0,3:0:0:0:
288,106,79265,5,10,2:0:0:0:
140,85,79423,1,0,1:0:0:0:
302,270,79581,1,10,2:0:0:0:
393,138,79739,1,0,1:0:0:0:
257,381,79896,6,0,P|245:337|229:296,1,90.0000000000001,14|8,2:0|3:0,2:0:0:0:
193,284,80133,1,4,3:0:0:0:
193,284,80212,1,0,1:0:0:0:
332,344,80370,1,8,2:0:0:0:
510,225,80528,6,0,L|442:248,1,45,2|0,1:2|2:0,2:0:0:0:
389,244,80686,1,8,3:0:0:0:
387,280,80765,1,4,2:3:0:0:
415,301,80844,1,0,1:0:0:0:
328,186,81002,5,8,2:0:0:0:
495,364,81160,2,0,B|457:211|439:311|397:142,1,245,6|0,1:2|2:0,2:0:0:0:
397,142,81791,6,2,L|459:159,1,60,2|0,2:0|2:0,2:0:0:0:
175,239,82423,2,0,L|-33:292,1,180,6|0,1:0|2:0,2:0:0:0:
0,283,82739,6,0,P|48:231|49:172,1,120,10|0,2:0|2:0,2:0:0:0:
226,304,83054,2,0,P|291:345|316:405,1,120,2|0,1:2|2:0,2:0:0:0:
45,352,83370,5,10,2:0:0:0:
113,138,83528,2,0,B|69:43|48:111|-4:-6,1,180,2|0,1:2|2:0,2:0:0:0:
0,2,83844,6,0,L|75:34,1,60,0|0,1:0|2:0,2:0:0:0:
302,133,84002,1,8,2:0:0:0:
224,158,84160,5,0,3:0:0:0:
203,136,84239,1,2,3:0:0:0:
213,107,84318,1,2,3:2:0:0:
427,236,84475,1,0,1:0:0:0:
266,324,84633,6,0,P|288:266|321:215,1,120,10|8,2:0|3:0,2:0:0:0:
319,217,84870,1,4,3:0:0:0:
319,217,84949,6,0,L|509:169,1,180,6|0,1:2|2:0,2:0:0:0:
494,173,85265,2,0,P|447:159|376:139,1,120,8|0,2:0|2:0,2:0:0:0:
135,0,85581,6,0,B|165:101|190:50|223:177,1,180,2|0,1:2|2:0,2:0:0:0:
217,157,85896,1,8,2:0:0:0:
464,90,86054,1,0,1:0:0:0:
384,64,86212,6,0,P|326:70|287:113,1,120,2|2,3:2|3:2,1:0:0:0:
196,303,86528,1,8,2:0:0:0:
72,142,86686,1,2,1:2:0:0:
100,150,86765,1,2,3:0:0:0:
128,158,86844,1,0,3:0:0:0:
272,272,87002,5,0,1:0:0:0:
27,381,87160,2,0,B|49:314|71:355|96:269,1,120,10|8,2:0|3:0,2:0:0:0:
91,282,87396,1,4,3:0:0:0:
91,282,87475,6,0,P|59:233|-10:208,1,120,6|0,1:2|2:0,2:0:0:0:
336,321,87791,2,0,L|539:362,1,180,10|0,2:0|2:0,2:0:0:0:
512,356,88107,2,0,P|451:371|377:388,1,120,0|0,1:0|2:0,2:0:0:0:
144,384,88423,5,10,2:0:0:0:
302,195,88581,2,0,B|279:305|234:248|202:368,1,180,0|0,1:0|2:0,2:0:0:0:
209,344,88896,5,0,1:0:0:0:
384,209,89054,1,10,2:0:0:0:
207,75,89212,1,0,1:0:0:0:
184,95,89291,1,2,3:0:0:0:
191,124,89370,1,0,3:0:0:0:
269,123,89528,5,0,1:0:0:0:
0,52,89686,2,0,P|76:30|187:-5,1,180,14|0,2:0|2:0,2:0:0:0:
172,0,90002,6,0,B|155:126|128:66|105:181,1,180,0|0,1:0|2:0,2:0:0:0:
48,218,90318,2,0,P|-3:186|4:127,1,120,10|8,2:0|3:0,2:0:0:0:
0,132,90554,1,4,3:0:0:0:
0,132,90633,5,0,1:0:0:0:
209,267,90791,1,0,3:0:0:0:
0,315,90949,2,0,L|93:289,1,60,10|0,2:0|2:0,2:0:0:0:
258,206,91107,6,0,B|371:234|310:261|456:297,1,180,0|0,1:0|2:0,2:0:0:0:
417,286,91423,2,0,L|488:261,1,60,0|0,1:0|2:0,2:0:0:0:
511,198,91581,5,8,3:2:0:0:
452,179,91660,1,8,3:0:0:0:
403,201,91739,1,8,1:3:0:0:
379,248,91818,1,8,3:0:0:0:
370,295,91896,1,4,3:0:0:0:
339,318,91975,1,4,3:0:0:0:
311,316,92054,1,4,3:0:0:0:
304,306,92133,1,4,3:0:0:0:
309,303,92212,2,0,L|287:234,1,50,6|0,3:2|3:0,2:0:0:0:
255,87,92370,5,8,3:0:0:0:
255,87,92449,1,4,3:0:0:0:
255,87,92528,2,0,P|201:74|127:54,1,100,4|0,1:0|3:0,2:0:0:0:
147,22,92765,1,0,3:0:0:0:
147,22,92844,1,10,2:0:0:0:
26,156,93002,1,2,3:2:0:0:
50,2,93160,6,0,P|69:52|87:102,1,100,0|0,1:0|2:0,2:0:0:0:
145,262,93475,1,8,2:0:0:0:
17,332,93633,6,0,B|32:275|50:300|71:232,1,100,2|0,1:2|2:0,2:0:0:0:
26,156,93949,2,0,L|144:191,1,100,2|8,1:2|2:0,2:0:0:0:
308,334,94265,1,0,3:0:0:0:
308,334,94344,1,0,3:0:0:0:
308,334,94423,2,0,L|428:301,1,100,0|0,1:0|1:0,2:0:0:0:
244,384,94739,1,10,2:0:0:0:
244,384,95054,6,0,B|222:325|205:362|179:292,1,100,6|0,1:2|2:0,2:0:0:0:
336,237,95370,1,10,2:0:0:0:
204,144,95528,1,2,3:2:0:0:
252,263,95686,6,0,P|270:189|290:144,1,100,0|0,1:0|2:0,2:0:0:0:
109,276,96002,1,2,3:2:0:0:
128,88,96160,6,0,P|162:168|178:263,1,150,2|0,1:2|2:0,2:0:0:0:
175,229,96475,1,0,1:0:0:0:
353,149,96633,1,10,2:0:0:0:
308,85,96791,5,2,3:2:0:0:
277,101,96870,1,2,3:0:0:0:
277,136,96949,1,0,3:0:0:0:
420,198,97107,1,0,1:0:0:0:
481,38,97265,2,0,P|422:67|369:82,1,100,10|0,2:0|2:0,2:0:0:0:
114,169,97581,6,0,P|62:146|22:137,1,89.9999999999998,6|0,1:2|2:0,2:0:0:0:
29,138,97896,1,8,2:0:0:0:
179,93,98054,6,0,P|195:151|216:196,1,89.9999999999998,2|0,1:2|2:0,2:0:0:0:
206,178,98370,1,8,2:0:0:0:
371,302,98528,6,0,P|420:282|462:274,1,89.9999999999998,6|0,1:2|2:0,2:0:0:0:
456,274,98844,1,8,2:0:0:0:
275,384,99002,6,0,P|284:340|289:274,1,89.9999999999998,2|0,1:2|2:0,2:0:0:0:
288,295,99318,1,8,2:0:0:0:
512,212,99475,6,0,P|459:197|386:166,1,100,6|0,1:2|3:0,2:0:0:0:
417,180,99712,1,0,3:0:0:0:
417,180,99791,1,10,2:0:0:0:
217,264,99949,1,8,2:0:0:0:
229,26,100107,6,0,B|242:153|271:90|285:232,1,200,4|0,1:0|2:0,2:0:0:0:
283,216,101054,5,2,1:2:0:0:
227,160,101212,1,0,1:0:0:0:
138,266,101370,2,0,L|113:259,1,25,10|0,2:0|2:0,2:0:0:0:
295,297,101528,5,0,1:0:0:0:
204,230,101686,1,2,1:2:0:0:
379,155,101844,2,0,L|403:148,1,25,8|0,2:0|2:0,2:0:0:0:
326,224,102002,5,2,1:2:0:0:
255,19,102160,1,0,1:0:0:0:
255,19,102239,1,0,1:0:0:0:
255,19,102318,1,10,2:0:0:0:
255,19,102633,6,0,P|251:79|243:157,1,110,6|0,1:0|2:0,2:0:0:0:
458,9,102949,2,0,P|364:32|328:107,1,165,10|0,2:0|2:0,2:0:0:0:
331,86,103265,5,0,1:0:0:0:
170,0,103423,1,2,3:2:0:0:
237,211,103581,1,8,2:0:0:0:
101,50,103739,6,0,P|47:24|-15:6,1,110,2|2,1:2|2:0,2:0:0:0:
138,212,104054,1,2,1:2:0:0:
264,47,104212,2,0,L|205:76,1,55,10|0,2:0|2:0,2:0:0:0:
127,126,104370,5,2,3:2:0:0:
158,135,104449,1,2,3:0:0:0:
189,145,104528,1,0,3:0:0:0:
80,272,104686,1,2,1:2:0:0:
237,211,104844,1,8,2:0:0:0:
135,53,105002,1,2,3:2:0:0:
306,167,105160,6,0,P|393:211|504:239,1,165,2|0,1:2|2:0,2:0:0:0:
457,230,105475,2,0,P|392:249|334:276,1,110,10|0,2:0|2:0,2:0:0:0:
286,374,105791,6,0,L|307:299,1,55,0|0,1:0|2:0,2:0:0:0:
283,243,105949,1,2,3:2:0:0:
459,313,106107,1,8,2:0:0:0:
405,164,106265,2,0,P|386:110|370:55,1,110,2|2,1:2|2:0,2:0:0:0:
314,152,106581,5,2,1:2:0:0:
512,0,106739,2,0,P|472:50|469:107,1,110,10|2,2:0|3:2,2:0:0:0:
466,94,106975,1,2,3:0:0:0:
466,94,107054,1,0,3:0:0:0:
357,265,107212,5,2,1:2:0:0:
496,183,107370,1,10,2:0:0:0:
377,91,107528,1,2,3:2:0:0:
439,268,107686,6,0,P|422:207|395:145,1,110,2|0,1:2|2:0,2:0:0:0:
312,351,108002,2,0,P|231:299|126:308,1,165,10|0,2:0|2:0,2:0:0:0:
164,296,108318,5,0,1:0:0:0:
23,378,108475,1,2,1:2:0:0:
143,178,108633,2,0,L|120:240,1,55,8|0,2:0|2:0,2:0:0:0:
120,382,108791,6,0,B|105:329|80:350|64:290,1,110,2|2,1:2|2:0,2:0:0:0:
232,167,109107,1,2,1:2:0:0:
6,93,109265,2,0,P|27:145|46:215,1,110,10|2,2:0|3:2,2:0:0:0:
41,196,109502,1,2,3:0:0:0:
41,196,109581,5,0,3:0:0:0:
228,243,109739,1,2,1:2:0:0:
162,33,109896,2,0,P|107:63|100:106,1,110,8|2,2:0|3:2,2:0:0:0:
100,106,110133,1,2,3:0:0:0:
100,106,110212,5,2,1:2:0:0:
307,221,110370,1,0,1:0:0:0:
162,305,110528,5,10,2:0:0:0:
382,243,110686,1,0,1:0:0:0:
201,109,110844,5,8,2:0:0:0:
322,384,111002,1,2,1:2:0:0:
465,194,111160,1,0,1:0:0:0:
312,305,111318,5,10,3:2:0:0:
291,300,111396,1,0,3:0:0:0:
278,275,111475,1,2,3:2:0:0:
283,232,111554,1,0,3:0:0:0:
324,194,111633,1,2,1:2:0:0:
378,178,111712,1,0,3:0:0:0:
401,133,111791,1,10,3:2:0:0:
375,84,111870,1,0,3:0:0:0:
332,79,111949,1,2,3:2:0:0:
313,104,112028,1,0,3:0:0:0:
313,104,112107,6,0,L|336:173,1,55,0|0,1:0|2:0,2:0:0:0:
499,343,112265,1,10,1:2:0:0:
470,301,112344,1,8,2:0:0:0:
425,278,112423,1,10,2:0:0:0:
377,264,112502,1,8,2:0:0:0:
377,264,112581,6,0,B|276:300|341:311|200:363,1,195,4|10,1:0|2:0,2:0:0:0:
209,359,113370,6,0,L|235:290,1,64.9999999999999,2|0,3:2|1:0,2:0:0:0:
163,261,113686,1,10,2:0:0:0:
12,384,113844,6,0,P|73:362|130:331,1,130,6|0,1:2|2:0,2:0:0:0:
297,367,114318,1,8,2:0:0:0:
297,367,114475,1,0,3:0:0:0:
297,367,114633,1,0,3:0:0:0:
459,279,114791,6,0,L|402:264,1,32.5,0|0,1:0|2:0,2:0:0:0:
267,228,114949,1,10,2:0:0:0:
386,378,115107,6,0,P|359:307|340:251,1,130,6|0,1:2|2:0,2:0:0:0:
453,169,115581,2,0,P|418:185|384:199,1,64.9999999999999,10|0,2:0|3:0,2:0:0:0:
273,309,115896,5,2,3:2:0:0:
356,183,116054,1,2,1:2:0:0:
221,89,116212,1,8,2:0:0:0:
267,228,116370,6,0,P|280:161|304:88,1,130,6|0,1:2|2:0,2:0:0:0:
198,28,116844,2,0,P|214:64|224:109,1,64.9999999999999,10|0,2:0|3:0,2:0:0:0:
198,169,117160,5,2,3:2:0:0:
198,169,117318,1,0,1:0:0:0:
287,26,117475,1,10,2:0:0:0:
137,97,117633,2,0,P|90:68|12:42,1,130,6|0,1:2|1:0,2:0:0:0:
19,43,118107,6,0,P|60:28|83:14,1,64.9999999999999,10|0,2:0|3:0,2:0:0:0:
228,93,118423,1,2,3:2:0:0:
228,93,118581,1,2,1:2:0:0:
160,23,118739,6,0,L|140:78,1,32.5,8|0,2:0|2:0,2:0:0:0:
200,167,118896,2,0,B|219:244|246:206|279:298,1,130,6|0,1:2|2:0,2:0:0:0:
250,350,119370,1,8,2:0:0:0:
250,350,119528,1,0,3:0:0:0:
220,384,119686,5,0,3:0:0:0:
235,307,119844,1,0,1:0:0:0:
296,361,120002,1,8,2:0:0:0:
126,343,120160,6,0,L|1:385,1,130,6|0,1:2|2:0,2:0:0:0:
79,248,120633,5,8,2:0:0:0:
79,248,120791,1,0,3:0:0:0:
163,229,120949,5,0,3:0:0:0:
55,323,121107,1,0,1:0:0:0:
29,177,121265,1,8,2:0:0:0:
143,307,121423,5,6,3:2:0:0:
177,343,121502,1,8,3:0:0:0:
225,323,121581,1,8,1:3:0:0:
254,353,121660,1,8,3:0:0:0:
288,343,121739,1,8,3:0:0:0:
309,362,121818,1,8,3:0:0:0:
328,359,121896,1,8,3:2:0:0:
345,369,121975,1,4,3:0:0:0:
358,367,122054,1,4,3:0:0:0:
364,374,122133,1,4,3:0:0:0:
370,371,122212,2,0,L|387:309,1,50,4|0,3:0|3:0,2:0:0:0:
498,148,122370,5,8,1:2:0:0:
486,196,122449,1,8,2:0:0:0:
448,228,122528,1,8,2:0:0:0:
400,245,122607,1,8,2:0:0:0:
400,245,122686,6,0,B|432:134|456:187|487:58,1,200,4|0,1:0|1:0,2:0:0:0:
337,170,123160,2,0,P|283:190|225:210,1,100,10|0,2:0|3:0,2:0:0:0:
225,247,123396,1,8,3:0:0:0:
225,247,123475,1,4,3:0:0:0:
358,90,123633,5,2,1:2:0:0:
301,273,123791,1,8,2:0:0:0:
167,184,123949,1,8,1:3:0:0:
167,184,124028,2,0,P|85:159|21:144,1,150,4|0,3:0|1:0,2:0:0:0:
211,15,124423,6,0,P|249:45|249:106,1,100,8|0,2:0|3:0,2:0:0:0:
223,131,124660,1,8,3:0:0:0:
223,131,124739,1,4,3:0:0:0:
367,237,124896,1,0,1:0:0:0:
257,384,125054,1,8,2:0:0:0:
299,163,125212,5,8,1:3:0:0:
299,163,125291,2,0,P|287:245|273:319,1,150,4|0,3:0|2:0,2:0:0:0:
502,196,125686,1,10,2:0:0:0:
375,240,125844,5,8,1:3:0:0:
375,240,125923,1,4,3:0:0:0:
375,240,126002,2,0,P|423:254|490:280,1,100,2|0,3:2|1:0,2:0:0:0:
258,287,126318,1,10,2:0:0:0:
380,155,126475,5,8,1:3:0:0:
380,155,126554,2,0,B|413:76|433:128|479:2,1,150,4|0,3:0|2:0,2:0:0:0:
301,189,126949,2,0,P|250:207|192:224,1,100,10|0,2:0|3:0,2:0:0:0:
174,236,127186,5,8,3:0:0:0:
174,236,127265,2,0,P|196:245|219:257,1,50,4|0,3:0|2:0,2:0:0:0:
270,365,127423,2,0,P|302:318|288:263,1,100,2|8,1:2|2:0,2:0:0:0:
65,18,127739,6,0,L|320:117,1,240,6|0,1:0|1:0,2:0:0:0:
512,194,128212,1,10,2:0:0:0:
343,0,128370,5,8,1:3:0:0:
343,0,128449,1,4,3:0:0:0:
343,0,128528,2,0,L|364:72,1,60,2|0,3:2|2:0,2:0:0:0:
422,265,128686,1,2,1:2:0:0:
233,161,128844,1,8,2:0:0:0:
497,72,129002,5,8,1:3:0:0:
497,72,129081,2,0,B|402:102|454:119|338:154,1,140,4|0,3:0|2:0,2:0:0:0:
376,140,129318,2,0,L|362:210,1,60,2|0,3:2|2:0,2:0:0:0:
176,50,129475,2,0,P|118:33|60:15,1,100,8|0,2:0|3:0,2:0:0:0:
45,0,129712,5,8,3:0:0:0:
45,0,129791,2,0,P|16:39|34:99,1,100,4|0,3:0|1:0,2:0:0:0:
244,9,130107,1,10,2:0:0:0:
146,215,130265,5,8,1:3:0:0:
146,215,130344,2,0,P|155:268|167:323,2,100,4|0|0,3:0|3:0|3:0,2:0:0:0:
67,201,130739,2,0,P|83:157|101:97,1,100,10|0,2:0|3:0,2:0:0:0:
143,95,130975,5,8,3:0:0:0:
143,95,131054,1,4,3:0:0:0:
240,170,131212,2,0,L|168:147,1,50,2|0,1:2|2:0,2:0:0:0:
12,195,131370,2,0,L|72:176,1,50,8|0,2:0|2:0,2:0:0:0:
229,88,131528,5,8,1:3:0:0:
229,88,131607,2,0,B|359:53|305:27|446:-7,1,200,4|0,3:0|2:0,2:0:0:0:
408,3,132002,1,10,2:0:0:0:
455,102,132160,5,8,1:3:0:0:
455,102,132239,1,4,3:0:0:0:
455,102,132318,2,0,L|480:46,1,50,2|0,3:0|2:0,2:0:0:0:
301,47,132475,6,0,L|285:-1,1,50,2|0,3:0|2:0,2:0:0:0:
78,128,132633,6,0,L|94:60,1,50,8|0,3:2|2:0,2:0:0:0:
32,27,132791,5,4,1:0:0:0:
505,167,133265,1,2,3:0:0:0:
452,222,133423,1,0,1:0:0:0:
512,358,133581,1,8,2:0:0:0:
499,283,133739,6,0,L|542:255,2,35,0|0|2,3:0|3:0|3:0,2:0:0:0:
318,384,134054,1,2,1:2:0:0:
318,384,134370,5,0,1:0:0:0:
211,330,134528,1,2,1:3:0:0:
368,135,134844,5,8,2:0:0:0:
315,192,135002,2,0,L|325:236,2,35,0|0|2,3:0|3:0|3:0,2:0:0:0:
282,50,135318,1,2,1:2:0:0:
29,317,135791,5,2,3:0:0:0:
100,287,135949,1,0,1:0:0:0:
9,140,136107,1,8,2:0:0:0:
49,206,136265,6,0,L|37:255,2,35,0|0|2,3:0|3:0|3:0,2:0:0:0:
89,50,136581,1,2,1:2:0:0:
89,50,136896,5,0,1:0:0:0:
208,82,137054,1,2,1:3:0:0:
306,354,137370,5,10,2:0:0:0:
383,295,137528,1,0,1:0:0:0:
452,330,137686,1,2,3:0:0:0:
512,281,137844,1,2,3:0:0:0:
428,146,138002,6,0,B|457:50|484:85|508:9,1,160,6|2,1:2|3:0,2:0:0:0:
444,50,138475,1,0,1:0:0:0:
317,0,138633,2,0,P|278:16|242:27,1,80,8|0,2:0|1:0,2:0:0:0:
313,89,138949,5,2,3:0:0:0:
313,89,139107,1,2,1:3:0:0:
279,234,139265,5,0,1:0:0:0:
391,60,139423,1,8,2:0:0:0:
235,120,139581,2,0,P|186:103|150:89,1,80,2|0,3:0|1:0,2:0:0:0:
0,44,139896,5,8,2:0:0:0:
37,113,140054,1,0,1:0:0:0:
125,22,140212,5,10,2:0:0:0:
65,218,140370,1,8,2:0:0:0:
153,183,140528,6,0,P|208:162|328:148,1,160,6|2,3:2|3:0,2:0:0:0:
388,150,141002,1,0,1:0:0:0:
202,43,141160,6,0,P|244:62|290:77,1,80,10|0,2:0|1:0,2:0:0:0:
345,221,141475,1,2,3:0:0:0:
345,221,141633,1,2,1:3:0:0:
506,107,141791,5,2,3:2:0:0:
395,283,141949,1,8,2:0:0:0:
388,150,142107,5,2,3:0:0:0:
462,174,142265,1,0,1:0:0:0:
283,293,142423,5,10,2:0:0:0:
352,43,142581,1,0,1:0:0:0:
468,255,142739,1,2,3:0:0:0:
175,117,142896,6,0,B|65:87|131:53|-17:16,1,200,4|0,1:0|1:0,2:0:0:0:
238,70,143370,1,8,2:0:0:0:
238,70,143686,5,0,1:0:0:0:
165,243,143844,1,0,1:0:0:0:
51,185,144002,1,10,2:0:0:0:
178,11,144160,6,0,P|192:89|236:208,1,200,6|0,1:2|1:0,2:0:0:0:
100,272,144633,2,0,P|127:214|133:170,1,100,8|0,2:0|2:0,2:0:0:0:
294,135,144949,5,0,1:0:0:0:
446,192,145107,1,0,1:0:0:0:
424,31,145265,1,10,2:0:0:0:
383,113,145423,6,0,P|433:260|480:329,1,200,6|0,1:2|1:0,2:0:0:0:
512,359,145896,1,10,2:0:0:0:
512,359,146054,1,2,3:2:0:0:
351,278,146212,6,0,L|286:302,1,50,2|0,1:2|2:0,2:0:0:0:
248,360,146370,1,2,1:2:0:0:
151,250,146528,1,8,2:0:0:0:
151,379,146686,6,0,P|186:311|199:170,1,200,6|0,1:2|1:0,2:0:0:0:
42,250,147160,1,8,2:0:0:0:
42,250,147475,5,2,1:2:0:0:
234,384,147633,1,0,1:0:0:0:
2,344,147791,2,0,P|50:329|99:313,1,100,8|0,2:0|2:0,2:0:0:0:
103,178,148107,6,0,B|57:98|46:142|-2:54,1,150,6|0,1:2|2:0,2:0:0:0:
44,0,148581,1,2,1:2:0:0:
144,56,148739,1,8,2:0:0:0:
215,31,148896,2,0,P|261:17|300:-2,1,75.0000000000002,2|0,1:2|2:0,2:0:0:0:
359,105,149212,6,0,P|446:130|509:190,2,150,2|0|0,1:2|1:0|3:0,2:0:0:0:
283,99,150002,1,10,2:0:0:0:
283,99,150160,1,0,1:0:0:0:
434,38,150318,2,0,P|479:22|524:-4,1,75.0000000000002,2|0,3:2|1:0,2:0:0:0:
276,182,150633,6,0,P|231:164|157:139,1,110,6|0,1:2|3:0,2:0:0:0:
147,158,150870,1,0,3:0:0:0:
122,111,150949,1,0,3:0:0:0:
77,83,151028,1,0,3:0:0:0:
24,77,151107,1,8,2:0:0:0:
79,203,151265,5,0,1:0:0:0:
190,15,151423,2,0,L|204:78,1,55,2|0,1:2|2:0,2:0:0:0:
243,280,151581,1,10,2:0:0:0:
241,299,151660,1,10,2:0:0:0:
227,292,151739,1,10,2:0:0:0:
22,273,151896,6,0,P|82:256|188:226,1,165,6|0,1:2|2:0,2:0:0:0:
195,189,152212,1,0,3:0:0:0:
204,199,152291,1,0,3:0:0:0:
237,204,152370,1,0,3:0:0:0:
279,194,152449,1,0,3:0:0:0:
308,156,152528,1,2,3:2:0:0:
352,110,152607,1,0,3:0:0:0:
406,97,152686,1,8,3:2:0:0:
451,114,152765,1,0,3:0:0:0:
470,139,152844,1,0,3:0:0:0:
467,160,152923,1,0,3:0:0:0:
461,163,153002,6,0,P|358:132|185:72,1,260,6|0,1:0|3:0,2:0:0:0:
48,143,153475,1,0,3:0:0:0:
331,14,153633,1,0,3:0:0:0:
218,297,153791,1,0,1:0:0:0:
188,169,153949,1,0,3:0:0:0:
467,275,154107,5,10,2:0:0:0:
236,384,154265,2,0,P|254:286|273:159,1,195,2|0,1:2|2:0,2:0:0:0:
268,191,154581,1,0,1:0:0:0:
139,332,154739,6,0,P|76:350|13:367,1,130,8|0,2:0|3:0,2:0:0:0:
13,367,154975,1,2,3:0:0:0:
13,367,155054,1,2,3:2:0:0:
140,243,155212,1,0,1:0:0:0:
346,304,155370,2,0,P|428:328|488:340,1,130,10|8,2:0|3:0,2:0:0:0:
471,337,155607,1,4,3:0:0:0:
471,337,155686,6,0,B|430:194|410:268|384:147,1,195,6|0,1:2|2:0,2:0:0:0:
461,134,156002,2,0,P|479:55|497:-3,1,130,8|0,2:0|2:0,2:0:0:0:
300,98,156318,1,2,1:2:0:0:
373,138,156475,1,0,3:0:0:0:
493,8,156633,6,0,P|433:34|347:62,1,130,8|0,2:0|1:0,2:0:0:0:
150,161,156949,2,0,P|80:139|8:120,1,130,2|0,3:2|1:0,2:0:0:0:
191,234,157265,5,8,2:0:0:0:
304,18,157423,1,2,3:2:0:0:
304,18,157502,1,2,3:0:0:0:
304,18,157581,1,0,3:0:0:0:
285,272,157739,6,0,L|268:210,1,65,0|0,1:0|2:0,2:0:0:0:
229,58,157896,1,10,2:0:0:0:
229,58,158054,1,0,3:0:0:0:
447,115,158212,6,0,P|404:168|305:160,1,130,6|0,1:2|2:0,2:0:0:0:
158,353,158528,2,0,B|198:205|244:303|284:97,1,260,10|0,2:0|1:0,2:0:0:0:
387,256,159002,1,0,1:0:0:0:
512,7,159160,6,0,L|430:39,1,65,10|0,2:0|2:0,2:0:0:0:
481,132,159318,2,0,P|419:110|357:90,1,130,0|0,1:0|2:0,2:0:0:0:
145,18,159633,1,0,1:0:0:0:
206,177,159791,1,10,2:0:0:0:
372,0,159949,5,0,3:0:0:0:
342,13,160028,1,2,3:0:0:0:
312,25,160107,1,0,3:0:0:0:
119,97,160265,1,0,1:0:0:0:
314,298,160423,2,0,P|301:234|288:170,1,130,14|0,2:0|1:0,2:0:0:0:
57,35,160739,5,0,1:0:0:0:
57,35,160896,1,0,1:0:0:0:
15,163,161054,5,10,2:0:0:0:
214,83,161212,1,0,1:0:0:0:
138,13,161370,5,8,2:0:0:0:
217,248,161528,1,0,1:0:0:0:
449,78,161686,1,2,1:2:0:0:
290,128,161844,6,0,L|275:211,1,65,8|0,2:0|2:0,2:0:0:0:
462,365,162002,1,0,3:0:0:0:
471,368,162081,1,0,3:0:0:0:
481,360,162160,1,0,1:3:0:0:
483,338,162239,1,0,3:0:0:0:
469,313,162318,1,8,3:2:0:0:
436,298,162396,1,0,3:0:0:0:
397,310,162475,1,0,3:0:0:0:
368,346,162554,1,0,3:0:0:0:
319,360,162633,1,10,1:2:0:0:
270,338,162712,1,8,3:2:0:0:
249,278,162791,1,8,3:2:0:0:
289,225,162870,1,8,3:2:0:0:
289,225,162949,6,0,P|331:239|374:250,1,65,10|0,3:2|3:0,2:0:0:0:
183,329,163107,1,8,3:0:0:0:
183,329,163186,1,4,3:0:0:0:
183,329,163265,2,0,P|111:355|7:386,1,165,4|0,1:0|2:0,2:0:0:0:
30,383,163581,6,0,B|58:321|77:253,1,110,10|0,2:0|2:0,2:0:0:0:
177,245,163896,2,0,B|157:185|138:221|111:147,1,110,2|0,1:2|2:0,2:0:0:0:
86,12,164212,5,10,2:0:0:0:
10,24,164370,2,0,P|114:71|238:106,1,220,0|0,1:0|1:0,2:0:0:0:
114,156,164844,2,0,P|45:170|-3:195,1,110,10|0,2:0|3:0,2:0:0:0:
9,186,165081,1,2,3:0:0:0:
9,186,165160,5,0,3:0:0:0:
162,298,165318,1,0,1:0:0:0:
28,382,165475,2,0,B|51:290|75:327|99:233,1,165,10|0,2:0|2:0,2:0:0:0:
99,235,165791,6,0,P|173:270|245:288,1,110,2|0,1:2|2:0,2:0:0:0:
377,355,166107,2,0,P|428:342|491:334,1,110,10|0,2:0|2:0,2:0:0:0:
354,180,166423,6,0,B|337:245|311:218|288:292,1,110,2|0,1:2|2:0,2:0:0:0:
224,384,166739,1,10,2:0:0:0:
224,384,166896,2,0,P|271:319|438:270,1,220,0|0,1:0|2:0,2:0:0:0:
238,206,167370,6,0,P|197:175|199:113,1,110,10|0,2:0|3:0,2:0:0:0:
195,119,167607,1,2,3:0:0:0:
195,119,167686,1,0,3:0:0:0:
318,201,167844,1,0,1:0:0:0:
379,118,168002,2,0,P|412:70|523:31,1,165,10|0,2:0|2:0,2:0:0:0:
508,30,168318,6,0,L|365:-1,1,135,6|0,1:2|2:0,2:0:0:0:
376,1,168633,1,10,2:0:0:0:
288,124,168791,1,8,3:0:0:0:
288,124,168870,1,4,3:0:0:0:
288,124,168949,1,0,1:0:0:0:
230,54,169107,1,2,1:2:0:0:
141,144,169265,6,0,L|28:174,1,80,10|8,2:0|3:0,2:0:0:0:
63,164,169502,1,4,3:0:0:0:
63,164,169581,1,0,1:0:0:0:
193,211,169739,1,0,1:0:0:0:
312,45,169896,1,8,2:0:0:0:
164,97,170054,5,8,3:0:0:0:
179,120,170133,1,8,3:0:0:0:
203,134,170212,1,4,3:0:0:0:
230,136,170291,1,4,3:0:0:0:
257,131,170370,1,0,1:0:0:0:
219,15,170528,6,0,L|238:83,1,40,10|0,2:0|2:0,2:0:0:0:
279,216,170686,1,8,3:0:0:0:
279,216,170765,1,4,3:0:0:0:
279,216,170844,2,0,B|360:241|325:266|425:302,1,150,2|0,1:2|2:0,2:0:0:0:
405,294,171160,6,0,L|314:323,1,50,10|0,2:0|2:0,2:0:0:0:
183,351,171318,1,0,1:0:0:0:
264,383,171475,5,10,2:0:0:0:
155,201,171633,1,0,1:0:0:0:
368,226,171791,5,2,1:2:0:0:
44,345,171949,2,0,P|106:323|258:269,1,200,12|0,2:0|1:0,2:0:0:0:
413,294,172423,5,2,3:2:0:0:
432,292,172502,1,0,3:0:0:0:
448,271,172581,1,0,3:0:0:0:
444,239,172660,1,0,3:0:0:0:
416,210,172739,1,0,1:0:0:0:
368,206,172818,1,0,3:0:0:0:
325,169,172896,1,0,1:0:0:0:
316,108,172975,1,0,3:0:0:0:
356,60,173054,1,10,3:2:0:0:
394,60,173133,1,8,3:2:0:0:
410,80,173212,1,8,3:2:0:0:
409,95,173291,1,8,3:2:0:0:
403,100,173370,6,0,P|308:73|250:-7,1,180,6|0,1:0|2:0,2:0:0:0:
257,12,173686,2,0,P|239:83|223:141,1,120,10|0,2:0|2:0,2:0:0:0:
60,4,174002,2,0,P|121:9|179:75,1,120,2|0,1:2|2:0,2:0:0:0:
357,171,174318,5,10,2:0:0:0:
229,290,174475,2,0,B|201:185|181:254|145:134,1,180,2|0,1:2|2:0,2:0:0:0:
145,134,174791,6,0,L|233:165,1,60,0|0,1:0|2:0,2:0:0:0:
278,190,174949,1,8,2:0:0:0:
174,344,175107,1,0,3:0:0:0:
148,327,175186,1,2,3:0:0:0:
148,296,175265,1,2,3:2:0:0:
229,290,175423,5,0,1:0:0:0:
0,384,175581,2,0,P|49:327|60:274,1,120,10|8,2:0|3:0,2:0:0:0:
59,284,175818,1,4,3:0:0:0:
59,284,175896,6,0,L|4:111,1,180,6|0,1:2|2:0,2:0:0:0:
4,112,176212,2,0,P|35:170|108:182,1,120,8|0,2:0|2:0,2:0:0:0:
307,306,176528,6,0,L|511:350,1,180,2|0,1:2|2:0,2:0:0:0:
482,343,176844,1,8,2:0:0:0:
251,369,177002,1,0,1:0:0:0:
257,241,177160,6,0,P|203:261|191:318,1,120,2|0,3:2|1:0,2:0:0:0:
391,300,177475,1,8,2:0:0:0:
498,132,177633,1,2,3:2:0:0:
477,142,177712,1,2,3:0:0:0:
456,152,177791,1,0,3:0:0:0:
300,87,177949,5,0,1:0:0:0:
343,233,178107,2,0,P|381:151|378:97,1,120,10|8,2:0|3:0,2:0:0:0:
381,122,178344,1,4,3:0:0:0:
381,122,178423,6,0,B|402:58|426:101|448:20,1,120,6|0,1:2|2:0,2:0:0:0:
258,245,178739,2,0,L|52:320,1,180,10|0,2:0|2:0,2:0:0:0:
88,306,179054,2,0,P|167:316|228:326,1,120,0|0,1:0|1:0,2:0:0:0:
308,383,179291,5,0,1:0:0:0:
308,383,179370,2,0,L|282:304,1,60,14|0,2:0|2:0,2:0:0:0:
237,166,179528,2,0,B|201:63|173:112|139:18,1,180,0|0,1:0|2:0,2:0:0:0:
139,18,179844,1,0,1:0:0:0:
301,120,180002,1,10,2:0:0:0:
324,17,180160,5,0,3:0:0:0:
291,32,180239,1,2,3:0:0:0:
258,46,180318,1,0,1:0:0:0:
173,237,180475,1,0,1:0:0:0:
0,74,180633,2,0,P|73:86|145:168,1,180,14|0,2:0|2:0,2:0:0:0:
142,161,180949,5,0,1:0:0:0:
100,302,181107,1,0,1:0:0:0:
329,159,181265,6,0,P|271:141|216:120,1,120,10|0,2:0|3:0,2:0:0:0:
216,120,181502,1,2,3:0:0:0:
216,120,181581,5,0,3:2:0:0:
355,232,181739,1,0,1:0:0:0:
452,88,181896,2,0,L|384:118,1,60,10|0,2:0|2:0,2:0:0:0:
248,213,182054,6,0,B|293:323|309:247|360:398,1,180,4|0,1:2|2:0,2:0:0:0:
346,360,182370,2,0,L|285:339,1,60,0|0,1:0|2:0,2:0:0:0:
232,292,182528,5,8,3:2:0:0:
175,294,182607,1,0,3:0:0:0:
135,322,182686,1,0,3:0:0:0:
115,359,182765,1,0,3:0:0:0:
82,377,182844,1,2,1:2:0:0:
47,377,182923,1,0,3:0:0:0:
31,362,183002,1,8,3:2:0:0:
31,351,183081,1,8,3:2:0:0:
36,348,183160,2,0,L|59:280,1,45,10|0,3:2|2:0,2:0:0:0:
0,64,183318,5,8,3:0:0:0:
0,64,183396,1,4,3:0:0:0:
0,64,183475,2,0,P|81:106|186:141,1,180,4|10,1:0|2:0,2:0:0:0:
232,100,183949,5,2,3:2:0:0:
113,240,184107,2,0,P|101:187|82:144,1,90.0000000000001,0|2,1:0|2:0,2:0:0:0:
8,155,184423,1,8,2:0:0:0:
193,216,184581,5,8,3:0:0:0:
193,216,184660,1,4,3:0:0:0:
193,216,184739,1,0,1:0:0:0:
260,121,184896,2,0,L|243:191,1,45,0|0,1:0|2:0,2:0:0:0:
332,310,185054,1,10,2:0:0:0:
357,209,185212,5,2,1:2:0:0:
314,224,185291,1,0,1:0:0:0:
271,239,185370,1,8,2:0:0:0:
190,376,185528,1,0,1:0:0:0:
263,352,185686,1,2,3:2:0:0:
263,352,186002,6,0,P|323:334|405:317,1,120,6|0,1:2|1:0,2:0:0:0:
176,186,186318,1,10,2:0:0:0:
237,273,186475,6,0,L|262:182,1,60,2|0,1:2|2:0,2:0:0:0:
292,50,186633,1,8,2:0:0:0:
337,208,186791,5,2,1:2:0:0:
140,46,186949,1,0,1:0:0:0:
344,124,187107,2,0,P|429:97|512:62,1,180,10|0,2:0|2:0,2:0:0:0:
512,62,187423,5,2,1:2:0:0:
496,194,187581,5,10,2:0:0:0:
405,244,187739,5,2,3:2:0:0:
370,320,187896,5,2,1:2:0:0:
413,384,188054,5,2,1:2:0:0:
502,384,188212,5,10,2:0:0:0:
502,384,188291,1,8,2:0:0:0:
502,384,188370,1,8,2:0:0:0:
502,384,188449,1,8,2:0:0:0:
502,384,188528,2,0,L|475:293,1,80,14|0,1:2|2:0,2:0:0:0:
322,249,189002,6,0,L|337:174,1,60,10|0,2:0|2:0,2:0:0:0:
405,160,189318,5,2,1:2:0:0:
216,310,189475,1,14,1:2:0:0:
216,310,189633,2,0,L|202:270,1,40,0|0,1:0|1:0,2:0:0:0:
8,145,189949,6,0,L|46:80,1,60,10|0,2:0|2:0,2:0:0:0:
221,132,190265,5,8,3:0:0:0:
221,132,190344,1,4,3:0:0:0:
221,132,190423,2,0,L|231:78,1,40,14|0,1:2|1:0,2:0:0:0:
273,72,190660,5,0,1:0:0:0:
273,72,190739,1,8,2:0:0:0:
239,0,190896,1,8,2:0:0:0:
249,205,191054,6,0,L|258:387,1,180,6|8,1:2|2:0,2:0:0:0:
274,361,192318,6,0,L|294:368,3,15,2|0|0|0,3:2|3:0|3:0|3:0,2:0:0:0:
208,277,192633,2,0,L|150:294,3,37.5000000000001,2|0|0|0,3:2|3:0|3:0|3:0,2:0:0:0:
323,183,192949,2,0,L|374:201,3,50,2|0|0|0,3:2|3:0|3:0|3:0,2:0:0:0:
261,129,193265,5,8,2:0:0:0:
248,101,193344,1,8,2:0:0:0:
269,60,193423,1,8,2:0:0:0:
245,11,193502,1,8,2:0:0:0:
245,11,193581,6,0,B|344:95|238:184|162:95|81:123|110:216,1,300,6|0,1:0|2:0,2:0:0:0:
180,206,193896,6,0,B|187:215|221:203|188:108|126:104,1,140,10|0,2:1|2:0,2:0:0:0:
54,246,194212,2,0,P|32:273|-1:284,1,70,0|0,1:0|2:0,2:0:0:0:
94,180,194370,1,2,3:1:0:0:
0,44,194528,6,0,P|39:84|56:126,1,85,8|0,2:1|2:0,2:0:0:0:
137,266,194686,2,0,P|223:201|328:191,1,210,2|0,1:0|2:0,2:0:0:0:
363,116,195002,6,0,P|394:130|406:176,1,70,0|0,1:0|2:0,2:0:0:0:
505,379,195160,1,8,2:0:0:0:
367,384,195318,5,0,1:0:0:0:
398,346,195396,1,8,2:0:0:0:
443,329,195475,1,0,1:0:0:0:
277,372,195633,6,0,P|242:357|237:323,1,70,2|0,1:0|2:0,2:0:0:0:
486,172,195791,2,0,P|455:234|387:265,1,140,10|0,2:1|3:0,2:0:0:0:
321,304,196028,5,2,3:2:0:0:
312,297,196107,2,0,P|166:324|90:375,1,240,6|0,1:0|2:0,2:0:0:0:
0,383,196423,6,0,L|24:324,1,55,8|0,2:1|2:0,2:0:0:0:
97,150,196581,1,2,3:1:0:0:
116,307,196739,6,0,B|74:235|46:289|-38:195|26:146,1,210,0|0,1:0|2:0,2:0:0:0:
116,233,197054,6,0,P|153:220|174:168,1,70,8|0,2:1|2:0,2:0:0:0:
87,69,197212,2,0,B|88:31|-18:-48|-24:-32|58:32|56:97,1,210,2|0,1:2|2:0,2:0:0:0:
97,150,197528,6,0,L|172:114,1,70,0|0,1:0|2:0,2:0:0:0:
384,7,197686,1,8,2:1:0:0:
282,195,197844,5,0,1:0:0:0:
236,158,197923,1,8,2:0:0:0:
242,113,198002,2,0,B|285:125|342:76|323:34|292:43,1,140,0|0,1:0|3:0,2:0:0:0:
190,35,198239,5,2,3:2:0:0:
194,46,198318,2,0,P|275:70|365:181,1,210,10|0,2:1|2:0,2:0:0:0:
483,214,198633,6,0,B|534:279|524:329|420:328|373:234|318:344|343:386,1,270,6|0,1:0|2:0,2:0:0:0:
411,384,198949,6,0,P|425:342|405:307,1,70,8|0,2:1|2:0,2:0:0:0:
465,84,199107,2,0,P|452:175|402:229,1,165,2|0,3:1|1:0,2:0:0:0:
257,361,199423,2,0,P|205:379|146:389,1,82.5,2|0,1:0|2:0,2:0:0:0:
100,369,199581,1,8,2:1:0:0:
357,144,199739,6,0,B|370:117|422:144|397:262|296:267,1,210,2|0,1:0|2:0,2:0:0:0:
302,294,200054,6,0,L|242:257,1,55,0|0,1:0|2:0,2:0:0:0:
72,150,200212,1,8,2:0:0:0:
171,309,200370,5,2,1:0:0:0:
217,291,200449,1,8,2:0:0:0:
225,242,200528,1,0,1:0:0:0:
83,289,200686,6,0,P|52:306|18:321,1,70,0|0,1:0|2:0,2:0:0:0:
9,87,200844,2,0,B|-39:171|40:223|101:155|149:206|143:249,1,240,10|0,2:1|2:0,2:0:0:0:
143,232,201160,6,0,P|173:169|246:110,1,140,6|0,1:0|1:0,2:0:0:0:
0,2,201475,2,0,P|7:38|55:48,1,70,8|0,2:1|2:0,2:0:0:0:
86,113,201633,6,0,L|178:72,1,70,2|0,1:0|2:0,2:0:0:0:
292,29,201791,1,8,2:1:0:0:
104,10,201949,5,0,1:0:0:0:
108,14,202107,1,0,1:0:0:0:
387,162,202265,6,0,B|426:184|494:102|390:1|293:29,1,270,14|0,2:1|2:0,2:0:0:0:
211,3,202581,5,8,3:0:0:0:
201,0,202660,1,4,3:0:0:0:
199,9,202739,2,0,P|227:46|296:20,1,89.9999999999999,10|0,2:1|2:0,2:0:0:0:
455,245,202896,2,0,P|416:195|440:145,1,89.9999999999999,2|0,3:1|2:0,2:0:0:0:
489,5,203054,6,0,P|408:47|344:165,1,200,6|0,1:0|1:0,2:0:0:0:
291,186,203291,1,0,1:0:0:0:
266,240,203370,1,8,1:2:0:0:
217,268,203449,1,8,1:2:0:0:
170,271,203528,1,8,1:2:0:0:
145,251,203607,1,8,1:2:0:0:
148,246,203686,6,0,B|175:224|278:229|311:267|294:328|325:377|379:357,1,270,6|0,1:0|2:0,2:0:0:0:
378,285,204002,6,0,P|305:306|267:362,1,140,10|0,1:0|2:0,2:0:0:0:
36,265,204318,2,0,P|43:301|69:323,1,70,2|0,1:0|2:0,2:0:0:0:
138,364,204475,1,2,3:1:0:0:
153,154,204633,1,8,2:1:0:0:
268,355,204791,6,0,P|229:347|214:303,1,70,2|0,1:0|2:0,2:0:0:0:
56,181,204949,2,0,P|114:230|142:296,1,140,2|0,3:1|1:0,2:0:0:0:
296,134,205265,1,10,2:1:0:0:
214,226,205423,5,2,1:0:0:0:
212,242,205502,1,8,2:0:0:0:
222,246,205581,2,0,P|234:214|227:175,1,70,0|0,1:0|2:0,2:0:0:0:
11,22,205739,1,2,1:0:0:0:
0,113,205896,6,0,L|90:82,1,70,10|0,2:1|2:0,2:0:0:0:
281,18,206054,1,2,3:1:0:0:
124,176,206212,6,0,P|130:195|120:218,1,35,6|0,1:0|2:0,2:0:0:0:
117,184,206291,2,0,P|97:179|81:159,1,35,2|0,1:0|2:0,2:0:0:0:
114,173,206370,2,0,P|126:157|152:155,1,35,2|0,1:0|2:0,2:0:0:0:
108,6,206528,6,0,P|174:80|291:97,1,210,10|0,2:1|2:0,2:0:0:0:
301,173,206844,6,0,P|332:185|353:223,1,70,2|0,1:0|2:0,2:0:0:0:
328,292,207002,1,0,3:2:0:0:
512,263,207160,1,8,2:1:0:0:
408,144,207318,5,2,1:0:0:0:
468,383,207475,2,0,B|459:325|450:357|434:270,1,85,2|0,1:0|2:0,2:0:0:0:
408,292,207633,6,0,B|426:238|436:258|449:188,1,85,2|0,1:0|2:0,2:0:0:0:
512,69,207791,1,8,2:1:0:0:
350,200,207949,5,2,1:0:0:0:
355,206,208028,1,8,2:0:0:0:
351,214,208107,2,0,P|312:230|265:218,1,70,0|0,1:0|2:0,2:0:0:0:
138,95,208265,2,0,P|122:62|84:51,1,70,2|0,1:0|2:0,2:0:0:0:
19,116,208423,6,0,L|222:173,1,210,10|0,2:1|2:0,2:0:0:0:
221,172,208739,6,0,B|162:164|110:209|149:285|39:322|-6:233|31:196,1,270,6|0,1:0|2:0,2:0:0:0:
102,220,209054,6,0,P|162:258|188:339,1,140,10|0,2:1|2:1,2:0:0:0:
369,328,209370,2,0,P|362:362|333:379,1,70,2|0,1:0|2:0,2:0:0:0:
246,383,209528,1,2,1:0:0:0:
245,245,209686,1,8,2:1:0:0:
246,383,209844,6,0,P|263:340|290:301,1,70,2|0,1:0|2:0,2:0:0:0:
428,276,210002,1,2,3:1:0:0:
310,166,210160,2,0,P|294:123|276:90,1,70,2|0,1:0|2:0,2:0:0:0:
338,244,210318,1,8,2:1:0:0:
472,57,210475,5,2,1:0:0:0:
481,49,210554,1,8,2:0:0:0:
484,59,210633,2,0,B|449:138|429:93|383:200,1,150,2|0,1:0|1:0,2:0:0:0:
293,310,210949,2,0,B|270:373|193:410|128:380|154:325,1,210,10|0,2:1|2:0,2:0:0:0:
151,330,211265,5,6,1:0:0:0:
338,244,211423,1,0,1:0:0:0:
236,146,211581,6,0,L|251:211,1,50,8|0,2:1|2:0,2:0:0:0:
390,332,211739,1,0,1:0:0:0:
349,78,211896,6,0,L|327:144,1,50,8|0,2:1|2:0,2:0:0:0:
166,248,212054,1,0,1:0:0:0:
49,173,212212,5,0,1:0:0:0:
165,328,212370,1,10,3:1:0:0:
123,369,212449,1,8,3:0:0:0:
73,367,212528,1,8,3:0:0:0:
43,348,212607,1,8,3:0:0:0:
11,354,212686,1,4,3:0:0:0:
2,364,212765,1,4,3:0:0:0:
6,373,212844,2,0,L|28:313,1,50,10|0,3:1|2:0,2:0:0:0:
144,253,213002,5,10,1:0:0:0:
144,253,213081,1,8,3:2:0:0:
144,253,213160,1,8,3:2:0:0:
144,253,213239,1,8,3:2:0:0:
144,253,213318,2,0,L|123:195,1,60,10|0,1:0|2:0,2:0:0:0:
385,330,213475,6,0,L|408:260,1,70,10|0,1:0|2:0,2:0:0:0:
485,246,213633,6,0,L|439:-1,1,250,4|0,1:0|2:0,2:0:0:0:
439,0,214107,2,0,B|420:76|404:43|383:112,1,120,10|0,2:0|2:0,2:0:0:0:
398,180,214423,6,0,P|434:191|500:209,1,100,0|0,1:0|2:0,2:0:0:0:
325,161,214739,1,10,2:0:0:0:
325,161,214896,1,0,1:0:0:0:
237,1,215054,6,0,P|180:21|121:40,1,110,2|0,3:2|1:0,2:0:0:0:
31,169,215370,1,8,2:0:0:0:
0,77,215528,5,2,3:2:0:0:
0,77,215607,1,2,3:0:0:0:
0,77,215686,2,0,P|60:98|129:121,1,110,0|0,3:0|2:0,2:0:0:0:
33,0,216002,1,10,2:0:0:0:
33,0,216160,1,0,3:0:0:0:
2,245,216318,6,0,P|62:179|211:161,1,220,6|0,1:2|2:0,2:0:0:0:
342,233,216791,1,2,3:2:0:0:
429,89,216949,2,0,P|388:136|337:150,1,110,0|0,1:0|2:0,2:0:0:0:
217,268,217265,5,10,2:0:0:0:
373,374,217423,2,0,B|332:237|308:318|262:164,1,220,0|0,1:0|1:0,2:0:0:0:
226,350,217896,6,0,P|170:370|107:388,1,110,10|0,2:0|3:0,2:0:0:0:
121,384,218133,1,2,3:0:0:0:
121,384,218212,1,0,3:0:0:0:
195,193,218370,5,0,1:0:0:0:
342,233,218528,2,0,P|406:250|478:268,1,110,10|0,2:0|2:0,2:0:0:0:
118,137,218844,6,0,P|18:191|14:306,2,220,6|8|0,1:2|2:0|1:0,2:0:0:0:
176,80,219633,5,0,1:0:0:0:
6,7,219791,2,0,P|64:35|120:54,1,110,10|0,2:0|1:0,2:0:0:0:
275,118,220107,6,0,P|255:56|240:-5,1,110,2|0,3:2|1:0,2:0:0:0:
148,209,220423,1,8,2:0:0:0:
335,46,220581,5,2,3:2:0:0:
370,30,220660,1,2,3:0:0:0:
405,14,220739,1,0,1:0:0:0:
198,157,220896,1,0,1:0:0:0:
505,197,221054,2,0,P|462:146|336:129,1,165,10|0,2:0|2:0,2:0:0:0:
369,121,221370,5,6,1:2:0:0:
176,273,221528,1,0,1:0:0:0:
235,0,221686,6,0,L|253:73,1,55,8|0,2:0|2:0,2:0:0:0:
307,289,221844,1,2,1:2:0:0:
289,120,222002,6,0,L|270:191,1,55,8|0,2:0|2:0,2:0:0:0:
221,384,222160,1,0,1:0:0:0:
372,338,222318,1,2,1:2:0:0:
105,211,222475,5,12,3:2:0:0:
93,227,222554,1,0,3:0:0:0:
92,258,222633,1,0,3:0:0:0:
113,287,222712,1,0,3:0:0:0:
167,306,222791,1,2,1:2:0:0:
219,280,222870,1,0,3:0:0:0:
275,286,222949,1,10,3:2:0:0:
314,319,223028,1,0,3:2:0:0:
312,361,223107,1,0,3:2:0:0:
300,373,223186,1,0,3:2:0:0:
294,367,223265,6,0,L|280:306,1,55,0|0,1:0|2:0,2:0:0:0:
337,244,223423,1,10,2:0:0:0:
359,213,223502,1,8,2:0:0:0:
391,192,223581,1,10,2:0:0:0:
428,185,223660,1,8,2:0:0:0:
466,188,223739,1,10,2:0:0:0:
501,203,223818,1,8,2:0:0:0:
504,207,223896,6,0,B|462:109|446:162|399:51,1,150,4|0,1:0|2:0,2:0:0:0:
416,87,224212,2,0,P|471:67|535:36,1,100,10|0,2:0|2:0,2:0:0:0:
449,268,224528,2,0,P|466:314|480:362,1,100,10|0,2:0|2:0,2:0:0:0:
285,183,224844,1,2,1:2:0:0:
504,207,225002,6,0,P|419:178|341:151,1,150,10|0,2:0|2:0,2:0:0:0:
362,158,225318,1,2,1:2:0:0:
249,260,225475,1,8,2:0:0:0:
172,92,225633,1,0,1:0:0:0:
172,92,225712,1,8,2:0:0:0:
172,92,225791,1,0,1:0:0:0:
285,183,225949,5,2,1:2:0:0:
265,63,226107,1,10,2:0:0:0:
265,63,226265,6,0,L|244:130,1,50,2|0,3:2|2:0,2:0:0:0:
58,228,226423,2,0,P|143:207|231:183,1,150,6|0,1:2|2:0,2:0:0:0:
203,190,226739,6,0,B|180:124|166:167|140:93,1,100,10|0,2:0|2:0,2:0:0:0:
65,305,227054,2,0,P|26:335|4:388,1,100,2|0,1:2|2:0,2:0:0:0:
200,276,227370,1,10,2:0:0:0:
72,139,227528,1,2,1:2:0:0:
136,338,227686,5,2,3:0:0:0:
241,204,227844,1,0,1:0:0:0:
28,211,228002,2,0,P|75:225|123:239,1,100,10|0,2:0|1:0,2:0:0:0:
123,239,228239,1,8,2:0:0:0:
123,239,228318,5,2,1:2:0:0:
304,145,228475,1,2,1:2:0:0:
302,384,228633,2,0,P|287:324|276:265,1,100,8|8,2:0|2:3,2:0:0:0:
263,281,228870,1,4,2:3:0:0:
283,269,228949,6,0,L|340:291,1,50,4|0,1:0|2:0,2:0:0:0:
218,384,229107,1,2,1:2:0:0:
407,193,229265,6,0,L|352:215,1,50,10|0,2:0|2:0,2:0:0:0:
180,273,229423,1,0,1:0:0:0:
304,145,229581,1,0,1:0:0:0:
398,334,229739,1,0,1:0:0:0:
136,197,229896,6,0,L|88:183,1,50,10|0,2:0|2:0,2:0:0:0:
284,276,230054,1,0,1:0:0:0:
284,276,230133,1,8,2:0:0:0:
284,276,230212,1,0,1:0:0:0:
224,76,230370,1,0,1:0:0:0:
0,265,230528,6,0,L|58:248,1,50,10|0,2:0|2:0,2:0:0:0:
280,191,230686,1,0,1:0:0:0:
280,191,230765,1,8,2:0:0:0:
280,191,230844,1,0,1:0:0:0:
164,13,231002,1,0,1:0:0:0:
483,178,231160,6,0,P|436:160|389:140,1,100,14|0,2:0|2:0,2:0:0:0:
262,0,231475,5,4,1:0:0:0:
262,0,231633,1,0,1:0:0:0:
193,254,231791,6,0,L|171:180,1,50,10|0,2:0|2:0,2:0:0:0:
313,65,231949,1,0,1:0:0:0:
318,384,232107,6,0,L|340:321,1,50,10|0,2:0|2:0,2:0:0:0:
217,123,232265,1,0,1:0:0:0:
269,290,232423,1,0,1:0:0:0:
512,147,232581,6,0,L|317:197,1,180,14|0,2:0|2:0,2:0:0:0:
324,223,232896,6,0,L|253:204,1,60,2|0,1:2|2:0,2:0:0:0:
97,80,233054,2,0,L|31:102,1,60,10|0,2:0|2:0,2:0:0:0:
10,174,233212,5,2,3:2:0:0:
69,202,233291,1,0,3:0:0:0:
132,189,233370,1,0,1:0:0:0:
158,139,233449,1,0,3:0:0:0:
195,114,233528,1,8,3:0:0:0:
238,123,233607,1,4,3:0:0:0:
238,123,233686,6,0,L|249:188,1,60,10|0,2:0|2:0,2:0:0:0:
280,384,233844,1,4,1:0:0:0:
426,144,238739,6,0,P|393:131|351:108,1,60,2|0,1:2|2:0,2:0:0:0:
197,18,238896,6,0,B|168:-45|17:-40|-107:179|-98:251|119:271|94:-28|267:-35|322:42|311:104|276:132,1,675.000000000001,4|0,1:0|2:0,2:0:0:0:
208,171,243002,5,8,3:0:0:0:
208,171,243081,1,4,3:0:0:0:
208,171,243160,2,0,P|194:127|164:96,1,75,2|0,1:2|2:0,2:0:0:0:
104,87,243475,5,6,1:2:0:0:
285,206,243633,1,8,3:0:0:0:
100,91,243791,1,4,3:0:0:0:
483,7,243949,6,0,P|385:33|285:59,1,202.5,6|0,1:0|2:0,2:0:0:0:
287,58,244265,6,0,P|272:98|273:131,1,67.5,0|0,1:0|2:0,2:0:0:0:
495,302,244423,2,0,P|513:234|506:145,1,135,8|0,2:0|2:0,2:0:0:0:
227,9,244739,5,8,2:0:0:0:
365,262,244896,1,0,1:0:0:0:
433,161,245054,2,0,L|367:183,1,67.5,10|0,2:0|2:0,2:0:0:0:
198,86,245212,6,0,B|70:61|143:25|9:-3,1,202.5,6|0,1:2|2:0,2:0:0:0:
19,0,245528,1,2,1:2:0:0:
296,209,245686,2,0,P|313:274|331:339,1,135,8|2,2:0|2:0,2:0:0:0:
217,192,246002,5,0,1:0:0:0:
480,75,246160,1,2,1:2:0:0:
394,278,246318,5,8,2:0:0:0:
274,134,246475,1,0,1:0:0:0:
274,134,246633,6,0,P|339:115|407:96,1,135,6|0,3:2|1:0,2:0:0:0:
178,277,246949,2,0,P|104:218|-31:224,1,202.5,10|0,2:0|2:0,2:0:0:0:
0,212,247265,5,2,1:2:0:0:
200,79,247423,1,2,1:2:0:0:
181,357,247581,1,8,2:0:0:0:
115,180,247739,6,0,B|68:60|47:134|0:18,1,202.5,6|0,1:2|2:0,2:0:0:0:
0,18,248054,6,0,L|79:44,1,67.5,2|0,1:2|2:0,2:0:0:0:
364,130,248212,1,8,2:0:0:0:
364,130,248528,5,0,1:0:0:0:
138,254,248686,1,0,1:0:0:0:
259,383,248844,2,0,P|271:318|277:292,1,89.9999999999998,10|0,2:0|2:0,2:0:0:0:
276,294,249160,6,0,P|183:323|134:337,1,120,4|0,1:0|1:0,2:0:0:0:
348,365,249475,1,10,2:0:0:0:
218,225,249633,1,8,3:0:0:0:
224,195,249712,1,4,3:0:0:0:
230,165,249791,1,0,1:0:0:0:
353,277,249949,5,2,1:2:0:0:
147,169,250107,1,8,2:0:0:0:
393,53,250265,1,8,3:0:0:0:
393,53,250344,1,4,3:0:0:0:
393,53,250423,1,0,1:0:0:0:
305,204,250581,5,0,1:0:0:0:
112,91,250739,2,0,P|39:66|-15:47,1,120,10|0,2:0|1:0,2:0:0:0:
174,248,251054,5,2,1:2:0:0:
306,8,251212,1,0,1:0:0:0:
512,174,251370,1,10,2:0:0:0:
512,174,251528,1,0,1:0:0:0:
203,92,251686,6,0,L|285:72,1,60,6|0,1:2|2:0,2:0:0:0:
489,59,251844,1,8,1:3:0:0:
455,84,251923,1,8,3:0:0:0:
413,82,252002,1,4,3:0:0:0:
378,58,252081,1,4,3:0:0:0:
383,53,252160,6,0,L|363:129,1,60,10|0,1:2|2:0,2:0:0:0:
164,163,252318,1,8,1:3:0:0:
203,188,252396,1,8,3:0:0:0:
251,189,252475,1,4,3:0:0:0:
289,160,252554,1,4,3:0:0:0:
292,152,252633,6,0,L|308:209,1,60,10|0,1:2|2:0,2:0:0:0:
511,367,252791,2,0,L|452:347,1,60,10|0,1:2|2:0,2:0:0:0:
172,291,252949,6,0,L|234:269,1,60,10|0,1:2|2:0,2:0:0:0:
457,212,253107,1,8,1:3:0:0:
457,212,253186,1,8,3:0:0:0:
457,212,253265,1,4,3:0:0:0:
457,212,253344,1,4,3:0:0:0:
457,212,253423,2,0,L|436:293,1,60,8|0,1:2|2:0,2:0:0:0:
239,384,253581,5,8,1:3:0:0:
269,340,253660,1,8,3:0:0:0:
317,318,253739,1,4,3:0:0:0:
369,319,253818,1,4,3:0:0:0:
372,326,253896,6,0,L|352:250,1,65,10|0,1:2|2:0,2:0:0:0:
182,111,254054,2,0,L|258:131,1,65,10|0,1:2|2:0,2:0:0:0:
499,48,254212,5,14,1:2:0:0:
454,10,254291,1,0,1:0:0:0:
395,7,254370,1,0,1:0:0:0:
342,32,254449,1,0,1:0:0:0:
318,85,254528,1,0,1:0:0:0:
329,142,254607,1,0,1:0:0:0:
368,188,254686,5,14,1:2:0:0:
306,185,254765,1,0,1:0:0:0:
249,210,254844,1,0,1:0:0:0:
212,260,254923,1,0,1:0:0:0:
195,319,255002,1,0,1:0:0:0:
146,356,255081,1,0,1:0:0:0:
79,351,255160,6,0,L|115:256,1,70,10|0,1:2|2:0,2:0:0:0:
343,32,255318,2,0,L|259:62,1,70,10|0,1:2|2:0,2:0:0:0:
1,21,255475,6,0,B|57:188|60:57|117:235,1,220,4|0,1:0|2:0,2:0:0:0:
109,209,256107,6,0,P|69:220|26:231,1,80,2|2,2:0|2:0,2:0:0:0:
167,135,256739,5,2,2:0:0:0:
250,160,257054,5,2,2:0:0:0:
332,78,257370,5,2,2:0:0:0:
459,117,257528,5,2,2:0:0:0:
459,117,257844,6,0,P|473:63|500:11,1,105,2|8,2:0|2:3,2:0:0:0:
46,378,258633,6,2,P|30:338|7:306,1,69.9999999999999,6|2,2:3|2:0,2:0:0:0:
15,315,259265,6,0,L|266:371,1,195,6|0,1:0|2:0,2:0:0:0:
205,357,259581,1,8,2:0:0:0:
465,184,259739,1,0,3:0:0:0:
294,384,259896,6,0,P|284:320|271:236,1,130,2|0,1:2|2:0,2:0:0:0:
512,92,260212,2,0,P|449:109|383:126,1,130,8|0,2:0|1:0,2:0:0:0:
194,281,260528,5,2,3:2:0:0:
369,355,260686,1,0,1:0:0:0:
251,88,260844,1,8,2:0:0:0:
120,301,261002,5,2,3:2:0:0:
120,301,261081,1,2,3:0:0:0:
120,301,261160,1,0,1:0:0:0:
312,143,261318,1,0,1:0:0:0:
121,77,261475,2,0,P|43:50|-33:17,1,130,10|8,2:0|3:0,2:0:0:0:
0,31,261712,1,4,3:0:0:0:
0,31,261791,6,0,B|25:103|45:64|80:176,1,130,6|0,1:2|2:0,2:0:0:0:
192,384,262107,2,0,B|220:292|259:349|296:213,1,195,10|0,2:0|2:0,2:0:0:0:
293,222,262423,5,0,1:0:0:0:
146,291,262581,1,0,1:0:0:0:
330,377,262739,5,10,2:0:0:0:
136,203,262896,2,0,P|65:225|-9:244,1,130,0|0,1:0|2:0,2:0:0:0:
180,130,263212,5,0,1:0:0:0:
347,298,263370,2,0,P|441:327|481:339,1,130,10|0,2:0|3:0,2:0:0:0:
471,336,263607,1,2,3:0:0:0:
471,336,263686,1,0,1:0:0:0:
373,218,263844,5,0,1:0:0:0:
249,384,264002,2,0,P|235:302|222:249,1,130,14|0,2:0|1:0,2:0:0:0:
186,100,264318,1,0,1:0:0:0:
186,100,264475,1,0,1:0:0:0:
283,203,264633,5,10,2:0:0:0:
101,302,264791,1,0,1:0:0:0:
419,322,264949,5,2,1:3:0:0:
205,181,265107,1,0,1:0:0:0:
249,384,265265,5,2,1:3:0:0:
443,62,265423,2,0,P|363:91|228:136,1,195,14|0,2:0|2:0,2:0:0:0:
203,70,265739,1,2,1:2:0:0:
145,61,265818,1,0,3:0:0:0:
97,88,265896,1,8,3:2:0:0:
49,94,265975,1,8,3:0:0:0:
9,74,266054,1,4,3:0:0:0:
2,61,266133,1,4,3:0:0:0:
6,56,266212,6,0,L|26:-3,1,50,2|0,1:2|2:0,2:0:0:0:
182,140,266370,2,0,L|195:188,1,50,0|0,1:0|2:0,2:0:0:0:
327,64,266528,1,10,3:2:0:0:
368,27,266607,1,8,3:2:0:0:
422,15,266686,1,8,3:2:0:0:
479,30,266765,1,8,3:2:0:0:
479,30,266844,6,0,B|459:106|449:67|425:148,1,110,4|0,1:0|2:0,2:0:0:0:
421,269,267160,1,10,2:0:0:0:
298,198,267318,1,8,3:0:0:0:
298,198,267396,1,4,3:0:0:0:
298,198,267475,1,0,1:0:0:0:
378,193,267633,5,2,1:2:0:0:
319,359,267791,1,8,2:0:0:0:
179,277,267949,1,8,3:0:0:0:
141,287,268028,1,4,3:0:0:0:
104,299,268107,1,0,1:0:0:0:
117,210,268265,5,2,1:2:0:0:
230,383,268423,2,0,P|245:330|257:270,1,110,8|8,2:0|3:0,2:0:0:0:
256,277,268660,1,4,3:0:0:0:
256,277,268739,5,0,1:0:0:0:
151,370,268896,1,0,1:0:0:0:
343,279,269054,2,0,P|328:222|317:166,1,110,10|8,2:0|3:0,2:0:0:0:
351,148,269291,5,4,3:0:0:0:
351,148,269370,1,2,1:2:0:0:
192,240,269528,1,0,1:0:0:0:
101,132,269686,2,0,P|46:110|-6:86,1,110,10|8,2:0|3:0,2:0:0:0:
0,88,269923,1,4,3:0:0:0:
0,88,270002,5,2,1:2:0:0:
156,70,270160,1,0,1:0:0:0:
73,254,270318,1,2,1:2:0:0:
244,175,270475,6,0,P|296:160|352:147,1,110,8|0,2:0|2:0,2:0:0:0:
418,1,270791,1,0,1:0:0:0:
512,194,270949,1,10,2:0:0:0:
380,74,271107,5,8,3:0:0:0:
380,74,271186,1,4,3:0:0:0:
380,74,271265,1,0,1:0:0:0:
406,228,271423,1,8,3:0:0:0:
421,186,271502,1,4,3:0:0:0:
437,145,271581,1,2,1:2:0:0:
512,52,271739,6,0,L|441:78,1,55,0|0,1:0|2:3,2:0:0:0:
189,2,271896,6,0,P|204:54|215:117,1,89.9999999999998,6|0,1:2|2:0,2:0:0:0:
211,89,272212,1,8,2:0:0:0:
370,230,272370,6,0,P|417:247|460:260,1,89.9999999999998,2|0,1:2|2:0,2:0:0:0:
455,258,272686,1,8,2:0:0:0:
308,102,272844,6,0,P|293:154|282:217,1,89.9999999999998,6|0,1:2|2:0,2:0:0:0:
286,189,273160,1,8,2:0:0:0:
127,330,273318,6,0,P|85:346|37:360,1,89.9999999999998,2|0,1:2|2:0,2:0:0:0:
42,358,273633,1,8,2:0:0:0:
246,262,273791,6,0,P|259:301|268:341,1,80,6|8,1:2|3:0,2:0:0:0:
235,383,274028,5,4,3:0:0:0:
235,383,274107,1,2,1:2:0:0:
329,263,274265,1,10,2:0:0:0:
237,129,274423,2,0,B|247:59|268:84|280:-18,1,120,4|0,1:0|2:0,2:0:0:0:
274,15,276633,5,2,2:0:0:0:
274,15,276791,1,2,2:0:0:0:
245,85,276949,6,0,L|249:122,1,30,2|0,2:0|2:0,2:0:0:0:
295,173,277265,2,0,L|285:241,1,60.0000000000001,2|0,2:0|2:0,2:0:0:0:
273,308,277739,5,2,2:0:0:0:
273,308,278054,1,2,2:0:0:0:
288,384,278212,5,2,2:0:0:0:
198,289,278370,2,0,L|164:302,1,30,4|0,3:0|2:0,2:0:0:0:
319,208,278686,2,0,L|346:213,1,15,8|0,3:0|2:0,2:0:0:0:
270,150,278844,5,8,2:0:0:0:
268,138,278923,1,8,2:0:0:0:
266,126,279002,1,8,2:0:0:0:
264,114,279081,1,8,2:0:0:0:
262,102,279160,1,8,2:0:0:0:
262,102,279475,6,0,B|167:78|211:58|79:12,1,187.5,6|0,1:0|2:0,2:0:0:0:
95,18,279791,2,0,P|154:82|166:131,1,125,10|0,2:0|2:0,2:0:0:0:
389,41,280107,6,0,P|478:13|520:-1,1,125,2|0,1:2|2:0,2:0:0:0:
352,178,280423,1,10,2:0:0:0:
502,276,280581,2,0,B|470:158|454:226|419:108,1,187.5,0|0,1:0|2:0,2:0:0:0:
420,111,280896,5,0,1:0:0:0:
295,248,281054,1,10,2:0:0:0:
194,61,281212,1,0,3:0:0:0:
194,61,281291,1,2,3:0:0:0:
194,61,281370,1,0,1:0:0:0:
319,168,281528,5,0,1:0:0:0:
91,61,281686,1,8,2:0:0:0:
250,0,281844,1,0,3:0:0:0:
127,207,282002,6,0,B|98:284|83:244|55:318,1,125,6|0,1:2|2:0,2:0:0:0:
14,6,282318,2,0,P|104:33|194:61,1,187.5,10|0,2:0|2:0,2:0:0:0:
193,60,282633,5,0,1:0:0:0:
58,159,282791,1,0,3:0:0:0:
295,248,282949,1,8,2:0:0:0:
191,144,283107,6,0,P|206:212|218:273,1,125,0|0,1:0|2:0,2:0:0:0:
344,134,283423,1,0,1:0:0:0:
496,245,283581,2,0,P|431:227|355:202,1,125,8|0,2:0|3:0,2:0:0:0:
377,210,283818,1,2,3:0:0:0:
377,210,283896,5,2,1:2:0:0:
265,331,284054,1,0,1:0:0:0:
115,114,284212,1,8,2:0:0:0:
115,114,284370,1,0,3:0:0:0:
206,384,284528,6,0,B|236:288|268:335|306:193,1,187.5,6|0,1:2|2:0,2:0:0:0:
297,222,284844,2,0,P|216:252|167:264,1,125,10|0,2:0|2:0,2:0:0:0:
16,297,285160,2,0,P|81:314|145:337,1,125,2|0,1:2|2:0,2:0:0:0:
295,383,285475,6,0,L|275:318,1,62.5,14|0,2:0|2:0,2:0:0:0:
192,107,285633,2,0,L|168:177,1,62.5,2|0,1:2|2:0,2:0:0:0:
102,241,285791,5,8,2:0:0:0:
354,137,285949,1,2,1:2:0:0:
105,29,286107,5,8,2:0:0:0:
255,224,286265,1,2,1:2:0:0:
448,58,286423,5,8,2:0:0:0:
273,150,286581,1,2,1:2:0:0:
273,150,286660,1,2,3:0:0:0:
273,150,286739,1,8,1:2:0:0:
512,273,286896,2,0,L|493:211,1,62.5,2|0,3:2|2:0,2:0:0:0:
512,9,287054,6,0,B|490:115|447:75|421:203,1,180,4|0,1:0|2:0,2:0:0:0:
430,166,287370,2,0,P|368:148|308:130,1,120,10|0,2:0|3:0,2:0:0:0:
298,105,287607,5,2,3:0:0:0:
298,105,287686,1,0,1:0:0:0:
214,288,287844,1,0,3:0:0:0:
77,85,288002,1,8,2:0:0:0:
253,192,288160,6,0,P|129:227|-3:263,1,240,0|0,1:0|1:0,2:0:0:0:
237,366,288633,1,8,2:0:0:0:
139,273,288791,5,0,3:0:0:0:
139,273,288870,1,2,3:0:0:0:
139,273,288949,1,2,1:2:0:0:
318,341,289107,1,0,3:0:0:0:
239,113,289265,2,0,P|263:51|280:-10,1,120,8|0,2:0|2:0,2:0:0:0:
512,326,289581,6,0,P|411:264|328:280,1,180,6|0,1:2|2:0,2:0:0:0:
353,269,289896,1,8,2:0:0:0:
164,151,290054,5,0,3:0:0:0:
164,151,290133,1,2,3:0:0:0:
164,151,290212,1,0,1:0:0:0:
345,47,290370,1,0,3:0:0:0:
274,275,290528,1,8,2:0:0:0:
92,89,290686,6,0,L|29:70,1,60,6|0,1:2|2:0,2:0:0:0:
234,197,290844,1,0,3:0:0:0:
419,28,291002,6,0,L|491:6,1,60,2|0,1:2|2:0,2:0:0:0:
284,138,291160,1,8,2:0:0:0:
161,0,291318,5,6,3:2:0:0:
161,0,291396,1,2,3:0:0:0:
161,0,291475,2,0,L|176:72,1,60,0|0,3:0|2:0,2:0:0:0:
358,168,291633,6,0,L|344:240,1,60,2|0,1:2|2:0,2:0:0:0:
256,384,291791,5,14,2:0:0:0:
256,384,292107,6,0,L|247:318,1,60,14|0,1:2|2:0,2:0:0:0:
229,169,292265,1,0,1:0:0:0:
395,331,292423,5,8,2:1:0:0:
96,227,292581,1,0,1:0:0:0:
259,249,292739,5,10,2:0:0:0:
259,249,292896,1,0,1:0:0:0:
79,305,293054,5,8,2:1:0:0:
434,189,293212,1,0,1:0:0:0:
251,99,293370,5,10,2:0:0:0:
251,99,293528,1,0,1:0:0:0:
456,114,293686,5,8,2:1:0:0:
69,3,293844,1,0,1:0:0:0:
243,187,294002,5,8,2:1:0:0:
258,0,294160,1,2,1:2:0:0:
258,0,294239,1,2,1:2:0:0:
258,0,294318,2,0,L|251:104,1,100,10|0,2:0|1:0,2:0:0:0:
491,18,294633,6,0,L|442:31,1,50,14|0,1:2|2:0,2:0:0:0:
134,106,294791,1,0,1:0:0:0:
218,312,294949,6,0,L|246:251,1,50,10|0,1:2|2:0,2:0:0:0:
335,43,295107,1,0,1:0:0:0:
12,14,295265,6,0,L|77:33,1,50,14|0,1:2|2:0,2:0:0:0:
396,105,295423,1,0,1:0:0:0:
305,384,295581,6,0,L|292:322,1,50,10|0,1:2|2:0,2:0:0:0:
231,77,295739,1,0,1:0:0:0:
384,344,295896,6,2,L|430:365,1,50,14|2,1:2|2:0,2:0:0:0:
117,304,296054,5,0,1:0:0:0:
117,304,296133,1,0,1:0:0:0:
117,304,296212,2,0,L|53:326,1,55,10|0,1:2|2:0,2:0:0:0:
474,274,296370,5,2,1:2:0:0:
474,274,296449,1,0,1:0:0:0:
474,274,296528,2,0,L|452:211,1,60,12|0,1:2|2:0,2:0:0:0:
38,178,296686,5,2,1:2:0:0:
38,178,296765,1,0,1:0:0:0:
38,178,296844,2,0,L|55:116,1,65,12|0,2:0|2:0,2:0:0:0:
252,0,297002,6,0,B|251:152|261:85|260:252,1,240,4|6,1:0|2:0,2:0:0:0:
256,192,297554,12,2,302844,2:0:0:0:
