osu file format v14

[General]
AudioFilename: audio.mp3
AudioLeadIn: 0
PreviewTime: 71311
Countdown: 1
SampleSet: Soft
StackLeniency: 0.7
Mode: 0
LetterboxInBreaks: 0
WidescreenStoryboard: 1

[Editor]
Bookmarks: 59469
DistanceSpacing: 0.9
BeatDivisor: 4
GridSize: 4
TimelineZoom: 3.999999

[Metadata]
Title:Close to You
TitleUnicode:Close to You
Artist:v flower
ArtistUnicode:v flower
Creator:Asfand
Version:best version
Source:
Tags:
BeatmapID:908907
BeatmapSetID:419606

[Difficulty]
HPDrainRate:0
CircleSize:4
OverallDifficulty:6
ApproachRate:3.5
SliderMultiplier:2
SliderTickRate:1

[Events]
//Background and Video events
0,0,"maxresdefault.jpg",0,0
//Break Periods
2,47037,50090
//Storyboard Layer 0 (Background)
//Storyboard Layer 1 (Fail)
//Storyboard Layer 2 (Pass)
//Storyboard Layer 3 (Foreground)
//Storyboard Sound Samples

[TimingPoints]
1364,315.789473684211,4,2,0,55,1,0
1364,-142.857142857143,4,2,0,55,0,0
1442,-142.857142857143,4,2,0,5,0,0
1837,-142.857142857143,4,2,0,55,0,0
1916,-142.857142857143,4,2,0,5,0,0
2311,-142.857142857143,4,2,0,55,0,0
2390,-142.857142857143,4,2,0,5,0,0
2785,-142.857142857143,4,2,0,55,0,0
3969,-142.857142857143,4,2,0,5,0,0
4364,-142.857142857143,4,2,0,55,0,0
4442,-142.857142857143,4,2,0,5,0,0
4837,-142.857142857143,4,2,0,55,0,0
4916,-142.857142857143,4,2,0,5,0,0
5311,-142.857142857143,4,2,0,55,0,0
7442,-142.857142857143,4,2,0,5,0,0
7837,-142.857142857143,4,2,0,55,0,0
8942,-142.857142857143,4,2,0,55,0,0
9021,-142.857142857143,4,2,0,5,0,0
9416,-142.857142857143,4,2,0,55,0,0
9732,-142.857142857143,4,2,0,55,0,0
9811,-142.857142857143,4,2,0,5,0,0
10364,-142.857142857143,4,2,0,55,0,0
11548,-142.857142857143,4,2,0,5,0,0
11942,-142.857142857143,4,2,0,55,0,0
12021,-142.857142857143,4,2,0,5,0,0
12416,-142.857142857143,4,2,0,55,0,0
13442,-142.857142857143,4,2,0,5,0,0
13679,-142.857142857143,4,2,0,55,0,0
13758,-142.857142857143,4,2,0,5,0,0
13995,-142.857142857143,4,2,0,55,0,0
14074,-142.857142857143,4,2,0,5,0,0
14311,-142.857142857143,4,2,0,55,0,0
15021,-142.857142857143,4,2,0,5,0,0
15416,-142.857142857143,4,2,0,55,0,0
16600,-142.857142857143,4,2,0,5,0,0
16995,-142.857142857143,4,2,0,55,0,0
17548,-142.857142857143,4,2,0,5,0,0
17942,-142.857142857143,4,2,0,55,0,0
21574,-125,4,2,0,55,0,0
31679,-100,4,2,0,55,0,0
70048,-125,4,2,0,55,0,0
70521,-166.666666666667,4,2,0,55,0,0
72100,-83.3333333333333,4,2,0,55,0,1
122627,-100,4,2,0,55,0,0

[HitObjects]
71,207,1364,6,0,P|116:155|183:142,1,139.999995727539
264,212,1837,2,0,P|288:128|252:56,1,139.999995727539
164,240,2311,2,0,P|232:308|344:276,1,209.999993591309
408,200,3100,5,0,0:0:0:0:
408,200,3258,1,0,0:0:0:0:
380,348,3574,1,0,0:0:0:0:
192,216,3890,6,0,P|171:150|199:88,1,139.999995727539
264,160,4364,2,0,P|344:176|404:152,1,139.999995727539
288,56,4837,2,0,P|196:0|108:76,1,209.999993591309
64,148,5627,5,0,0:0:0:0:
64,148,5785,1,0,0:0:0:0:
182,240,6100,1,0,0:0:0:0:
267,213,6258,1,0,0:0:0:0:
451,288,6416,6,0,B|379:296|379:296|312:288,1,139.999995727539
196,376,6890,2,0,B|176:324|176:324|184:228,1,139.999995727539
224,24,7364,2,0,P|268:79|264:220,1,209.999993591309
200,300,8153,5,0,0:0:0:0:
284,364,8311,2,0,P|344:336|364:256,1,139.999995727539
276,272,8785,1,0,0:0:0:0:
440,224,8942,6,0,B|404:180|344:184|344:184|352:124|276:76,1,209.999993591309
252,176,9732,2,0,P|232:48|364:20,1,279.999991455078
412,100,10679,5,0,0:0:0:0:
412,100,10837,2,0,L|428:196,1,69.9999978637696
360,256,11153,2,0,L|344:164,1,69.9999978637696
120,88,11469,6,0,P|112:168|140:240,1,139.999995727539
212,320,11942,2,0,P|220:240|192:168,1,139.999995727539
288,184,12416,2,0,P|354:203|423:194,1,139.999995727539
188,48,12890,6,0,B|180:128|180:128|208:200,1,139.999995727539
308,256,13364,2,0,L|279:192,1,69.9999978637696
300,68,13679,2,0,L|328:131,1,69.9999978637696
240,348,13995,6,0,P|164:324|148:260,1,139.999995727539
224,272,14469,1,0,0:0:0:0:
368,348,14785,1,0,0:0:0:0:
368,348,14942,6,0,B|388:272|388:272|356:212|372:120,1,209.999993591309
312,20,15890,2,0,L|292:92,1,69.9999978637696
188,172,16206,2,0,L|208:100,1,69.9999978637696
252,240,16521,6,0,P|156:260|92:160,1,209.999993591309
288,324,17311,1,0,0:0:0:0:
288,324,17469,2,0,P|384:344|448:244,1,209.999993591309
408,120,18416,1,0,0:0:0:0:
284,256,18732,5,0,0:0:0:0:
172,192,18890,5,0,0:0:0:0:
280,132,19048,5,0,0:0:0:0:
288,180,20942,6,0,P|266:286|163:251,1,244.999992523194
232,224,21574,6,0,B|300:284|360:208|360:208|376:240|360:268|360:268|332:316|388:376,1,320
444,192,22837,6,0,P|360:132|296:160,1,160
232,292,23469,2,0,P|333:275|359:209,1,160
168,96,24100,6,0,B|140:80|136:40|136:40|104:80|60:44|60:44|80:92|28:112|28:112|72:128|80:172,1,320
64,328,25364,2,0,P|136:320|176:224,1,160
176,132,25995,2,0,P|252:142|290:210,1,160
416,312,26627,6,0,B|440:236|416:80|416:80|404:144|364:180,1,320
184,272,27890,6,0,P|106:273|51:218,1,160
144,184,28521,2,0,P|198:128|276:128,1,160,0|0,2:0|2:0,2:0:0:0:
384,272,29153,6,0,B|384:316|428:344|428:344|368:308|344:304|344:304|284:344|184:336,2,320
444,68,31048,1,0,0:0:0:0:
440,76,31364,5,0,0:0:0:0:
432,96,31442,1,0,0:0:0:0:
428,124,31521,1,0,0:0:0:0:
428,164,31600,1,0,0:0:0:0:
440,200,31679,6,0,B|436:248|396:264|396:264|344:232|272:268,1,200
136,316,32153,1,0,0:0:0:0:
192,240,32311,2,0,P|216:200|292:184,1,100
364,248,32627,1,0,0:0:0:0:
224,332,32785,1,0,0:0:0:0:
444,284,32942,6,0,P|449:227|420:184,1,100
400,172,33179,1,0,0:0:0:0:
368,164,33258,1,0,0:0:0:0:
283,262,33416,1,0,0:0:0:0:
108,228,33574,6,0,P|139:181|190:166,1,100,0|0,2:0|0:0,0:0:0:0:
368,164,33890,1,0,0:0:0:0:
396,192,33969,1,0,0:0:0:0:
388,232,34048,1,0,0:0:0:0:
356,256,34127,1,0,0:0:0:0:
316,252,34206,6,0,B|296:204|296:204|312:140,1,100
248,36,34521,1,0,0:0:0:0:
236,72,34600,1,0,0:0:0:0:
224,108,34679,1,0,0:0:0:0:
212,144,34758,1,0,0:0:0:0:
196,180,34837,6,0,P|140:172|112:136,1,100
152,36,35153,1,0,0:0:0:0:
312,88,35311,1,0,0:0:0:0:
187,264,35469,6,0,P|243:256|271:220,1,100
231,120,35785,1,0,0:0:0:0:
71,172,35943,1,0,0:0:0:0:
176,362,36100,6,0,P|188:314|181:239,1,100
231,120,36416,1,0,0:0:0:0:
244,156,36495,1,0,0:0:0:0:
256,192,36574,1,0,0:0:0:0:
272,228,36653,1,0,0:0:0:0:
288,264,36732,6,0,P|344:256|372:220,1,100
412,120,37048,1,0,0:0:0:0:
244,156,37206,1,0,0:0:0:0:
45,147,37364,6,0,B|139:141|139:141|270:159,1,200
370,224,37837,1,0,0:0:0:0:
256,364,37995,6,0,P|236:316|288:248,1,100
250,272,38232,1,0,0:0:0:0:
250,272,38311,1,0,0:0:0:0:
348,188,38469,1,0,0:0:0:0:
308,316,38627,6,0,B|244:316|244:316|188:288,1,100
96,156,38942,1,0,0:0:0:0:
120,124,39021,1,0,0:0:0:0:
156,104,39100,1,0,0:0:0:0:
196,92,39179,1,0,0:0:0:0:
236,96,39258,6,0,B|276:104|308:84|308:84|368:108,1,100
424,184,39574,1,0,0:0:0:0:
284,84,39732,1,0,0:0:0:0:
284,240,39890,1,0,0:0:0:0:
384,84,40048,1,0,0:0:0:0:
308,316,40206,6,0,P|258:316|216:290,1,100
116,224,40521,1,0,0:0:0:0:
224,172,40679,1,0,0:0:0:0:
164,68,40837,1,0,0:0:0:0:
280,36,40995,1,0,0:0:0:0:
453,84,41153,6,0,P|405:96|364:124,1,100
304,228,41469,1,0,0:0:0:0:
328,260,41548,1,0,0:0:0:0:
364,272,41627,1,0,0:0:0:0:
404,264,41706,1,0,0:0:0:0:
436,244,41785,1,0,0:0:0:0:
256,192,41864,12,0,46837,0:0:0:0:
160,308,51890,6,0,B|196:268|196:268|284:244|276:152,1,200
308,36,52364,2,0,P|200:48|168:144,1,200
80,344,52837,2,0,B|96:300|64:224|64:224|92:192|98:155,1,200
152,48,53311,1,0,0:0:0:0:
216,192,53469,2,0,P|268:200|324:192,1,100
364,148,53706,1,0,0:0:0:0:
364,148,53785,6,0,P|380:192|348:256,1,100
256,312,54100,1,0,0:0:0:0:
224,280,54179,1,0,0:0:0:0:
208,236,54258,1,0,0:0:0:0:
216,192,54337,1,0,0:0:0:0:
244,156,54416,6,0,P|284:124|356:128,1,100
480,132,54732,1,0,0:0:0:0:
320,192,54890,2,0,P|256:120|316:48,1,200
396,144,55364,1,0,0:0:0:0:
376,352,55521,6,0,P|396:300|388:240,1,100
380,212,55758,1,0,0:0:0:0:
348,184,55837,1,0,0:0:0:0:
304,172,55916,1,0,0:0:0:0:
260,184,55995,1,0,0:0:0:0:
256,300,56153,1,0,0:0:0:0:
64,348,56311,6,0,P|128:340|176:292,1,100
260,184,56627,1,0,0:0:0:0:
266,141,56706,1,0,0:0:0:0:
252,98,56785,1,0,0:0:0:0:
220,65,56864,1,0,0:0:0:0:
176,56,56942,6,0,P|121:63|64:112,1,100
20,180,57258,1,0,0:0:0:0:
64,4,57416,1,0,0:0:0:0:
188,136,57574,1,0,0:0:0:0:
8,96,57732,1,0,0:0:0:0:
68,268,57890,1,0,0:0:0:0:
380,348,58048,6,0,B|404:304|380:272|380:272|408:248|380:220|380:220|404:184|384:144,1,200
336,56,58521,1,0,0:0:0:0:
268,200,58679,1,0,0:0:0:0:
304,172,58758,1,0,0:0:0:0:
308,128,58837,6,0,P|252:120|192:172,1,100
88,236,59153,1,0,0:0:0:0:
52,208,59232,1,0,0:0:0:0:
40,164,59311,1,0,0:0:0:0:
56,120,59390,1,0,0:0:0:0:
84,88,59469,6,0,P|128:76|212:112,1,100
300,140,59785,1,0,0:0:0:0:
128,160,59942,1,0,0:0:0:0:
264,68,60100,1,0,0:0:0:0:
224,220,60258,1,0,0:0:0:0:
376,152,60416,6,0,P|368:100|316:60,1,100
208,64,60732,1,0,0:0:0:0:
128,160,60890,1,0,0:0:0:0:
152,284,61048,1,0,0:0:0:0:
264,344,61206,1,0,0:0:0:0:
308,336,61285,1,0,0:0:0:0:
348,316,61364,6,0,P|384:276|384:232,1,100
324,64,61679,1,0,0:0:0:0:
316,108,61758,1,0,0:0:0:0:
308,152,61837,1,0,0:0:0:0:
300,196,61916,1,0,0:0:0:0:
288,240,61995,6,0,P|224:180|248:80,1,200
412,196,62469,2,0,P|438:287|372:356,1,200
240,292,62942,1,0,0:0:0:0:
168,168,63100,1,0,0:0:0:0:
44,240,63258,1,0,0:0:0:0:
116,364,63416,5,0,0:0:0:0:
116,364,63574,1,0,0:0:0:0:
116,364,63732,1,0,0:0:0:0:
304,340,63890,2,0,P|320:292|300:240,1,100
168,168,64206,1,0,0:0:0:0:
304,340,64364,1,0,0:0:0:0:
304,340,64442,1,0,0:0:0:0:
304,340,64521,6,0,P|328:292|316:236,1,100
248,104,64837,1,0,0:0:0:0:
100,216,64995,2,0,P|142:244|208:240,1,100
332,160,65311,1,0,0:0:0:0:
304,340,65469,1,0,0:0:0:0:
200,172,65627,5,0,0:0:0:0:
412,280,65785,1,0,0:0:0:0:
388,316,65864,1,0,0:0:0:0:
348,336,65942,1,0,0:0:0:0:
304,340,66021,1,0,0:0:0:0:
260,340,66100,2,0,B|208:344|208:344|154:332,1,100
24,184,66416,6,0,B|70:173|70:173|122:177,1,100
252,180,66732,1,0,0:0:0:0:
324,276,66890,1,0,0:0:0:0:
188,252,67048,5,0,0:0:0:0:
332,196,67206,1,0,0:0:0:0:
320,360,67364,1,0,0:0:0:0:
128,300,67521,2,0,P|112:248|136:200,1,100
216,104,67837,1,0,0:0:0:0:
128,207,67995,1,0,0:0:0:0:
116,372,68153,6,0,P|164:364|200:292,1,100
232,192,68469,1,0,0:0:0:0:
352,124,68627,1,0,0:0:0:0:
360,260,68785,1,0,0:0:0:0:
422,83,68942,2,0,P|384:52|332:48,1,100
188,108,69258,1,0,0:0:0:0:
152,136,69337,1,0,0:0:0:0:
108,148,69416,1,0,0:0:0:0:
68,128,69495,1,0,0:0:0:0:
24,116,69574,6,0,B|72:96|120:120|120:120|176:144|240:124,1,200
292,200,70048,6,0,P|324:128|284:56,1,160
218,129,70521,6,0,B|180:152|188:232|188:232|188:248|188:256|184:268|184:268|180:216|136:188,1,239.999992675781
104,264,71311,5,0,0:0:0:0:
116,308,71390,1,0,0:0:0:0:
148,340,71469,1,0,0:0:0:0:
192,348,71548,1,0,0:0:0:0:
236,332,71627,1,0,0:0:0:0:
268,300,71706,1,0,0:0:0:0:
308,280,71785,1,0,0:0:0:0:
352,280,71864,1,0,0:0:0:0:
392,296,71942,1,0,0:0:0:0:
428,324,72021,1,0,0:0:0:0:
468,340,72100,6,0,P|484:276|444:192,1,119.999996337891
404,116,72416,1,0,0:0:0:0:
352,280,72574,2,0,P|296:296|236:272,1,119.999996337891
156,164,72890,5,0,0:0:0:0:
180,328,73048,1,0,0:0:0:0:
60,236,73206,1,0,0:0:0:0:
260,168,73364,1,0,0:0:0:0:
0,220,73521,6,0,P|52:232|124:216,1,119.999996337891
232,144,73837,1,0,0:0:0:0:
409,142,73995,2,0,B|368:128|324:144|324:144|272:156|191:134,1,179.999994506836
100,80,74469,1,0,0:0:0:0:
228,328,74627,6,0,P|236:268|224:196,1,119.999996337891
88,44,74942,1,0,0:0:0:0:
88,44,75100,2,0,P|80:103|88:162,1,119.999996337891
172,336,75416,2,0,P|232:352|304:324,1,119.999996337891
432,60,75732,6,0,B|392:28|360:32|351:34|342:37|342:37|335:39|328:44|280:84|176:52,1,239.999992675781
40,68,76206,1,0,0:0:0:0:
136,216,76364,1,0,0:0:0:0:
148,256,76442,1,0,0:0:0:0:
176,288,76521,1,0,0:0:0:0:
216,304,76600,1,0,0:0:0:0:
216,260,76680,5,0,0:0:0:0:
256,264,76758,1,0,0:0:0:0:
292,288,76837,1,0,0:0:0:0:
320,320,76916,1,0,0:0:0:0:
360,336,76995,1,0,0:0:0:0:
404,336,77074,1,0,0:0:0:0:
444,324,77153,6,0,P|472:264|456:216,1,119.999996337891
352,132,77469,1,0,0:0:0:0:
348,368,77627,2,0,P|332:311|359:259,1,119.999996337891
472,132,77942,5,0,0:0:0:0:
359,259,78100,1,0,0:0:0:0:
312,64,78258,1,0,0:0:0:0:
440,216,78416,1,0,0:0:0:0:
276,144,78574,2,0,B|224:132|224:132|148:136,1,119.999996337891
16,164,78811,5,0,0:0:0:0:
28,212,78890,1,0,0:0:0:0:
68,240,78969,1,0,0:0:0:0:
116,240,79048,1,0,0:0:0:0:
160,216,79127,1,0,0:0:0:0:
208,204,79206,1,0,0:0:0:0:
252,220,79285,1,0,0:0:0:0:
296,240,79364,2,0,P|376:252|432:208,1,119.999996337891
264,64,79679,6,0,P|184:52|128:96,1,119.999996337891
28,212,79995,1,0,0:0:0:0:
224,148,80153,2,0,B|296:136|296:136|348:108,1,119.999996337891
216,252,80469,2,0,B|144:264|144:264|92:292,1,119.999996337891
404,328,80785,2,0,B|396:272|440:232|440:232|452:156|388:116|388:116|320:144|264:76,1,359.999989013672
352,24,81416,5,0,0:0:0:0:
320,216,81574,1,0,0:0:0:0:
168,92,81732,1,0,0:0:0:0:
276,304,81890,1,0,0:0:0:0:
324,312,81969,1,0,0:0:0:0:
372,300,82048,1,0,0:0:0:0:
408,268,82127,1,0,0:0:0:0:
432,224,82206,6,0,P|448:160|416:104,1,119.999996337891
268,40,82521,1,0,0:0:0:0:
192,360,82679,2,0,P|169:305|185:249,1,119.999996337891
360,56,82995,1,0,0:0:0:0:
88,204,83153,2,0,P|141:156|216:144,1,119.999996337891
360,172,83469,5,0,0:0:0:0:
348,220,83548,1,0,0:0:0:0:
312,252,83627,1,0,0:0:0:0:
264,256,83706,1,0,0:0:0:0:
224,232,83785,1,0,0:0:0:0:
180,220,83864,1,0,0:0:0:0:
136,232,83942,1,0,0:0:0:0:
96,256,84021,1,0,0:0:0:0:
48,256,84100,2,0,B|108:220|188:232|188:232|224:192|288:184,1,239.999992675781
444,204,84574,1,0,0:0:0:0:
142,347,84732,6,0,P|126:295|158:195,1,119.999996337891
300,32,85048,1,0,0:0:0:0:
300,32,85206,2,0,P|316:84|284:184,1,119.999996337891
208,284,85521,1,0,0:0:0:0:
236,92,85679,1,0,0:0:0:0:
468,204,85837,2,0,P|432:248|344:236,1,119.999996337891
156,168,86153,1,0,0:0:0:0:
396,180,86311,1,0,0:0:0:0:
200,240,86469,5,0,0:0:0:0:
360,88,86627,1,0,0:0:0:0:
280,368,86785,1,0,0:0:0:0:
488,232,86942,1,0,0:0:0:0:
192,328,87100,1,0,0:0:0:0:
448,304,87258,6,0,P|460:168|360:88,1,239.999992675781
184,244,87732,2,0,P|110:154|129:39,1,239.999992675781
412,40,88206,6,0,P|431:154|357:244,1,239.999992675781
147,99,88680,2,0,P|73:188|92:303,1,239.999992675781
310,331,89153,6,0,P|369:340|428:328,1,119.999996337891
232,96,89469,2,0,P|172:87|114:99,1,119.999996337891
116,360,89785,6,0,P|216:328|244:168,1,239.999992675781
228,28,90258,2,0,P|328:60|356:220,1,239.999992675781
152,264,90732,2,0,P|80:140|252:36,1,359.999989013672
416,148,91364,5,0,0:0:0:0:
420,196,91442,1,0,0:0:0:0:
412,244,91521,1,0,0:0:0:0:
392,288,91600,1,0,0:0:0:0:
352,312,91679,1,0,0:0:0:0:
308,328,91758,1,0,0:0:0:0:
264,312,91837,1,0,0:0:0:0:
216,312,91916,1,0,0:0:0:0:
172,332,91995,1,0,0:0:0:0:
32,340,92153,1,0,0:0:0:0:
304,240,92311,6,0,P|284:168|212:136,1,119.999996337891
