osu file format v14

[General]
AudioFilename: audio.mp3
AudioLeadIn: 0
PreviewTime: 44895
Countdown: 0
SampleSet: Normal
StackLeniency: 0.7
Mode: 1
LetterboxInBreaks: 0
WidescreenStoryboard: 0

[Editor]
DistanceSpacing: 0.8
BeatDivisor: 4
GridSize: 32
TimelineZoom: 2.6

[Metadata]
Title:Neko to Mahou no Natsuyasumi
TitleUnicode:ネコと魔法の夏休み
Artist:uynet
ArtistUnicode:uynet
Creator:Briesmas
Version:Inner Oni
Source:Muse Dash
Tags:pop electronic instrumental taiko no tatsujin song contest video rhythm game COSMIC RADIO PEROLIST 宇宙电台PEROLIST やいぎ yaigi _yaigi beach summer cat vacation rocket whale shellfish chiptune piano 太鼓の達人楽曲公募2022 2022 ゆいねっと
BeatmapID:3931227
BeatmapSetID:1906431

[Difficulty]
HPDrainRate:5
CircleSize:2
OverallDifficulty:6.5
ApproachRate:0
SliderMultiplier:1.4
SliderTickRate:1

[Events]
//Background and Video events
0,0,"bg.jpg",0,0
//Break Periods
//Storyboard Layer 0 (Background)
//Storyboard Layer 1 (Fail)
//Storyboard Layer 2 (Pass)
//Storyboard Layer 3 (Foreground)
//Storyboard Layer 4 (Overlay)
//Storyboard Sound Samples

[TimingPoints]
385,322.58064516129,4,1,0,50,1,8
1030,322.58064516129,4,1,0,70,1,0
1030,-83.333333333333,4,1,0,70,0,0
2320,-90.909090909091,4,1,0,60,0,0
3288,-83.333333333335,4,1,0,60,0,0
3610,-100,4,1,0,60,0,0
5545,-105.263157894737,4,1,0,50,0,0
6190,-100,4,1,0,60,0,0
8448,-90.909090909091,4,1,0,70,0,0
8771,-100,4,1,0,70,0,0
9416,-100,4,1,0,60,0,0
11997,-111.111111111111,4,1,0,50,0,0
14013,-111.767279090114,4,1,0,50,0,0
14093,-113.757791629564,4,1,0,50,0,0
14254,-116.279069767442,4,1,0,50,0,0
14496,-120.481927710843,4,1,0,50,0,0
14739,-125,4,1,0,50,0,0
17803,-100,4,1,0,60,0,0
19093,-100,4,1,0,70,0,0
19900,-100,4,1,0,60,0,0
22480,-95.238095238095,4,1,0,65,0,0
23287,-90.909090909091,4,1,0,70,0,0
23771,-100,4,1,0,60,0,0
27400,-100,4,1,0,70,0,0
27803,-100,4,1,0,60,0,0
28878,-100,4,1,0,60,0,0
28986,-102.048558421851,4,1,0,58,0,0
29093,-104.162633107454,4,1,0,56,0,0
29201,-106.387186078703,4,1,0,54,0,0
29308,-108.686868686869,4,1,0,52,0,0
29416,-111.111111111111,4,1,0,50,0,0
30222,-111.111111111111,4,1,0,50,0,0
30383,-107.150763781271,4,1,0,53,0,0
30545,-103.440906176533,4,1,0,57,0,0
30706,-100,4,1,0,60,0,0
31459,-105.263157894737,4,1,0,50,0,0
32319,-100,4,1,0,60,0,0
36513,-95.238095238095,4,1,0,70,0,0
38287,-100,4,1,0,60,0,0
39739,-105.263157894737,4,1,0,50,0,0
42158,-111.111111111111,4,1,0,50,0,0
43126,-105.263157894737,4,1,0,50,0,0
43609,-100,4,1,0,60,0,0
44577,-90.909090909091,4,1,0,70,0,0
44900,-99.979343110928,4,1,0,70,0,1
51997,-99.979343110928,4,1,0,60,0,0
52319,-111.085609364242,4,1,0,50,0,0
53609,-105.263157894737,4,1,0,60,0,0
54013,-100,4,1,0,70,0,1
54900,-90.909090909091,4,1,0,70,0,0
55222,-125,4,1,0,50,0,0
60706,-130.612738052138,4,1,0,50,0,0
61029,333.333333333333,4,1,0,50,1,8
61029,-132.093015937688,4,1,0,50,0,0
61362,-138.231501361232,4,1,0,50,0,0
61695,379.746835443038,4,1,0,45,1,0
61695,-126.975162060544,4,1,0,45,0,0
62074,419.58041958042,4,1,0,40,1,8
62074,-121.017999535422,4,1,0,40,0,0
62493,520.833333333333,4,1,0,35,1,8
62493,-103.225806451613,4,1,0,35,0,0
64576,391.644908616188,4,1,0,40,1,0
64576,-111.111111111111,4,1,0,40,0,0
70581,-100,4,1,0,50,0,0
75542,408.163265306122,4,1,0,50,1,0
75542,-100,4,1,0,50,0,0
75814,-104.166666666667,4,1,0,47,0,0
76086,-108.695652173913,4,1,0,44,0,0
76358,463.320463320463,4,1,0,38,1,8
76666,-104.457127919136,4,1,0,35,0,0
76975,-108.853575482406,4,1,0,32,0,0
77284,322.58064516129,4,1,0,50,1,0
77284,-111.111111111111,4,1,0,50,0,0
79864,-95.238095238095,4,1,0,70,0,0
80187,-95.238095238095,4,1,0,60,0,0
80348,-95.238095238095,4,1,0,70,0,0
80671,-95.238095238095,4,1,0,60,0,0
81154,-95.238095238095,4,1,0,70,0,0
81316,-95.238095238095,4,1,0,60,0,0
81638,-95.238095238095,4,1,0,70,0,0
82445,-100,4,1,0,60,0,0
85509,-100,4,1,0,60,0,0
85590,-101.013894104394,4,1,0,59,0,0
85671,-102.048558421851,4,1,0,58,0,0
85778,-103.448275862069,4,1,0,57,0,0
85886,-104.900558949695,4,1,0,55,0,0
85993,-106.380174004746,4,1,0,54,0,0
86101,-107.916555228671,4,1,0,53,0,0
86208,-109.483109483109,4,1,0,51,0,0
86316,-90.909090909091,4,1,0,70,0,0
87606,322.58064516129,4,1,0,50,1,8
87606,-111.111111111111,4,1,0,50,0,0
87687,-109.582059123344,4,1,0,53,0,0
87767,-108.112638283607,4,1,0,55,0,0
87848,-106.664461716554,4,1,0,58,0,0
87929,-105.254569190601,4,1,0,60,0,0
88009,-103.898195876289,4,1,0,62,0,0
88090,-102.560025441247,4,1,0,65,0,0
88171,-101.255886970173,4,1,0,68,0,0
88251,322.58064516129,4,1,0,70,1,1
90831,-95.238095238095,4,1,0,80,0,1
92283,-100,4,1,0,70,0,1
93412,-100,4,1,0,70,0,1
93573,-101.692243010301,4,1,0,68,0,1
93654,-102.565461677091,4,1,0,67,0,1
93815,-104.346419327006,4,1,0,66,0,1
93896,-105.266021107605,4,1,0,65,0,1
94057,-107.142857142857,4,1,0,63,0,1
94164,-108.427658859128,4,1,0,62,0,1
94272,-109.756097560976,4,1,0,61,0,1
94380,-111.117491673366,4,1,0,60,0,1
94487,-112.5,4,1,0,59,0,1
94595,-113.93075836081,4,1,0,58,0,1
94702,-115.384615384615,4,1,0,57,0,0
94810,-116.89017760058,4,1,0,56,0,0
94917,-118.421052631579,4,1,0,54,0,0
95025,-120.007442322004,4,1,0,53,0,0
95132,-121.621621621622,4,1,0,52,0,0
95240,-123.295526952976,4,1,0,51,0,0
95347,-125,4,1,0,50,0,0
98573,-125,4,1,0,50,0,0
98896,-120.485968769798,4,1,0,52,0,0
99057,-118.355542539171,4,1,0,53,0,0
99218,-116.299147451347,4,1,0,54,0,0
99299,-115.291348691249,4,1,0,54,0,0
99380,-114.300866183489,4,1,0,55,0,0
99541,-112.381813125695,4,1,0,56,0,0
99702,-110.526135858603,4,1,0,57,0,0
99783,-109.615515020004,4,1,0,57,0,0
99863,-108.7307459474,4,1,0,58,0,0
100025,-106.982131039047,4,1,0,59,0,0
100186,-105.299156434225,4,1,0,60,0,0
100347,-103.668312704419,4,1,0,61,0,0
100509,-102.077544834554,4,1,0,62,0,0
100589,-101.309852093256,4,1,0,62,0,0
100670,-100.544238843104,4,1,0,63,0,0
100750,-99.799351751814,4,1,0,63,0,0
100831,-99.056314725167,4,1,0,64,0,0
100912,-98.324260211064,4,1,0,64,0,0
100992,-97.611787083723,4,1,0,65,0,0
101073,-96.90085121688,4,1,0,65,0,0
101154,-96.200196387657,4,1,0,66,0,0
101315,-94.837195658551,4,1,0,67,0,0
101476,-93.512278367512,4,1,0,68,0,0
101557,-92.859604779412,4,1,0,68,0,0
101638,-92.21597877863,4,1,0,69,0,0
101806,357.142857142857,4,1,0,70,1,8
101806,-81.9672131147541,4,1,0,70,0,0
102475,-100,4,1,0,60,0,0
102520,322.58064516129,4,1,0,60,1,0
102520,-111.111111111111,4,1,0,60,0,0
103810,-100,4,1,0,70,0,1
116068,-100,4,1,0,70,0,0
116310,-101.696103167928,4,1,0,68,0,0
116552,-103.450734350492,4,1,0,67,0,0
116713,-105.881494454174,4,1,0,64,0,0
117519,-111.111111111111,4,1,0,60,0,0
119294,-100,4,1,0,60,0,0
119616,-90.909090909091,4,1,0,70,0,0

[HitObjects]
256,192,385,5,0,0:0:0:0:
256,192,546,1,8,0:0:0:0:
256,192,626,1,0,0:0:0:0:
256,192,707,1,0,0:0:0:0:
256,192,788,1,0,0:0:0:0:
256,192,868,1,8,0:0:0:0:
256,192,1030,1,4,0:0:0:0:
256,192,1352,1,12,0:0:0:0:
256,192,1675,1,4,0:0:0:0:
256,192,1917,1,4,0:0:0:0:
256,192,2159,1,12,0:0:0:0:
256,192,2401,1,0,0:0:0:0:
256,192,2481,1,8,0:0:0:0:
256,192,2643,1,8,0:0:0:0:
256,192,2804,1,8,0:0:0:0:
256,192,2965,1,0,0:0:0:0:
256,192,3288,1,8,0:0:0:0:
256,192,3610,1,4,0:0:0:0:
256,192,3932,1,8,0:0:0:0:
256,192,4093,1,0,0:0:0:0:
256,192,4175,1,0,0:0:0:0:
256,192,4255,1,8,0:0:0:0:
256,192,4416,1,8,0:0:0:0:
256,192,4578,1,0,0:0:0:0:
256,192,4739,1,8,0:0:0:0:
256,192,5062,1,0,0:0:0:0:
256,192,5223,1,8,0:0:0:0:
256,192,5384,1,0,0:0:0:0:
256,192,5546,1,0,0:0:0:0:
256,192,5626,1,0,0:0:0:0:
256,192,5707,1,8,0:0:0:0:
256,192,5868,1,8,0:0:0:0:
256,192,5949,1,8,0:0:0:0:
256,192,6030,1,0,0:0:0:0:
256,192,6190,1,8,0:0:0:0:
256,192,6674,1,8,0:0:0:0:
256,192,6836,1,0,0:0:0:0:
256,192,6917,1,0,0:0:0:0:
256,192,6997,1,8,0:0:0:0:
256,192,7159,1,8,0:0:0:0:
256,192,7320,1,0,0:0:0:0:
256,192,7643,1,0,0:0:0:0:
256,192,7804,1,0,0:0:0:0:
256,192,7965,1,8,0:0:0:0:
256,192,8126,1,0,0:0:0:0:
256,192,8206,1,0,0:0:0:0:
256,192,8288,1,0,0:0:0:0:
256,192,8368,1,0,0:0:0:0:
256,192,8448,1,8,0:0:0:0:
256,192,8772,1,12,0:0:0:0:
256,192,9093,1,0,0:0:0:0:
256,192,9416,1,8,0:0:0:0:
256,192,9497,1,8,0:0:0:0:
256,192,9577,1,0,0:0:0:0:
256,192,9739,1,8,0:0:0:0:
256,192,9901,1,0,0:0:0:0:
256,192,10223,1,0,0:0:0:0:
256,192,10303,1,0,0:0:0:0:
256,192,10384,1,0,0:0:0:0:
256,192,10546,1,8,0:0:0:0:
256,192,10868,1,0,0:0:0:0:
256,192,11030,1,8,0:0:0:0:
256,192,11110,1,0,0:0:0:0:
256,192,11191,1,0,0:0:0:0:
256,192,11272,1,0,0:0:0:0:
256,192,11352,1,12,0:0:0:0:
256,192,11594,1,8,0:0:0:0:
256,192,11835,1,0,0:0:0:0:
256,192,11997,1,8,0:0:0:0:
256,192,12105,1,0,0:0:0:0:
256,192,12212,1,0,0:0:0:0:
256,192,12320,1,8,0:0:0:0:
256,192,12428,1,8,0:0:0:0:
256,192,12535,1,0,0:0:0:0:
256,192,12643,1,8,0:0:0:0:
256,192,12803,1,0,0:0:0:0:
256,192,12884,1,0,0:0:0:0:
256,192,12964,1,8,0:0:0:0:
256,192,13126,1,0,0:0:0:0:
256,192,13287,12,0,13770,0:0:0:0:
256,192,13932,5,8,0:0:0:0:
256,192,14013,1,8,0:0:0:0:
256,192,14093,1,8,0:0:0:0:
256,192,14254,1,8,0:0:0:0:
256,192,14496,1,8,0:0:0:0:
256,192,14739,1,8,0:0:0:0:
256,192,14819,1,8,0:0:0:0:
256,192,14900,1,0,0:0:0:0:
256,192,14980,1,8,0:0:0:0:
256,192,15061,1,0,0:0:0:0:
256,192,15142,1,0,0:0:0:0:
256,192,15222,1,8,0:0:0:0:
256,192,15545,1,0,0:0:0:0:
256,192,15706,1,0,0:0:0:0:
256,192,15787,1,0,0:0:0:0:
256,192,15867,1,8,0:0:0:0:
256,192,16029,1,0,0:0:0:0:
256,192,16190,1,8,0:0:0:0:
256,192,16513,1,8,0:0:0:0:
256,192,16835,1,0,0:0:0:0:
256,192,17050,1,8,0:0:0:0:
256,192,17319,1,8,0:0:0:0:
256,192,17480,1,0,0:0:0:0:
256,192,17803,1,0,0:0:0:0:
256,192,17883,1,8,0:0:0:0:
256,192,17964,1,0,0:0:0:0:
256,192,18045,1,0,0:0:0:0:
256,192,18125,1,8,0:0:0:0:
256,192,18206,1,0,0:0:0:0:
256,192,18287,1,8,0:0:0:0:
256,192,18368,1,8,0:0:0:0:
256,192,18448,1,0,0:0:0:0:
256,192,18529,1,8,0:0:0:0:
256,192,18609,1,0,0:0:0:0:
256,192,18690,1,0,0:0:0:0:
256,192,18771,1,8,0:0:0:0:
256,192,18851,1,0,0:0:0:0:
256,192,18932,1,8,0:0:0:0:
256,192,19013,1,8,0:0:0:0:
256,192,19093,1,4,0:0:0:0:
256,192,19416,1,4,0:0:0:0:
256,192,19738,1,4,0:0:0:0:
256,192,19900,1,8,0:0:0:0:
256,192,19980,1,8,0:0:0:0:
256,192,20061,1,0,0:0:0:0:
256,192,20142,1,8,0:0:0:0:
256,192,20222,1,0,0:0:0:0:
256,192,20303,1,0,0:0:0:0:
256,192,20384,1,8,0:0:0:0:
256,192,20545,1,0,0:0:0:0:
256,192,20706,1,8,0:0:0:0:
256,192,20787,1,0,0:0:0:0:
256,192,20867,1,0,0:0:0:0:
256,192,21029,1,8,0:0:0:0:
256,192,21190,1,0,0:0:0:0:
256,192,21351,1,8,0:0:0:0:
256,192,21459,1,0,0:0:0:0:
256,192,21566,1,0,0:0:0:0:
256,192,21674,1,8,0:0:0:0:
256,192,21835,1,0,0:0:0:0:
256,192,21916,1,8,0:0:0:0:
256,192,22077,1,0,0:0:0:0:
256,192,22158,1,8,0:0:0:0:
256,192,22319,1,12,0:0:0:0:
256,192,22480,1,0,0:0:0:0:
256,192,22561,1,8,0:0:0:0:
256,192,22642,1,0,0:0:0:0:
256,192,22722,1,0,0:0:0:0:
256,192,22803,1,8,0:0:0:0:
256,192,22884,1,8,0:0:0:0:
256,192,22964,1,0,0:0:0:0:
256,192,23045,1,8,0:0:0:0:
256,192,23125,1,0,0:0:0:0:
256,192,23287,1,4,0:0:0:0:
256,192,23529,1,4,0:0:0:0:
256,192,23771,1,0,0:0:0:0:
256,192,23851,1,8,0:0:0:0:
256,192,23932,1,0,0:0:0:0:
256,192,24013,1,0,0:0:0:0:
256,192,24093,1,8,0:0:0:0:
256,192,24174,1,0,0:0:0:0:
256,192,24254,1,8,0:0:0:0:
256,192,24497,1,0,0:0:0:0:
256,192,24658,1,8,0:0:0:0:
256,192,24792,1,0,0:0:0:0:
256,192,24828,1,0,0:0:0:0:
256,192,24980,1,8,0:0:0:0:
256,192,25222,1,0,0:0:0:0:
256,192,25303,1,0,0:0:0:0:
256,192,25383,1,8,0:0:0:0:
256,192,25464,1,0,0:0:0:0:
256,192,25545,1,8,0:0:0:0:
256,192,25706,1,0,0:0:0:0:
256,192,25787,1,8,0:0:0:0:
256,192,25948,1,8,0:0:0:0:
256,192,26109,1,0,0:0:0:0:
256,192,26351,1,0,0:0:0:0:
256,192,26513,1,8,0:0:0:0:
256,192,26674,1,8,0:0:0:0:
256,192,26835,1,0,0:0:0:0:
256,192,26996,1,0,0:0:0:0:
256,192,27077,1,8,0:0:0:0:
256,192,27400,1,12,0:0:0:0:
256,192,27642,1,4,0:0:0:0:
256,192,27803,1,0,0:0:0:0:
256,192,27883,1,0,0:0:0:0:
256,192,27964,1,8,0:0:0:0:
256,192,28045,1,0,0:0:0:0:
256,192,28125,1,8,0:0:0:0:
256,192,28206,1,8,0:0:0:0:
256,192,28367,1,0,0:0:0:0:
256,192,28529,1,8,0:0:0:0:
256,192,28690,1,0,0:0:0:0:
256,192,28878,1,8,0:0:0:0:
256,192,28986,1,0,0:0:0:0:
256,192,29093,1,8,0:0:0:0:
256,192,29201,1,0,0:0:0:0:
256,192,29308,1,0,0:0:0:0:
256,192,29416,1,12,0:0:0:0:
256,192,29738,1,12,0:0:0:0:
256,192,30061,1,12,0:0:0:0:
256,192,30222,1,0,0:0:0:0:
256,192,30383,1,0,0:0:0:0:
256,192,30545,1,8,0:0:0:0:
256,192,30706,1,0,0:0:0:0:
256,192,30867,1,0,0:0:0:0:
256,192,30948,1,8,0:0:0:0:
256,192,31109,1,0,0:0:0:0:
256,192,31190,1,8,0:0:0:0:
256,192,31459,1,0,0:0:0:0:
256,192,31566,1,8,0:0:0:0:
256,192,31674,1,8,0:0:0:0:
256,192,31782,1,0,0:0:0:0:
256,192,31889,1,8,0:0:0:0:
256,192,31996,1,0,0:0:0:0:
256,192,32319,1,12,0:0:0:0:
256,192,32480,1,0,0:0:0:0:
256,192,32642,1,0,0:0:0:0:
256,192,32722,1,8,0:0:0:0:
256,192,32883,1,8,0:0:0:0:
256,192,32964,1,0,0:0:0:0:
256,192,33125,1,0,0:0:0:0:
256,192,33287,1,0,0:0:0:0:
256,192,33367,1,0,0:0:0:0:
256,192,33448,1,8,0:0:0:0:
256,192,33529,1,8,0:0:0:0:
256,192,33609,1,0,0:0:0:0:
256,192,33771,1,8,0:0:0:0:
256,192,33932,1,0,0:0:0:0:
256,192,34013,1,0,0:0:0:0:
256,192,34093,1,0,0:0:0:0:
256,192,34254,1,8,0:0:0:0:
256,192,34335,1,8,0:0:0:0:
256,192,34416,1,8,0:0:0:0:
256,192,34497,1,8,0:0:0:0:
256,192,34577,1,0,0:0:0:0:
256,192,34738,1,8,0:0:0:0:
256,192,34819,1,8,0:0:0:0:
256,192,34900,1,0,0:0:0:0:
256,192,35061,1,8,0:0:0:0:
256,192,35222,1,0,0:0:0:0:
256,192,35303,1,0,0:0:0:0:
256,192,35464,1,8,0:0:0:0:
256,192,35545,1,8,0:0:0:0:
256,192,35625,1,0,0:0:0:0:
256,192,35706,1,8,0:0:0:0:
256,192,35868,1,4,0:0:0:0:
256,192,36029,1,4,0:0:0:0:
256,192,36190,1,4,0:0:0:0:
256,192,36351,1,12,0:0:0:0:
256,192,36513,1,0,0:0:0:0:
256,192,36593,1,0,0:0:0:0:
256,192,36674,1,8,0:0:0:0:
256,192,36835,1,8,0:0:0:0:
256,192,36996,1,8,0:0:0:0:
256,192,37158,1,8,0:0:0:0:
256,192,37319,1,0,0:0:0:0:
256,192,37400,1,0,0:0:0:0:
256,192,37480,1,8,0:0:0:0:
256,192,37642,1,0,0:0:0:0:
256,192,37722,1,8,0:0:0:0:
256,192,37883,1,8,0:0:0:0:
256,192,37964,1,0,0:0:0:0:
256,192,38125,1,8,0:0:0:0:
256,192,38287,1,0,0:0:0:0:
256,192,38367,1,0,0:0:0:0:
256,192,38448,1,8,0:0:0:0:
256,192,38529,1,0,0:0:0:0:
256,192,38609,1,8,0:0:0:0:
256,192,38690,1,0,0:0:0:0:
256,192,38771,1,8,0:0:0:0:
256,192,38851,1,8,0:0:0:0:
256,192,38932,1,0,0:0:0:0:
256,192,39013,1,8,0:0:0:0:
256,192,39255,1,0,0:0:0:0:
256,192,39416,1,8,0:0:0:0:
256,192,39577,1,0,0:0:0:0:
256,192,40061,1,8,0:0:0:0:
256,192,40142,1,0,0:0:0:0:
256,192,40303,1,0,0:0:0:0:
256,192,40383,1,8,0:0:0:0:
256,192,40545,1,0,0:0:0:0:
256,192,40706,1,0,0:0:0:0:
256,192,40867,1,8,0:0:0:0:
256,192,41029,1,0,0:0:0:0:
256,192,41109,1,8,0:0:0:0:
256,192,41271,1,8,0:0:0:0:
256,192,41351,1,0,0:0:0:0:
256,192,41513,1,0,0:0:0:0:
256,192,41593,1,8,0:0:0:0:
256,192,41755,1,8,0:0:0:0:
256,192,41835,1,0,0:0:0:0:
256,192,41916,1,0,0:0:0:0:
256,192,41997,1,8,0:0:0:0:
256,192,42158,1,8,0:0:0:0:
256,192,42239,1,0,0:0:0:0:
256,192,42279,1,0,0:0:0:0:
256,192,42319,1,8,0:0:0:0:
256,192,42400,1,0,0:0:0:0:
256,192,42480,1,8,0:0:0:0:
256,192,42561,1,0,0:0:0:0:
256,192,42803,1,8,0:0:0:0:
256,192,43126,1,0,0:0:0:0:
256,192,43287,1,8,0:0:0:0:
256,192,43448,1,0,0:0:0:0:
256,192,43609,1,8,0:0:0:0:
256,192,43690,1,8,0:0:0:0:
256,192,43771,1,8,0:0:0:0:
256,192,43932,1,8,0:0:0:0:
256,192,44093,1,0,0:0:0:0:
256,192,44254,1,0,0:0:0:0:
256,192,44577,1,8,0:0:0:0:
256,192,44900,1,0,0:0:0:0:
256,192,45061,1,0,0:0:0:0:
256,192,45142,1,8,0:0:0:0:
256,192,45303,1,8,0:0:0:0:
256,192,45383,1,0,0:0:0:0:
256,192,45545,1,0,0:0:0:0:
256,192,45625,1,8,0:0:0:0:
256,192,45706,1,0,0:0:0:0:
256,192,45787,1,0,0:0:0:0:
256,192,45867,1,8,0:0:0:0:
256,192,46029,1,0,0:0:0:0:
256,192,46190,1,0,0:0:0:0:
256,192,46351,1,8,0:0:0:0:
256,192,46432,1,8,0:0:0:0:
256,192,46513,1,8,0:0:0:0:
256,192,46674,1,8,0:0:0:0:
256,192,46754,1,8,0:0:0:0:
256,192,46835,1,8,0:0:0:0:
256,192,46996,1,0,0:0:0:0:
256,192,47158,1,0,0:0:0:0:
256,192,47239,1,0,0:0:0:0:
256,192,47319,1,8,0:0:0:0:
256,192,47480,1,4,0:0:0:0:
256,192,47803,1,0,0:0:0:0:
256,192,47964,1,12,0:0:0:0:
256,192,48287,1,0,0:0:0:0:
256,192,48448,1,0,0:0:0:0:
256,192,48529,1,0,0:0:0:0:
256,192,48609,1,0,0:0:0:0:
256,192,48690,1,0,0:0:0:0:
256,192,48771,1,12,0:0:0:0:
256,192,49013,1,12,0:0:0:0:
256,192,49254,1,4,0:0:0:0:
256,192,49577,1,0,0:0:0:0:
256,192,49658,1,0,0:0:0:0:
256,192,49738,1,8,0:0:0:0:
256,192,49819,1,0,0:0:0:0:
256,192,49900,1,8,0:0:0:0:
256,192,50061,1,0,0:0:0:0:
256,192,50142,1,8,0:0:0:0:
256,192,50303,1,8,0:0:0:0:
256,192,50383,1,8,0:0:0:0:
256,192,50545,1,0,0:0:0:0:
256,192,50625,1,8,0:0:0:0:
256,192,50706,1,0,0:0:0:0:
256,192,50787,1,8,0:0:0:0:
256,192,50868,1,0,0:0:0:0:
256,192,50948,1,0,0:0:0:0:
256,192,51029,1,8,0:0:0:0:
256,192,51190,1,8,0:0:0:0:
256,192,51271,1,8,0:0:0:0:
256,192,51351,1,0,0:0:0:0:
256,192,51513,1,8,0:0:0:0:
256,192,51593,1,0,0:0:0:0:
256,192,51754,1,0,0:0:0:0:
256,192,51835,1,8,0:0:0:0:
256,192,51996,1,12,0:0:0:0:
256,192,52319,1,0,0:0:0:0:
256,192,52427,1,8,0:0:0:0:
256,192,52534,1,8,0:0:0:0:
256,192,52642,1,4,0:0:0:0:
256,192,52964,1,8,0:0:0:0:
256,192,53125,1,0,0:0:0:0:
256,192,53206,1,0,0:0:0:0:
256,192,53287,1,8,0:0:0:0:
256,192,53448,1,0,0:0:0:0:
256,192,53609,1,8,0:0:0:0:
256,192,53690,1,8,0:0:0:0:
256,192,53771,1,0,0:0:0:0:
256,192,53851,1,0,0:0:0:0:
256,192,54013,1,0,0:0:0:0:
256,192,54093,1,8,0:0:0:0:
256,192,54254,1,8,0:0:0:0:
256,192,54416,1,8,0:0:0:0:
256,192,54577,1,0,0:0:0:0:
256,192,54900,1,8,0:0:0:0:
256,192,55222,1,0,0:0:0:0:
256,192,55706,1,0,0:0:0:0:
256,192,55867,1,8,0:0:0:0:
256,192,56150,1,8,0:0:0:0:
256,192,56190,1,8,0:0:0:0:
256,192,56513,1,8,0:0:0:0:
256,192,56754,1,0,0:0:0:0:
256,192,56996,1,0,0:0:0:0:
256,192,57158,1,8,0:0:0:0:
256,192,57319,1,0,0:0:0:0:
256,192,57480,1,0,0:0:0:0:
256,192,57642,1,8,0:0:0:0:
256,192,57803,1,0,0:0:0:0:
256,192,58045,1,0,0:0:0:0:
256,192,58287,1,0,0:0:0:0:
256,192,58408,1,8,0:0:0:0:
256,192,58448,1,8,0:0:0:0:
256,192,58609,1,0,0:0:0:0:
256,192,58771,1,0,0:0:0:0:
256,192,58932,1,8,0:0:0:0:
256,192,59093,1,0,0:0:0:0:
256,192,59254,1,8,0:0:0:0:
256,192,59335,1,0,0:0:0:0:
256,192,59496,1,0,0:0:0:0:
256,192,59577,1,8,0:0:0:0:
256,192,59738,1,0,0:0:0:0:
256,192,59900,1,0,0:0:0:0:
256,192,59980,1,0,0:0:0:0:
256,192,60061,1,8,0:0:0:0:
256,192,60142,1,0,0:0:0:0:
256,192,60222,1,8,0:0:0:0:
256,192,60384,1,4,0:0:0:0:
256,192,60706,1,12,0:0:0:0:
256,192,61029,1,12,0:0:0:0:
256,192,61362,1,12,0:0:0:0:
256,192,61695,1,12,0:0:0:0:
256,192,62074,1,12,0:0:0:0:
256,192,62493,1,12,0:0:0:0:
256,192,62753,12,0,64315,0:0:0:0:
256,192,64576,5,8,0:0:0:0:
256,192,65098,1,8,0:0:0:0:
256,192,65228,1,0,0:0:0:0:
256,192,65359,1,8,0:0:0:0:
256,192,65750,1,0,0:0:0:0:
256,192,66142,1,8,0:0:0:0:
256,192,66534,1,0,0:0:0:0:
256,192,66664,1,0,0:0:0:0:
256,192,66795,1,8,0:0:0:0:
256,192,66925,1,0,0:0:0:0:
256,192,67186,1,8,0:0:0:0:
256,192,67970,1,0,0:0:0:0:
256,192,68100,1,0,0:0:0:0:
256,192,68231,1,8,0:0:0:0:
256,192,68361,1,8,0:0:0:0:
256,192,68786,1,0,0:0:0:0:
256,192,68835,1,0,0:0:0:0:
256,192,68884,1,8,0:0:0:0:
256,192,69145,1,0,0:0:0:0:
256,192,69275,1,8,0:0:0:0:
256,192,69536,1,0,0:0:0:0:
256,192,69928,1,8,0:0:0:0:
256,192,70581,1,0,0:0:0:0:
256,192,70711,1,0,0:0:0:0:
256,192,70842,1,8,0:0:0:0:
256,192,71478,1,8,0:0:0:0:
256,192,71527,1,8,0:0:0:0:
256,192,71576,1,8,0:0:0:0:
256,192,71625,1,0,0:0:0:0:
256,192,72262,1,0,0:0:0:0:
256,192,72310,1,0,0:0:0:0:
256,192,72359,1,0,0:0:0:0:
256,192,72408,1,8,0:0:0:0:
256,192,72539,1,8,0:0:0:0:
256,192,72800,1,8,0:0:0:0:
256,192,73061,1,0,0:0:0:0:
256,192,73192,1,8,0:0:0:0:
256,192,73583,1,0,0:0:0:0:
256,192,73975,1,8,0:0:0:0:
256,192,74628,1,0,0:0:0:0:
256,192,74671,1,0,0:0:0:0:
256,192,74715,1,0,0:0:0:0:
256,192,74758,1,8,0:0:0:0:
256,192,75019,1,0,0:0:0:0:
256,192,75280,1,8,0:0:0:0:
256,192,75542,1,0,0:0:0:0:
256,192,75814,1,0,0:0:0:0:
256,192,76086,1,0,0:0:0:0:
256,192,76358,1,8,0:0:0:0:
256,192,76666,1,0,0:0:0:0:
256,192,76975,1,8,0:0:0:0:
256,192,77284,1,0,0:0:0:0:
256,192,77445,1,8,0:0:0:0:
256,192,77525,1,8,0:0:0:0:
256,192,77606,1,0,0:0:0:0:
256,192,77687,1,8,0:0:0:0:
256,192,77767,1,0,0:0:0:0:
256,192,77929,1,8,0:0:0:0:
256,192,78090,1,0,0:0:0:0:
256,192,78171,1,8,0:0:0:0:
256,192,78251,1,0,0:0:0:0:
256,192,78413,1,8,0:0:0:0:
256,192,78493,1,8,0:0:0:0:
256,192,78574,1,0,0:0:0:0:
256,192,78654,1,0,0:0:0:0:
256,192,78735,1,8,0:0:0:0:
256,192,78896,1,8,0:0:0:0:
256,192,78977,1,8,0:0:0:0:
256,192,79058,1,8,0:0:0:0:
256,192,79138,1,0,0:0:0:0:
256,192,79219,1,8,0:0:0:0:
256,192,79380,1,0,0:0:0:0:
256,192,79542,1,8,0:0:0:0:
256,192,79703,1,0,0:0:0:0:
256,192,79864,1,12,0:0:0:0:
256,192,80187,1,0,0:0:0:0:
256,192,80348,1,12,0:0:0:0:
256,192,80671,1,0,0:0:0:0:
256,192,80832,1,8,0:0:0:0:
256,192,80913,1,8,0:0:0:0:
256,192,80993,1,0,0:0:0:0:
256,192,81154,1,12,0:0:0:0:
256,192,81316,1,0,0:0:0:0:
256,192,81396,1,0,0:0:0:0:
256,192,81477,1,0,0:0:0:0:
256,192,81638,1,12,0:0:0:0:
256,192,81961,1,12,0:0:0:0:
256,192,82122,1,4,0:0:0:0:
256,192,82445,1,0,0:0:0:0:
256,192,82525,1,8,0:0:0:0:
256,192,82687,1,8,0:0:0:0:
256,192,82767,1,0,0:0:0:0:
256,192,82929,1,0,0:0:0:0:
256,192,83009,1,8,0:0:0:0:
256,192,83090,1,0,0:0:0:0:
256,192,83171,1,8,0:0:0:0:
256,192,83332,1,0,0:0:0:0:
256,192,83413,1,8,0:0:0:0:
256,192,83574,1,0,0:0:0:0:
256,192,83654,1,0,0:0:0:0:
256,192,83735,1,8,0:0:0:0:
256,192,83896,1,0,0:0:0:0:
256,192,83977,1,8,0:0:0:0:
256,192,84138,1,0,0:0:0:0:
256,192,84219,1,0,0:0:0:0:
256,192,84380,1,8,0:0:0:0:
256,192,84703,1,0,0:0:0:0:
256,192,84864,1,0,0:0:0:0:
256,192,85025,1,8,0:0:0:0:
256,192,85106,1,8,0:0:0:0:
256,192,85187,1,8,0:0:0:0:
256,192,85348,1,0,0:0:0:0:
256,192,85509,1,8,0:0:0:0:
256,192,85590,1,8,0:0:0:0:
256,192,85671,1,0,0:0:0:0:
256,192,85778,1,0,0:0:0:0:
256,192,85886,1,0,0:0:0:0:
256,192,85993,1,8,0:0:0:0:
256,192,86101,1,0,0:0:0:0:
256,192,86208,1,0,0:0:0:0:
256,192,86316,1,8,0:0:0:0:
256,192,86396,1,8,0:0:0:0:
256,192,86477,1,8,0:0:0:0:
256,192,86558,1,8,0:0:0:0:
256,192,86719,1,8,0:0:0:0:
256,192,86880,1,8,0:0:0:0:
256,192,86961,1,8,0:0:0:0:
256,192,87122,1,0,0:0:0:0:
256,192,87283,1,12,0:0:0:0:
256,192,87606,1,0,0:0:0:0:
256,192,87687,1,0,0:0:0:0:
256,192,87767,1,8,0:0:0:0:
256,192,87848,1,8,0:0:0:0:
256,192,87929,1,0,0:0:0:0:
256,192,88009,1,0,0:0:0:0:
256,192,88090,1,0,0:0:0:0:
256,192,88171,1,0,0:0:0:0:
256,192,88251,1,12,0:0:0:0:
256,192,88412,1,0,0:0:0:0:
256,192,88492,1,0,0:0:0:0:
256,192,88654,1,0,0:0:0:0:
256,192,88734,1,8,0:0:0:0:
256,192,88896,1,0,0:0:0:0:
256,192,88976,1,8,0:0:0:0:
256,192,89057,1,0,0:0:0:0:
256,192,89138,1,0,0:0:0:0:
256,192,89218,1,8,0:0:0:0:
256,192,89380,1,0,0:0:0:0:
256,192,89541,1,8,0:0:0:0:
256,192,89702,1,0,0:0:0:0:
256,192,89783,1,0,0:0:0:0:
256,192,89863,1,8,0:0:0:0:
256,192,89944,1,0,0:0:0:0:
256,192,90025,1,0,0:0:0:0:
256,192,90186,1,8,0:0:0:0:
256,192,90347,1,0,0:0:0:0:
256,192,90509,1,8,0:0:0:0:
256,192,90670,1,8,0:0:0:0:
256,192,90831,1,12,0:0:0:0:
256,192,90992,1,4,0:0:0:0:
256,192,91154,1,4,0:0:0:0:
256,192,91315,1,12,0:0:0:0:
256,192,91476,1,4,0:0:0:0:
256,192,91638,1,12,0:0:0:0:
256,192,91799,1,4,0:0:0:0:
256,192,91960,1,4,0:0:0:0:
256,192,92121,1,12,0:0:0:0:
256,192,92283,1,0,0:0:0:0:
256,192,92363,1,8,0:0:0:0:
256,192,92444,1,0,0:0:0:0:
256,192,92525,1,0,0:0:0:0:
256,192,92605,1,8,0:0:0:0:
256,192,92686,1,0,0:0:0:0:
256,192,92767,1,8,0:0:0:0:
256,192,92928,1,0,0:0:0:0:
256,192,93009,1,8,0:0:0:0:
256,192,93170,1,8,0:0:0:0:
256,192,93251,1,0,0:0:0:0:
256,192,93331,1,8,0:0:0:0:
256,192,93412,1,8,0:0:0:0:
256,192,93573,1,0,0:0:0:0:
256,192,93654,1,8,0:0:0:0:
256,192,93815,1,0,0:0:0:0:
256,192,93896,1,8,0:0:0:0:
256,192,94057,1,8,0:0:0:0:
256,192,94164,1,0,0:0:0:0:
256,192,94272,1,0,0:0:0:0:
256,192,94380,1,8,0:0:0:0:
256,192,94487,1,0,0:0:0:0:
256,192,94595,1,0,0:0:0:0:
256,192,94702,1,8,0:0:0:0:
256,192,94810,1,8,0:0:0:0:
256,192,94917,1,8,0:0:0:0:
256,192,95025,1,0,0:0:0:0:
256,192,95132,1,0,0:0:0:0:
256,192,95240,1,0,0:0:0:0:
256,192,95347,1,12,0:0:0:0:
256,192,95562,1,12,0:0:0:0:
256,192,95777,1,4,0:0:0:0:
256,192,95992,1,12,0:0:0:0:
256,192,96154,1,0,0:0:0:0:
256,192,96234,1,0,0:0:0:0:
256,192,96315,1,8,0:0:0:0:
256,192,96476,1,0,0:0:0:0:
256,192,96799,1,0,0:0:0:0:
256,192,96960,1,8,0:0:0:0:
256,192,97121,1,0,0:0:0:0:
256,192,97444,1,0,0:0:0:0:
256,192,97605,1,8,0:0:0:0:
256,192,97686,1,8,0:0:0:0:
256,192,97767,1,8,0:0:0:0:
256,192,97928,1,0,0:0:0:0:
256,192,98250,1,0,0:0:0:0:
256,192,98573,1,8,0:0:0:0:
256,192,98896,1,4,0:0:0:0:
256,192,99057,1,8,0:0:0:0:
256,192,99218,1,0,0:0:0:0:
256,192,99299,1,0,0:0:0:0:
256,192,99380,1,8,0:0:0:0:
256,192,99541,1,12,0:0:0:0:
256,192,99702,1,0,0:0:0:0:
256,192,99783,1,8,0:0:0:0:
256,192,99863,1,0,0:0:0:0:
256,192,100025,1,0,0:0:0:0:
256,192,100186,1,12,0:0:0:0:
256,192,100347,1,0,0:0:0:0:
256,192,100509,1,8,0:0:0:0:
256,192,100589,1,8,0:0:0:0:
256,192,100670,1,8,0:0:0:0:
256,192,100750,1,8,0:0:0:0:
256,192,100831,1,0,0:0:0:0:
256,192,100912,1,0,0:0:0:0:
256,192,100992,1,0,0:0:0:0:
256,192,101073,1,0,0:0:0:0:
256,192,101154,1,8,0:0:0:0:
256,192,101315,1,0,0:0:0:0:
256,192,101476,1,0,0:0:0:0:
256,192,101557,1,0,0:0:0:0:
256,192,101638,1,0,0:0:0:0:
256,192,101806,1,12,0:0:0:0:
256,192,102044,1,12,0:0:0:0:
256,192,102282,1,12,0:0:0:0:
256,192,102475,1,0,0:0:0:0:
256,192,102520,1,8,0:0:0:0:
256,192,103003,1,0,0:0:0:0:
256,192,103084,1,0,0:0:0:0:
256,192,103165,1,8,0:0:0:0:
256,192,103326,1,0,0:0:0:0:
256,192,103487,1,0,0:0:0:0:
256,192,103649,1,8,0:0:0:0:
256,192,103810,1,12,0:0:0:0:
256,192,103971,1,0,0:0:0:0:
256,192,104052,1,0,0:0:0:0:
256,192,104132,1,8,0:0:0:0:
256,192,104294,1,0,0:0:0:0:
256,192,104455,1,8,0:0:0:0:
256,192,104616,1,8,0:0:0:0:
256,192,104697,1,8,0:0:0:0:
256,192,104778,1,0,0:0:0:0:
256,192,104939,1,0,0:0:0:0:
256,192,105100,1,8,0:0:0:0:
256,192,105261,1,0,0:0:0:0:
256,192,105342,1,0,0:0:0:0:
256,192,105423,1,8,0:0:0:0:
256,192,105584,1,8,0:0:0:0:
256,192,105745,1,0,0:0:0:0:
256,192,105826,1,0,0:0:0:0:
256,192,105907,1,0,0:0:0:0:
256,192,105987,1,0,0:0:0:0:
256,192,106068,1,8,0:0:0:0:
256,192,106390,1,8,0:0:0:0:
256,192,106552,1,0,0:0:0:0:
256,192,106632,1,0,0:0:0:0:
256,192,106713,1,0,0:0:0:0:
256,192,106874,1,8,0:0:0:0:
256,192,107036,1,8,0:0:0:0:
256,192,107116,1,8,0:0:0:0:
256,192,107197,1,0,0:0:0:0:
256,192,107278,1,0,0:0:0:0:
256,192,107358,1,8,0:0:0:0:
256,192,107520,1,0,0:0:0:0:
256,192,107681,1,0,0:0:0:0:
256,192,107761,1,8,0:0:0:0:
256,192,107842,1,0,0:0:0:0:
256,192,107923,1,0,0:0:0:0:
256,192,108003,1,8,0:0:0:0:
256,192,108084,1,8,0:0:0:0:
256,192,108165,1,0,0:0:0:0:
256,192,108326,1,8,0:0:0:0:
256,192,108407,1,8,0:0:0:0:
256,192,108487,1,0,0:0:0:0:
256,192,108568,1,0,0:0:0:0:
256,192,108649,1,8,0:0:0:0:
256,192,108729,1,0,0:0:0:0:
256,192,108810,1,8,0:0:0:0:
256,192,108971,1,0,0:0:0:0:
256,192,109132,1,0,0:0:0:0:
256,192,109213,1,0,0:0:0:0:
256,192,109294,1,8,0:0:0:0:
256,192,109455,1,0,0:0:0:0:
256,192,109616,1,8,0:0:0:0:
256,192,109778,1,8,0:0:0:0:
256,192,109858,1,8,0:0:0:0:
256,192,109939,1,8,0:0:0:0:
256,192,110100,1,0,0:0:0:0:
256,192,110261,1,0,0:0:0:0:
256,192,110423,1,0,0:0:0:0:
256,192,110503,1,0,0:0:0:0:
256,192,110584,1,0,0:0:0:0:
256,192,110745,1,8,0:0:0:0:
256,192,110907,1,0,0:0:0:0:
256,192,110987,1,0,0:0:0:0:
256,192,111068,1,8,0:0:0:0:
256,192,111149,1,0,0:0:0:0:
256,192,111229,1,8,0:0:0:0:
256,192,111310,1,8,0:0:0:0:
256,192,111390,1,0,0:0:0:0:
256,192,111471,1,0,0:0:0:0:
256,192,111552,1,8,0:0:0:0:
256,192,111713,1,0,0:0:0:0:
256,192,111874,1,8,0:0:0:0:
256,192,111955,1,8,0:0:0:0:
256,192,112036,1,0,0:0:0:0:
256,192,112116,1,0,0:0:0:0:
256,192,112197,1,8,0:0:0:0:
256,192,112358,1,0,0:0:0:0:
256,192,112439,1,0,0:0:0:0:
256,192,112519,1,0,0:0:0:0:
256,192,112681,1,0,0:0:0:0:
256,192,112842,1,8,0:0:0:0:
256,192,113003,1,0,0:0:0:0:
256,192,113084,1,0,0:0:0:0:
256,192,113165,1,8,0:0:0:0:
256,192,113245,1,0,0:0:0:0:
256,192,113326,1,8,0:0:0:0:
256,192,113407,1,0,0:0:0:0:
256,192,113487,1,8,0:0:0:0:
256,192,113568,1,8,0:0:0:0:
256,192,113649,1,0,0:0:0:0:
256,192,113729,1,8,0:0:0:0:
256,192,113810,1,0,0:0:0:0:
256,192,113890,1,0,0:0:0:0:
256,192,113971,1,8,0:0:0:0:
256,192,114052,1,8,0:0:0:0:
256,192,114132,1,0,0:0:0:0:
256,192,114213,1,8,0:0:0:0:
256,192,114294,1,0,0:0:0:0:
256,192,114374,1,8,0:0:0:0:
256,192,114455,1,0,0:0:0:0:
256,192,114536,1,8,0:0:0:0:
256,192,114616,1,0,0:0:0:0:
256,192,114697,1,8,0:0:0:0:
256,192,114778,1,0,0:0:0:0:
256,192,114858,1,8,0:0:0:0:
256,192,114939,1,0,0:0:0:0:
256,192,115019,1,8,0:0:0:0:
256,192,115100,1,0,0:0:0:0:
256,192,115181,1,8,0:0:0:0:
256,192,115261,1,0,0:0:0:0:
256,192,115342,1,8,0:0:0:0:
256,192,115423,1,0,0:0:0:0:
256,192,115503,1,0,0:0:0:0:
256,192,115584,1,8,0:0:0:0:
256,192,115665,1,8,0:0:0:0:
256,192,115745,1,0,0:0:0:0:
256,192,115826,1,0,0:0:0:0:
256,192,115907,1,8,0:0:0:0:
256,192,115987,1,8,0:0:0:0:
256,192,116068,1,4,0:0:0:0:
256,192,116310,1,4,0:0:0:0:
256,192,116552,1,4,0:0:0:0:
256,192,116874,1,4,0:0:0:0:
256,192,117519,1,4,0:0:0:0:
256,192,118326,1,8,0:0:0:0:
256,192,118487,1,0,0:0:0:0:
256,192,118568,1,8,0:0:0:0:
256,192,118810,12,0,119186,0:0:0:0:
256,192,119294,5,4,0:0:0:0:
256,192,119616,1,0,0:0:0:0:
256,192,119858,1,8,0:0:0:0:
256,192,120100,1,0,0:0:0:0:
256,192,120342,1,8,0:0:0:0:
256,192,120584,1,0,0:0:0:0:
256,192,120745,1,0,0:0:0:0:
256,192,120907,1,8,0:0:0:0:
256,192,120987,1,8,0:0:0:0:
256,192,121149,1,0,0:0:0:0:
256,192,121310,1,8,0:0:0:0:
256,192,121471,1,0,0:0:0:0:
256,192,121632,1,0,0:0:0:0:
256,192,121874,1,12,0:0:0:0:
