osu file format v14

[General]
AudioFilename: audio.mp3
AudioLeadIn: 0
PreviewTime: 44895
Countdown: 0
SampleSet: Normal
StackLeniency: 0.7
Mode: 1
LetterboxInBreaks: 0
WidescreenStoryboard: 1

[Editor]
DistanceSpacing: 0.8
BeatDivisor: 4
GridSize: 32
TimelineZoom: 2.6

[Metadata]
Title:Neko to Mahou no Natsuyasumi
TitleUnicode:ネコと魔法の夏休み
Artist:uynet
ArtistUnicode:uynet
Creator:Briesmas
Version:Futsuu
Source:Muse Dash
Tags:pop electronic instrumental taiko no tatsujin song contest video rhythm game COSMIC RADIO PEROLIST 宇宙电台PEROLIST やいぎ yaigi _yaigi beach summer cat vacation rocket whale shellfish chiptune piano 太鼓の達人楽曲公募2022 2022 ゆいねっと
BeatmapID:3931226
BeatmapSetID:1906431

[Difficulty]
HPDrainRate:7
CircleSize:2
OverallDifficulty:4.5
ApproachRate:0
SliderMultiplier:1.4
SliderTickRate:1

[Events]
//Background and Video events
0,0,"bg.jpg",0,0
//Break Periods
//Storyboard Layer 0 (Background)
//Storyboard Layer 1 (Fail)
//Storyboard Layer 2 (Pass)
//Storyboard Layer 3 (Foreground)
//Storyboard Layer 4 (Overlay)
//Storyboard Sound Samples

[TimingPoints]
385,322.58064516129,4,1,0,50,1,8
1030,322.58064516129,4,1,0,70,1,0
1030,-100,4,1,0,70,0,0
2481,-100,4,1,0,60,0,0
3288,-100,4,1,0,70,0,0
3610,-100,4,1,0,60,0,0
8448,-100,4,1,0,70,0,0
9416,-100,4,1,0,60,0,0
11351,-100,4,1,0,70,0,0
11997,-100,4,1,0,50,0,0
17803,-100,4,1,0,60,0,0
19093,-100,4,1,0,70,0,0
19900,-100,4,1,0,60,0,0
22964,-100,4,1,0,70,0,0
24255,-100,4,1,0,60,0,0
26835,-100,4,1,0,70,0,0
28126,-100,4,1,0,60,0,0
29416,-100,4,1,0,70,0,0
30222,-100,4,1,0,60,0,0
30706,-100,4,1,0,70,0,0
32319,-100,4,1,0,60,0,0
36674,-100,4,1,0,70,0,0
39255,-100,4,1,0,60,0,0
40061,-100,4,1,0,50,0,0
44577,-100,4,1,0,70,0,0
44900,-99.979343110928,4,1,0,70,0,1
51997,-99.979343110928,4,1,0,60,0,0
52319,-100,4,1,0,50,0,0
53609,-100,4,1,0,60,0,0
54013,-100,4,1,0,70,0,1
54900,-100,4,1,0,70,0,0
55222,-100,4,1,0,50,0,0
60706,-101.621641932632,4,1,0,50,0,0
61029,333.333333333333,4,1,0,50,1,8
61029,-99.9432970810284,4,1,0,50,0,0
61362,-101.619847641683,4,1,0,50,0,0
61695,379.746835443038,4,1,0,45,1,0
61695,-90.6959696335937,4,1,0,45,0,0
62074,419.58041958042,4,1,0,40,1,8
62074,-83.6546016147685,4,1,0,40,0,0
62493,520.833333333333,4,1,0,35,1,8
62493,-68.8172043010753,4,1,0,35,0,0
64576,391.644908616188,4,1,0,40,1,0
70842,-100,4,1,0,40,0,0
75542,408.163265306122,4,1,0,50,1,0
75542,-93.0899769322588,4,1,0,50,0,0
75814,-90.0900900900901,4,1,0,53,0,0
76086,-86.9565217391304,4,1,0,56,0,0
76358,463.320463320463,4,1,0,59,1,8
76358,-74.0740740740741,4,1,0,59,0,0
76666,-71.0732054015636,4,1,0,62,0,0
76975,-68.9655172413793,4,1,0,65,0,0
77284,322.58064516129,4,1,0,50,1,0
77284,-100,4,1,0,50,0,0
79864,-100,4,1,0,70,0,0
80187,-100,4,1,0,60,0,0
80348,-100,4,1,0,70,0,0
80671,-100,4,1,0,60,0,0
81154,-100,4,1,0,70,0,0
81396,-100,4,1,0,60,0,0
81638,-100,4,1,0,70,0,0
82445,-100,4,1,0,60,0,0
85025,-100,4,1,0,70,0,0
85509,-100,4,1,0,60,0,0
87283,-100,4,1,0,70,0,0
87606,322.58064516129,4,1,0,50,1,8
88251,322.58064516129,4,1,0,70,1,1
90831,-100,4,1,0,80,0,1
92121,-100,4,1,0,70,0,1
94702,-100,4,1,0,70,0,0
95347,-100,4,1,0,70,0,0
96799,-100,4,1,0,50,0,0
97928,-100,4,1,0,60,0,0
98573,-100,4,1,0,70,0,0
99057,-100,4,1,0,60,0,0
99541,-100,4,1,0,70,0,0
99702,-100,4,1,0,60,0,0
100186,-100,4,1,0,70,0,0
100347,-100,4,1,0,60,0,0
101154,-100,4,1,0,70,0,0
101806,357.142857142857,4,1,0,70,1,8
101806,-90.9090909090909,4,1,0,70,0,0
102520,322.58064516129,4,1,0,60,1,0
102520,-100,4,1,0,60,0,0
103810,-100,4,1,0,70,0,1
116068,-100,4,1,0,70,0,0
116310,-100,4,1,0,68,0,0
116552,-100,4,1,0,67,0,0
116874,-100,4,1,0,64,0,0
117519,-100,4,1,0,60,0,0
119294,-100,4,1,0,70,0,0

[HitObjects]
256,192,385,6,0,L|352:192,3,70
256,192,1030,5,4,0:0:0:0:
256,192,1352,1,12,0:0:0:0:
256,192,1675,1,4,0:0:0:0:
256,192,1917,1,4,0:0:0:0:
256,192,2159,1,12,0:0:0:0:
256,192,2481,1,0,0:0:0:0:
256,192,2643,1,8,0:0:0:0:
256,192,2804,1,8,0:0:0:0:
256,192,2965,1,0,0:0:0:0:
256,192,3288,1,8,0:0:0:0:
256,192,3610,1,4,0:0:0:0:
256,192,4255,1,8,0:0:0:0:
256,192,4416,1,8,0:0:0:0:
256,192,4577,1,0,0:0:0:0:
260,177,4739,1,8,0:0:0:0:
256,192,5061,1,0,0:0:0:0:
256,192,5222,1,8,0:0:0:0:
256,192,5384,1,0,0:0:0:0:
256,192,6190,1,0,0:0:0:0:
256,192,6674,1,8,0:0:0:0:
256,192,6835,1,0,0:0:0:0:
256,192,6997,1,0,0:0:0:0:
256,192,7158,1,8,0:0:0:0:
256,192,7319,1,0,0:0:0:0:
256,192,7642,1,0,0:0:0:0:
256,192,7803,1,0,0:0:0:0:
256,192,7964,1,8,0:0:0:0:
256,192,8448,1,8,0:0:0:0:
256,192,8771,1,12,0:0:0:0:
256,192,9416,1,0,0:0:0:0:
256,192,9577,1,0,0:0:0:0:
256,192,9739,1,8,0:0:0:0:
256,192,9900,1,0,0:0:0:0:
256,192,10222,1,0,0:0:0:0:
256,192,10384,1,0,0:0:0:0:
256,192,10545,1,8,0:0:0:0:
256,192,10868,1,0,0:0:0:0:
256,192,11029,1,0,0:0:0:0:
256,192,11190,1,0,0:0:0:0:
256,192,11351,1,12,0:0:0:0:
256,192,11593,1,12,0:0:0:0:
256,192,11997,1,8,0:0:0:0:
256,192,12212,1,0,0:0:0:0:
256,192,12427,1,0,0:0:0:0:
256,192,12642,1,8,0:0:0:0:
256,192,13287,12,0,13932,0:0:0:0:
256,192,15222,5,8,0:0:0:0:
256,192,15868,1,8,0:0:0:0:
256,192,16029,1,0,0:0:0:0:
256,192,16190,1,8,0:0:0:0:
256,192,16513,1,8,0:0:0:0:
256,192,16835,1,0,0:0:0:0:
256,192,17050,1,8,0:0:0:0:
256,192,17319,1,8,0:0:0:0:
256,192,17480,1,0,0:0:0:0:
256,192,17803,2,0,L|352:192,7,70
256,192,19093,1,4,0:0:0:0:
256,192,19416,1,4,0:0:0:0:
256,192,19739,1,4,0:0:0:0:
256,192,19900,1,8,0:0:0:0:
256,192,20061,1,8,0:0:0:0:
256,192,20222,1,0,0:0:0:0:
256,192,20384,1,8,0:0:0:0:
256,192,20706,1,0,0:0:0:0:
256,192,21029,1,8,0:0:0:0:
256,192,21674,1,0,0:0:0:0:
256,192,21916,1,0,0:0:0:0:
256,192,22158,1,0,0:0:0:0:
256,192,22319,1,12,0:0:0:0:
256,192,22964,1,4,0:0:0:0:
256,192,23287,1,4,0:0:0:0:
256,192,23529,1,4,0:0:0:0:
256,192,24255,1,8,0:0:0:0:
256,192,24497,1,0,0:0:0:0:
256,192,24658,1,0,0:0:0:0:
256,192,24819,1,8,0:0:0:0:
256,192,24980,1,0,0:0:0:0:
256,192,25222,1,0,0:0:0:0:
256,192,25545,1,8,0:0:0:0:
256,192,25787,1,0,0:0:0:0:
256,192,25948,1,0,0:0:0:0:
256,192,26109,1,8,0:0:0:0:
256,192,26351,1,0,0:0:0:0:
256,192,26513,1,8,0:0:0:0:
256,192,26674,1,8,0:0:0:0:
256,192,26835,1,4,0:0:0:0:
256,192,27077,1,12,0:0:0:0:
256,192,27400,1,12,0:0:0:0:
256,192,27642,1,4,0:0:0:0:
256,192,28126,1,8,0:0:0:0:
256,192,28368,1,0,0:0:0:0:
256,192,28529,1,8,0:0:0:0:
256,192,28690,1,0,0:0:0:0:
256,192,29416,1,12,0:0:0:0:
256,192,29739,1,12,0:0:0:0:
256,192,30061,1,12,0:0:0:0:
256,192,30222,1,0,0:0:0:0:
256,192,30384,1,0,0:0:0:0:
256,192,30545,1,8,0:0:0:0:
256,192,30706,1,4,0:0:0:0:
256,192,30948,1,4,0:0:0:0:
256,192,31190,1,12,0:0:0:0:
256,192,32319,1,8,0:0:0:0:
256,192,32642,1,0,0:0:0:0:
256,192,32964,1,8,0:0:0:0:
256,192,33287,1,8,0:0:0:0:
256,192,33529,1,0,0:0:0:0:
256,192,33771,1,8,0:0:0:0:
256,192,34739,1,0,0:0:0:0:
256,192,35061,1,0,0:0:0:0:
256,192,35222,1,8,0:0:0:0:
256,192,35464,1,0,0:0:0:0:
256,192,35706,1,8,0:0:0:0:
256,192,35868,1,0,0:0:0:0:
256,192,36029,1,0,0:0:0:0:
256,192,36190,1,0,0:0:0:0:
256,192,36351,1,8,0:0:0:0:
256,192,36674,1,0,0:0:0:0:
256,192,36835,1,8,0:0:0:0:
256,192,36997,1,8,0:0:0:0:
256,192,37158,1,8,0:0:0:0:
256,192,37480,1,8,0:0:0:0:
256,192,37722,1,8,0:0:0:0:
256,192,37964,1,0,0:0:0:0:
256,192,38126,1,8,0:0:0:0:
256,192,38448,1,4,0:0:0:0:
256,192,38771,1,4,0:0:0:0:
256,192,39013,1,12,0:0:0:0:
256,192,39255,1,0,0:0:0:0:
256,192,39416,1,8,0:0:0:0:
256,192,39577,1,0,0:0:0:0:
256,192,40061,1,0,0:0:0:0:
256,192,40303,1,8,0:0:0:0:
256,192,40545,1,0,0:0:0:0:
256,192,40706,1,0,0:0:0:0:
256,192,40868,1,8,0:0:0:0:
256,192,41029,1,0,0:0:0:0:
256,192,41271,1,8,0:0:0:0:
256,192,41513,1,0,0:0:0:0:
256,192,41755,1,8,0:0:0:0:
256,192,41997,1,8,0:0:0:0:
256,192,42158,1,0,0:0:0:0:
256,192,43287,1,0,0:0:0:0:
256,192,43448,1,8,0:0:0:0:
256,192,44577,1,8,0:0:0:0:
256,192,44900,1,0,0:0:0:0:
256,192,45142,1,0,0:0:0:0:
256,192,45384,1,8,0:0:0:0:
256,192,45626,1,0,0:0:0:0:
256,192,45868,1,8,0:0:0:0:
256,192,46029,1,0,0:0:0:0:
256,192,46190,1,0,0:0:0:0:
256,192,46513,1,0,0:0:0:0:
256,192,46835,1,8,0:0:0:0:
256,192,46997,1,0,0:0:0:0:
256,192,47158,1,0,0:0:0:0:
256,192,47319,1,8,0:0:0:0:
256,192,47480,1,4,0:0:0:0:
256,192,47803,1,0,0:0:0:0:
256,192,47964,1,12,0:0:0:0:
256,192,48287,1,0,0:0:0:0:
256,192,48448,1,0,0:0:0:0:
256,192,48609,1,0,0:0:0:0:
256,192,48771,1,12,0:0:0:0:
256,192,49013,1,12,0:0:0:0:
256,192,49255,1,4,0:0:0:0:
256,192,49577,1,0,0:0:0:0:
256,192,49739,1,0,0:0:0:0:
256,192,49900,1,8,0:0:0:0:
256,192,50061,1,0,0:0:0:0:
256,192,50303,1,8,0:0:0:0:
256,192,50545,1,0,0:0:0:0:
256,192,50787,1,8,0:0:0:0:
256,192,51029,1,0,0:0:0:0:
256,192,51190,1,8,0:0:0:0:
256,192,51351,1,4,0:0:0:0:
256,192,51593,1,4,0:0:0:0:
256,192,51835,1,12,0:0:0:0:
256,192,51997,1,12,0:0:0:0:
256,192,52319,1,0,0:0:0:0:
256,192,52534,1,0,0:0:0:0:
256,192,52642,1,0,0:0:0:0:
256,192,53287,1,8,0:0:0:0:
256,192,53609,1,8,0:0:0:0:
256,192,53771,1,0,0:0:0:0:
256,192,54013,1,8,0:0:0:0:
256,192,54255,1,8,0:0:0:0:
256,192,54416,1,8,0:0:0:0:
256,192,54577,1,0,0:0:0:0:
256,192,54900,1,8,0:0:0:0:
256,192,55222,1,0,0:0:0:0:
256,192,55706,1,0,0:0:0:0:
256,192,55868,1,8,0:0:0:0:
256,192,56190,1,8,0:0:0:0:
256,192,56513,1,8,0:0:0:0:
256,192,56755,1,0,0:0:0:0:
256,192,56997,1,0,0:0:0:0:
256,192,57158,1,8,0:0:0:0:
256,192,57480,1,0,0:0:0:0:
256,192,57642,1,8,0:0:0:0:
256,192,57803,1,0,0:0:0:0:
256,192,58045,1,0,0:0:0:0:
256,192,58287,1,0,0:0:0:0:
256,192,58448,1,8,0:0:0:0:
256,192,58771,1,0,0:0:0:0:
256,192,58932,1,8,0:0:0:0:
256,192,59093,1,0,0:0:0:0:
256,192,59335,1,8,0:0:0:0:
256,192,59577,1,8,0:0:0:0:
256,192,59739,1,0,0:0:0:0:
256,192,60061,1,0,0:0:0:0:
256,192,60222,1,8,0:0:0:0:
256,192,60384,1,4,0:0:0:0:
256,192,60706,1,12,0:0:0:0:
256,192,61029,1,12,0:0:0:0:
256,192,61362,1,12,0:0:0:0:
256,192,61695,1,12,0:0:0:0:
256,192,62074,1,12,0:0:0:0:
256,192,62493,1,12,0:0:0:0:
256,192,62753,12,0,64315,0:0:0:0:
256,192,64576,5,8,0:0:0:0:
256,192,65098,1,8,0:0:0:0:
256,192,65359,1,0,0:0:0:0:
256,192,65750,1,0,0:0:0:0:
256,192,66142,1,8,0:0:0:0:
256,192,66534,1,0,0:0:0:0:
256,192,66795,1,0,0:0:0:0:
256,192,66925,1,0,0:0:0:0:
256,192,67186,1,8,0:0:0:0:
256,192,67970,1,0,0:0:0:0:
256,192,68231,1,8,0:0:0:0:
256,192,68361,1,8,0:0:0:0:
256,192,68753,1,0,0:0:0:0:
256,192,68884,1,0,0:0:0:0:
256,192,69145,1,8,0:0:0:0:
256,192,69275,1,8,0:0:0:0:
256,192,69536,1,0,0:0:0:0:
256,192,69928,1,8,0:0:0:0:
256,192,70842,1,0,0:0:0:0:
256,192,71625,1,8,0:0:0:0:
256,192,72408,1,0,0:0:0:0:
256,192,72539,1,0,0:0:0:0:
256,192,72800,1,8,0:0:0:0:
256,192,73061,1,8,0:0:0:0:
256,192,73192,1,8,0:0:0:0:
256,192,73583,1,0,0:0:0:0:
256,192,73975,1,8,0:0:0:0:
256,192,74758,1,8,0:0:0:0:
256,192,75019,1,0,0:0:0:0:
256,192,75280,1,8,0:0:0:0:
256,192,75542,1,0,0:0:0:0:
256,192,75814,1,0,0:0:0:0:
256,192,76086,1,0,0:0:0:0:
256,192,76358,1,8,0:0:0:0:
256,192,76666,1,0,0:0:0:0:
256,192,76975,1,8,0:0:0:0:
256,192,77284,1,0,0:0:0:0:
256,192,77525,1,8,0:0:0:0:
256,192,77767,1,0,0:0:0:0:
256,192,77929,1,8,0:0:0:0:
256,192,78171,1,0,0:0:0:0:
256,192,78413,1,0,0:0:0:0:
256,192,78574,1,8,0:0:0:0:
256,192,79219,1,8,0:0:0:0:
256,192,79380,1,0,0:0:0:0:
256,192,79542,1,8,0:0:0:0:
256,192,79703,1,0,0:0:0:0:
256,192,79864,1,12,0:0:0:0:
256,192,80187,1,0,0:0:0:0:
256,192,80348,1,12,0:0:0:0:
256,192,80671,1,0,0:0:0:0:
256,192,80832,1,8,0:0:0:0:
256,192,81154,1,12,0:0:0:0:
256,192,81396,1,0,0:0:0:0:
256,192,81638,1,12,0:0:0:0:
256,192,81961,1,12,0:0:0:0:
256,192,82122,1,4,0:0:0:0:
256,192,82445,1,8,0:0:0:0:
256,192,82687,1,0,0:0:0:0:
256,192,82929,1,8,0:0:0:0:
256,192,83171,1,8,0:0:0:0:
256,192,83413,1,0,0:0:0:0:
256,192,83574,1,0,0:0:0:0:
256,192,83735,1,8,0:0:0:0:
256,192,83977,1,0,0:0:0:0:
256,192,84219,1,0,0:0:0:0:
256,192,84380,1,8,0:0:0:0:
256,192,84703,1,0,0:0:0:0:
256,192,84864,1,0,0:0:0:0:
256,192,85025,1,12,0:0:0:0:
256,192,85509,1,0,0:0:0:0:
256,192,85671,1,8,0:0:0:0:
256,192,85993,1,0,0:0:0:0:
256,192,86316,1,0,0:0:0:0:
256,192,86558,1,0,0:0:0:0:
256,192,86719,1,0,0:0:0:0:
256,192,86880,1,0,0:0:0:0:
256,192,87283,1,12,0:0:0:0:
256,192,88251,1,8,0:0:0:0:
256,192,88492,1,8,0:0:0:0:
256,192,88734,1,8,0:0:0:0:
256,192,88976,1,0,0:0:0:0:
256,192,89218,1,8,0:0:0:0:
256,192,89380,1,0,0:0:0:0:
256,192,89541,1,8,0:0:0:0:
256,192,89863,1,0,0:0:0:0:
256,192,90025,1,0,0:0:0:0:
256,192,90186,1,8,0:0:0:0:
256,192,90347,1,0,0:0:0:0:
256,192,90509,1,8,0:0:0:0:
256,192,90831,1,12,0:0:0:0:
256,192,90992,1,4,0:0:0:0:
256,192,91154,1,4,0:0:0:0:
256,192,91476,1,4,0:0:0:0:
256,192,91638,1,12,0:0:0:0:
256,192,91799,1,4,0:0:0:0:
256,192,91960,1,4,0:0:0:0:
256,192,92121,1,12,0:0:0:0:
256,192,92605,1,0,0:0:0:0:
256,192,92767,1,8,0:0:0:0:
256,192,93009,1,0,0:0:0:0:
256,192,93251,1,8,0:0:0:0:
256,192,93412,1,0,0:0:0:0:
256,192,93654,1,8,0:0:0:0:
256,192,93896,1,0,0:0:0:0:
256,192,94057,1,8,0:0:0:0:
256,192,94380,1,8,0:0:0:0:
256,192,94702,1,8,0:0:0:0:
256,192,95347,1,4,0:0:0:0:
256,192,95562,1,4,0:0:0:0:
256,192,95777,1,12,0:0:0:0:
256,192,95992,1,4,0:0:0:0:
256,192,96799,1,0,0:0:0:0:
256,192,96960,1,8,0:0:0:0:
256,192,97121,1,0,0:0:0:0:
256,192,97928,1,0,0:0:0:0:
256,192,98250,1,0,0:0:0:0:
256,192,98573,1,8,0:0:0:0:
256,192,98896,1,4,0:0:0:0:
256,192,99057,1,8,0:0:0:0:
256,192,99218,1,0,0:0:0:0:
256,192,99541,1,12,0:0:0:0:
256,192,99702,1,0,0:0:0:0:
256,192,99863,1,0,0:0:0:0:
256,192,100186,1,12,0:0:0:0:
256,192,100347,1,0,0:0:0:0:
256,192,100509,1,8,0:0:0:0:
256,192,100670,1,0,0:0:0:0:
256,192,100831,1,8,0:0:0:0:
256,192,100992,1,0,0:0:0:0:
256,192,101154,1,12,0:0:0:0:
256,192,101806,1,12,0:0:0:0:
256,192,102044,1,12,0:0:0:0:
256,192,102282,1,12,0:0:0:0:
256,192,102520,1,0,0:0:0:0:
256,192,103003,1,0,0:0:0:0:
256,192,103165,1,8,0:0:0:0:
256,192,103326,1,0,0:0:0:0:
256,192,103487,1,0,0:0:0:0:
256,192,103649,1,8,0:0:0:0:
256,192,103810,1,4,0:0:0:0:
256,192,104132,1,12,0:0:0:0:
256,192,104455,1,0,0:0:0:0:
256,192,104616,1,0,0:0:0:0:
256,192,104778,1,8,0:0:0:0:
256,192,104939,1,0,0:0:0:0:
256,192,105261,1,0,0:0:0:0:
256,192,105423,1,0,0:0:0:0:
256,192,105584,1,8,0:0:0:0:
256,192,106390,1,8,0:0:0:0:
256,192,106874,1,0,0:0:0:0:
256,192,107036,1,8,0:0:0:0:
256,192,107197,1,0,0:0:0:0:
256,192,107358,1,0,0:0:0:0:
256,192,107520,1,8,0:0:0:0:
256,192,107842,1,0,0:0:0:0:
256,192,108003,1,8,0:0:0:0:
256,192,108326,1,8,0:0:0:0:
256,192,108487,1,0,0:0:0:0:
256,192,108649,1,8,0:0:0:0:
256,192,108810,1,0,0:0:0:0:
256,192,108971,1,8,0:0:0:0:
256,192,109616,1,8,0:0:0:0:
256,192,109778,1,8,0:0:0:0:
256,192,109939,1,0,0:0:0:0:
256,192,110261,1,0,0:0:0:0:
256,192,110423,1,0,0:0:0:0:
256,192,110584,1,8,0:0:0:0:
256,192,110907,1,0,0:0:0:0:
256,192,111068,1,0,0:0:0:0:
256,192,111229,1,8,0:0:0:0:
256,192,111390,1,0,0:0:0:0:
256,192,111552,1,8,0:0:0:0:
256,192,111874,1,8,0:0:0:0:
256,192,112036,1,0,0:0:0:0:
256,192,112197,1,8,0:0:0:0:
256,192,112519,1,0,0:0:0:0:
256,192,112681,1,0,0:0:0:0:
256,192,112842,1,8,0:0:0:0:
256,192,113165,1,8,0:0:0:0:
256,192,113326,1,0,0:0:0:0:
256,192,113487,1,0,0:0:0:0:
256,192,113649,1,0,0:0:0:0:
256,192,113810,1,8,0:0:0:0:
256,192,114132,2,0,L|352:192,11,70
256,192,116068,1,4,0:0:0:0:
256,192,116310,1,4,0:0:0:0:
256,192,116552,1,4,0:0:0:0:
256,192,116874,1,4,0:0:0:0:
256,192,117519,1,4,0:0:0:0:
256,192,118326,1,8,0:0:0:0:
256,192,118568,1,8,0:0:0:0:
256,192,118810,12,0,119132,0:0:0:0:
256,192,119294,5,4,0:0:0:0:
256,192,119616,1,0,0:0:0:0:
256,192,119858,1,8,0:0:0:0:
256,192,120100,1,0,0:0:0:0:
256,192,120342,1,8,0:0:0:0:
256,192,120584,1,0,0:0:0:0:
256,192,120745,1,0,0:0:0:0:
256,192,120907,1,8,0:0:0:0:
256,192,121149,1,0,0:0:0:0:
256,192,121310,1,8,0:0:0:0:
256,192,121471,1,0,0:0:0:0:
256,192,121632,1,0,0:0:0:0:
256,192,121874,1,12,0:0:0:0:
