osu file format v14

[General]
AudioFilename: audio.ogg
AudioLeadIn: 0
PreviewTime: 71426
Countdown: 0
SampleSet: Normal
StackLeniency: 0.7
Mode: 3
LetterboxInBreaks: 0
SpecialStyle: 0
WidescreenStoryboard: 1

[Editor]
DistanceSpacing: 1
BeatDivisor: 4
GridSize: 4
TimelineZoom: 2.7

[Metadata]
Title:Mach space journey
TitleUnicode:音速宇宙旅行
Artist:uynet
ArtistUnicode:uynet
Creator:wIntEr7z
Version:Another
Source:
Tags:electronic instrumental ゆいねっと chiptune stella mach space journey 8bit 8-bit adsuger あどしゅがー A_D_suger77 Onsoku Uchuu Ryokou
BeatmapID:4191779
BeatmapSetID:2013835

[Difficulty]
HPDrainRate:8.5
CircleSize:4
OverallDifficulty:8
ApproachRate:5
SliderMultiplier:1.4
SliderTickRate:1

[Events]
//Background and Video events
0,0,"uynet - Onsoku Uchuu Ryokou.jpg",0,0
//Break Periods
//Storyboard Layer 0 (Background)
//Storyboard Layer 1 (Fail)
//Storyboard Layer 2 (Pass)
//Storyboard Layer 3 (Foreground)
//Storyboard Layer 4 (Overlay)
//Storyboard Sound Samples

[TimingPoints]
664,269.058295964126,4,1,1,70,1,0
88915,-100,4,1,1,70,0,1
106134,-100,4,1,1,70,0,0

[HitObjects]
64,192,664,5,0,0:0:0:0:
448,192,664,1,0,0:0:0:0:
320,192,664,128,0,1000:0:0:0:0:
320,192,1067,1,0,0:0:0:0:
192,192,1134,1,0,0:0:0:0:
320,192,1202,128,0,1336:0:0:0:0:
320,192,1403,128,0,1538:0:0:0:0:
320,192,1605,128,0,1807:0:0:0:0:
64,192,1874,128,0,2009:0:0:0:0:
448,192,2009,128,0,2143:0:0:0:0:
64,192,2143,128,0,2278:0:0:0:0:
192,192,2278,128,0,2412:0:0:0:0:
64,192,2412,128,0,2547:0:0:0:0:
448,192,2547,1,0,0:0:0:0:
448,192,2681,128,0,3152:0:0:0:0:
448,192,3220,1,0,0:0:0:0:
192,192,3287,1,0,0:0:0:0:
448,192,3354,128,0,3556:0:0:0:0:
320,192,3556,128,0,3758:0:0:0:0:
192,192,3758,128,0,3892:0:0:0:0:
64,192,3892,128,0,4027:0:0:0:0:
448,192,4027,128,0,4161:0:0:0:0:
320,192,4161,128,0,4296:0:0:0:0:
192,192,4296,128,0,4430:0:0:0:0:
64,192,4430,128,0,4699:0:0:0:0:
192,192,4699,128,0,4968:0:0:0:0:
320,192,4968,128,0,5103:0:0:0:0:
64,192,5036,128,0,5170:0:0:0:0:
192,192,5103,128,0,5372:0:0:0:0:
64,192,5372,128,0,5641:0:0:0:0:
192,192,5641,128,0,5776:0:0:0:0:
448,192,5776,128,0,6179:0:0:0:0:
64,192,6179,1,0,0:0:0:0:
192,192,6213,1,0,0:0:0:0:
320,192,6314,1,0,0:0:0:0:
448,192,6347,1,0,0:0:0:0:
64,192,6448,1,0,0:0:0:0:
192,192,6482,1,0,0:0:0:0:
448,192,6583,1,0,0:0:0:0:
320,192,6616,1,0,0:0:0:0:
192,192,6650,1,0,0:0:0:0:
64,192,6684,1,0,0:0:0:0:
448,192,6717,128,0,6852:0:0:0:0:
64,192,6852,1,0,0:0:0:0:
320,192,6919,1,0,0:0:0:0:
192,192,6986,128,0,7121:0:0:0:0:
320,192,7121,128,0,7323:0:0:0:0:
64,192,7323,128,0,7524:0:0:0:0:
192,192,7457,128,0,7592:0:0:0:0:
320,192,7524,128,0,7659:0:0:0:0:
448,192,7592,128,0,7726:0:0:0:0:
64,192,7659,128,0,7794:0:0:0:0:
192,192,7726,128,0,7861:0:0:0:0:
320,192,7794,128,0,7861:0:0:0:0:
448,192,7861,1,0,0:0:0:0:
64,192,7928,128,0,8063:0:0:0:0:
320,192,8063,128,0,8197:0:0:0:0:
64,192,8197,1,0,0:0:0:0:
448,192,8197,1,0,0:0:0:0:
192,192,8332,128,0,8466:0:0:0:0:
448,192,8466,128,0,8601:0:0:0:0:
64,192,8466,1,0,0:0:0:0:
320,192,8601,128,0,8735:0:0:0:0:
192,192,8668,1,0,0:0:0:0:
448,192,8735,1,0,0:0:0:0:
64,192,8735,1,0,0:0:0:0:
320,192,8803,1,0,0:0:0:0:
64,192,8870,1,0,0:0:0:0:
192,192,8937,1,0,0:0:0:0:
320,192,9004,1,0,0:0:0:0:
192,192,9139,1,0,0:0:0:0:
64,192,9273,5,0,0:0:0:0:
448,192,9273,1,0,0:0:0:0:
320,192,9273,1,0,0:0:0:0:
192,192,9408,1,0,0:0:0:0:
320,192,9542,1,0,0:0:0:0:
448,192,9542,1,0,0:0:0:0:
64,192,9677,1,0,0:0:0:0:
192,192,9744,1,0,0:0:0:0:
320,192,9811,1,0,0:0:0:0:
448,192,9811,1,0,0:0:0:0:
448,192,9946,1,0,0:0:0:0:
192,192,10013,1,0,0:0:0:0:
320,192,10081,1,0,0:0:0:0:
448,192,10081,1,0,0:0:0:0:
192,192,10215,1,0,0:0:0:0:
320,192,10350,1,0,0:0:0:0:
448,192,10350,1,0,0:0:0:0:
64,192,10484,1,0,0:0:0:0:
192,192,10619,1,0,0:0:0:0:
448,192,10619,1,0,0:0:0:0:
64,192,10753,1,0,0:0:0:0:
448,192,10888,1,0,0:0:0:0:
320,192,10888,1,0,0:0:0:0:
192,192,11022,1,0,0:0:0:0:
64,192,11157,1,0,0:0:0:0:
448,192,11157,1,0,0:0:0:0:
192,192,11224,1,0,0:0:0:0:
320,192,11291,1,0,0:0:0:0:
64,192,11426,1,0,0:0:0:0:
192,192,11426,1,0,0:0:0:0:
448,192,11426,1,0,0:0:0:0:
320,192,11560,1,0,0:0:0:0:
64,192,11695,1,0,0:0:0:0:
192,192,11695,1,0,0:0:0:0:
448,192,11829,1,0,0:0:0:0:
320,192,11897,1,0,0:0:0:0:
64,192,11964,1,0,0:0:0:0:
192,192,11964,1,0,0:0:0:0:
64,192,12098,1,0,0:0:0:0:
448,192,12166,1,0,0:0:0:0:
64,192,12233,1,0,0:0:0:0:
192,192,12233,1,0,0:0:0:0:
320,192,12368,1,0,0:0:0:0:
448,192,12368,1,0,0:0:0:0:
64,192,12502,1,0,0:0:0:0:
192,192,12502,1,0,0:0:0:0:
320,192,12637,1,0,0:0:0:0:
448,192,12704,1,0,0:0:0:0:
192,192,12771,1,0,0:0:0:0:
64,192,12771,1,0,0:0:0:0:
448,192,12838,1,0,0:0:0:0:
320,192,12906,1,0,0:0:0:0:
64,192,13040,1,0,0:0:0:0:
192,192,13040,1,0,0:0:0:0:
192,192,13175,1,0,0:0:0:0:
448,192,13242,1,0,0:0:0:0:
64,192,13309,1,0,0:0:0:0:
192,192,13309,1,0,0:0:0:0:
320,192,13377,1,0,0:0:0:0:
192,192,13444,1,0,0:0:0:0:
64,192,13511,1,0,0:0:0:0:
320,192,13578,1,0,0:0:0:0:
448,192,13578,1,0,0:0:0:0:
192,192,13646,1,0,0:0:0:0:
320,192,13713,1,0,0:0:0:0:
192,192,13780,1,0,0:0:0:0:
64,192,13847,1,0,0:0:0:0:
448,192,13847,1,0,0:0:0:0:
320,192,13915,1,0,0:0:0:0:
192,192,13982,1,0,0:0:0:0:
64,192,14049,1,0,0:0:0:0:
320,192,14116,1,0,0:0:0:0:
448,192,14116,1,0,0:0:0:0:
192,192,14184,1,0,0:0:0:0:
448,192,14251,1,0,0:0:0:0:
192,192,14318,1,0,0:0:0:0:
64,192,14385,1,0,0:0:0:0:
448,192,14385,1,0,0:0:0:0:
320,192,14453,1,0,0:0:0:0:
64,192,14520,1,0,0:0:0:0:
192,192,14587,1,0,0:0:0:0:
320,192,14655,1,0,0:0:0:0:
448,192,14655,1,0,0:0:0:0:
192,192,14722,1,0,0:0:0:0:
64,192,14789,1,0,0:0:0:0:
448,192,14789,1,0,0:0:0:0:
320,192,14856,1,0,0:0:0:0:
64,192,14924,1,0,0:0:0:0:
192,192,14924,1,0,0:0:0:0:
448,192,14991,1,0,0:0:0:0:
320,192,15058,1,0,0:0:0:0:
192,192,15058,1,0,0:0:0:0:
64,192,15193,1,0,0:0:0:0:
192,192,15226,1,0,0:0:0:0:
448,192,15327,1,0,0:0:0:0:
320,192,15361,1,0,0:0:0:0:
192,192,15462,1,0,0:0:0:0:
64,192,15495,1,0,0:0:0:0:
320,192,15596,1,0,0:0:0:0:
448,192,15630,5,0,0:0:0:0:
192,192,15731,1,0,0:0:0:0:
64,192,15731,1,0,0:0:0:0:
320,192,15798,1,0,0:0:0:0:
192,192,15865,1,0,0:0:0:0:
320,192,15933,1,0,0:0:0:0:
64,192,16000,1,0,0:0:0:0:
448,192,16067,1,0,0:0:0:0:
64,192,16134,1,0,0:0:0:0:
448,192,16202,1,0,0:0:0:0:
320,192,16269,1,0,0:0:0:0:
192,192,16269,1,0,0:0:0:0:
64,192,16336,1,0,0:0:0:0:
320,192,16403,1,0,0:0:0:0:
64,192,16471,1,0,0:0:0:0:
448,192,16538,1,0,0:0:0:0:
320,192,16538,1,0,0:0:0:0:
192,192,16605,1,0,0:0:0:0:
448,192,16672,1,0,0:0:0:0:
192,192,16740,1,0,0:0:0:0:
320,192,16807,5,0,0:0:0:0:
448,192,16807,1,0,0:0:0:0:
192,192,16874,1,0,0:0:0:0:
320,192,16942,1,0,0:0:0:0:
448,192,16942,1,0,0:0:0:0:
192,192,17009,1,0,0:0:0:0:
64,192,17076,1,0,0:0:0:0:
448,192,17076,1,0,0:0:0:0:
320,192,17143,1,0,0:0:0:0:
64,192,17211,1,0,0:0:0:0:
192,192,17211,1,0,0:0:0:0:
320,192,17278,1,0,0:0:0:0:
64,192,17345,1,0,0:0:0:0:
192,192,17345,1,0,0:0:0:0:
448,192,17412,1,0,0:0:0:0:
320,192,17480,1,0,0:0:0:0:
192,192,17480,1,0,0:0:0:0:
64,192,17547,1,0,0:0:0:0:
448,192,17614,1,0,0:0:0:0:
320,192,17614,1,0,0:0:0:0:
192,192,17681,1,0,0:0:0:0:
64,192,17749,1,0,0:0:0:0:
448,192,17749,1,0,0:0:0:0:
320,192,17816,1,0,0:0:0:0:
192,192,17883,1,0,0:0:0:0:
64,192,17883,1,0,0:0:0:0:
320,192,18018,1,0,0:0:0:0:
192,192,18085,1,0,0:0:0:0:
192,192,18287,1,0,0:0:0:0:
320,192,18354,1,0,0:0:0:0:
448,192,18421,1,0,0:0:0:0:
192,192,18556,1,0,0:0:0:0:
320,192,18623,128,0,18825:0:0:0:0:
448,192,18825,128,0,18959:0:0:0:0:
64,192,18959,1,0,0:0:0:0:
320,192,19094,1,0,0:0:0:0:
192,192,19161,1,0,0:0:0:0:
64,192,19296,1,0,0:0:0:0:
192,192,19363,1,0,0:0:0:0:
320,192,19430,1,0,0:0:0:0:
448,192,19498,1,0,0:0:0:0:
320,192,19699,1,0,0:0:0:0:
448,192,19699,1,0,0:0:0:0:
192,192,19901,1,0,0:0:0:0:
64,192,19901,1,0,0:0:0:0:
320,192,20036,1,0,0:0:0:0:
448,192,20036,1,0,0:0:0:0:
192,192,20036,1,0,0:0:0:0:
64,192,20170,1,0,0:0:0:0:
320,192,20237,1,0,0:0:0:0:
64,192,20372,1,0,0:0:0:0:
448,192,20439,1,0,0:0:0:0:
320,192,20507,1,0,0:0:0:0:
192,192,20574,1,0,0:0:0:0:
192,192,20708,1,0,0:0:0:0:
448,192,20776,128,0,20977:0:0:0:0:
64,192,20977,128,0,21112:0:0:0:0:
192,192,21112,1,0,0:0:0:0:
320,192,21112,1,0,0:0:0:0:
448,192,21112,1,0,0:0:0:0:
64,192,21246,1,0,0:0:0:0:
192,192,21246,1,0,0:0:0:0:
64,192,21381,1,0,0:0:0:0:
192,192,21448,1,0,0:0:0:0:
320,192,21516,1,0,0:0:0:0:
192,192,21583,1,0,0:0:0:0:
448,192,21650,1,0,0:0:0:0:
64,192,21650,1,0,0:0:0:0:
320,192,21717,1,0,0:0:0:0:
64,192,21785,1,0,0:0:0:0:
192,192,21785,1,0,0:0:0:0:
448,192,21852,1,0,0:0:0:0:
320,192,21919,1,0,0:0:0:0:
64,192,21919,1,0,0:0:0:0:
192,192,21986,1,0,0:0:0:0:
448,192,22054,1,0,0:0:0:0:
320,192,22054,1,0,0:0:0:0:
192,192,22121,1,0,0:0:0:0:
64,192,22188,1,0,0:0:0:0:
448,192,22188,1,0,0:0:0:0:
320,192,22188,1,0,0:0:0:0:
192,192,22323,1,0,0:0:0:0:
64,192,22390,1,0,0:0:0:0:
320,192,22457,1,0,0:0:0:0:
448,192,22457,1,0,0:0:0:0:
64,192,22524,1,0,0:0:0:0:
448,192,22592,1,0,0:0:0:0:
192,192,22659,1,0,0:0:0:0:
320,192,22726,1,0,0:0:0:0:
448,192,22726,1,0,0:0:0:0:
192,192,22861,1,0,0:0:0:0:
64,192,22928,1,0,0:0:0:0:
320,192,22995,1,0,0:0:0:0:
448,192,22995,1,0,0:0:0:0:
192,192,23130,1,0,0:0:0:0:
320,192,23264,1,0,0:0:0:0:
448,192,23264,1,0,0:0:0:0:
192,192,23332,1,0,0:0:0:0:
64,192,23399,1,0,0:0:0:0:
192,192,23466,1,0,0:0:0:0:
320,192,23533,1,0,0:0:0:0:
448,192,23533,1,0,0:0:0:0:
192,192,23668,1,0,0:0:0:0:
320,192,23735,1,0,0:0:0:0:
448,192,23735,1,0,0:0:0:0:
64,192,23803,1,0,0:0:0:0:
192,192,23803,1,0,0:0:0:0:
192,192,23937,1,0,0:0:0:0:
320,192,23937,1,0,0:0:0:0:
320,192,24072,1,0,0:0:0:0:
448,192,24072,1,0,0:0:0:0:
64,192,24139,1,0,0:0:0:0:
192,192,24206,1,0,0:0:0:0:
320,192,24206,1,0,0:0:0:0:
448,192,24273,1,0,0:0:0:0:
64,192,24341,1,0,0:0:0:0:
192,192,24341,1,0,0:0:0:0:
448,192,24408,1,0,0:0:0:0:
320,192,24475,1,0,0:0:0:0:
64,192,24542,1,0,0:0:0:0:
192,192,24542,1,0,0:0:0:0:
320,192,24610,1,0,0:0:0:0:
192,192,24677,1,0,0:0:0:0:
64,192,24744,1,0,0:0:0:0:
448,192,24744,1,0,0:0:0:0:
320,192,24811,1,0,0:0:0:0:
64,192,24879,1,0,0:0:0:0:
192,192,24879,1,0,0:0:0:0:
320,192,24946,1,0,0:0:0:0:
448,192,25013,1,0,0:0:0:0:
64,192,25081,1,0,0:0:0:0:
192,192,25148,1,0,0:0:0:0:
448,192,25148,1,0,0:0:0:0:
320,192,25215,1,0,0:0:0:0:
64,192,25282,1,0,0:0:0:0:
192,192,25350,1,0,0:0:0:0:
320,192,25417,1,0,0:0:0:0:
448,192,25417,1,0,0:0:0:0:
64,192,25484,1,0,0:0:0:0:
320,192,25551,1,0,0:0:0:0:
64,192,25619,1,0,0:0:0:0:
320,192,25686,1,0,0:0:0:0:
448,192,25686,1,0,0:0:0:0:
192,192,25820,1,0,0:0:0:0:
320,192,25888,1,0,0:0:0:0:
448,192,25955,1,0,0:0:0:0:
64,192,25955,1,0,0:0:0:0:
320,192,26090,1,0,0:0:0:0:
448,192,26157,1,0,0:0:0:0:
64,192,26224,1,0,0:0:0:0:
192,192,26224,1,0,0:0:0:0:
320,192,26359,1,0,0:0:0:0:
448,192,26359,1,0,0:0:0:0:
64,192,26493,1,0,0:0:0:0:
192,192,26493,1,0,0:0:0:0:
448,192,26493,1,0,0:0:0:0:
64,192,26628,1,0,0:0:0:0:
192,192,26695,1,0,0:0:0:0:
320,192,26762,1,0,0:0:0:0:
448,192,26762,1,0,0:0:0:0:
192,192,26829,1,0,0:0:0:0:
64,192,26897,1,0,0:0:0:0:
192,192,26964,1,0,0:0:0:0:
320,192,27031,1,0,0:0:0:0:
448,192,27031,1,0,0:0:0:0:
192,192,27166,1,0,0:0:0:0:
64,192,27233,1,0,0:0:0:0:
320,192,27300,1,0,0:0:0:0:
448,192,27300,1,0,0:0:0:0:
192,192,27435,1,0,0:0:0:0:
320,192,27569,1,0,0:0:0:0:
448,192,27569,1,0,0:0:0:0:
64,192,27704,1,0,0:0:0:0:
192,192,27771,1,0,0:0:0:0:
320,192,27838,1,0,0:0:0:0:
448,192,27838,1,0,0:0:0:0:
192,192,27906,1,0,0:0:0:0:
64,192,27973,1,0,0:0:0:0:
192,192,28040,1,0,0:0:0:0:
320,192,28107,1,0,0:0:0:0:
448,192,28107,1,0,0:0:0:0:
64,192,28287,1,0,0:0:0:0:
448,192,28287,1,0,0:0:0:0:
192,192,28466,1,0,0:0:0:0:
320,192,28466,1,0,0:0:0:0:
64,192,28511,1,0,0:0:0:0:
64,192,28646,1,0,0:0:0:0:
448,192,28646,1,0,0:0:0:0:
192,192,28646,1,0,0:0:0:0:
448,192,28780,1,0,0:0:0:0:
320,192,28847,1,0,0:0:0:0:
64,192,28915,1,0,0:0:0:0:
192,192,28915,1,0,0:0:0:0:
320,192,28982,1,0,0:0:0:0:
448,192,29049,1,0,0:0:0:0:
320,192,29116,1,0,0:0:0:0:
64,192,29184,1,0,0:0:0:0:
192,192,29184,1,0,0:0:0:0:
448,192,29318,1,0,0:0:0:0:
320,192,29385,1,0,0:0:0:0:
64,192,29453,1,0,0:0:0:0:
192,192,29453,1,0,0:0:0:0:
320,192,29587,1,0,0:0:0:0:
64,192,29722,1,0,0:0:0:0:
192,192,29722,1,0,0:0:0:0:
320,192,29856,1,0,0:0:0:0:
448,192,29856,1,0,0:0:0:0:
192,192,29991,1,0,0:0:0:0:
64,192,30058,1,0,0:0:0:0:
320,192,30125,1,0,0:0:0:0:
448,192,30193,1,0,0:0:0:0:
192,192,30260,1,0,0:0:0:0:
64,192,30260,1,0,0:0:0:0:
320,192,30327,1,0,0:0:0:0:
64,192,30394,1,0,0:0:0:0:
448,192,30394,1,0,0:0:0:0:
192,192,30462,1,0,0:0:0:0:
320,192,30529,1,0,0:0:0:0:
448,192,30529,1,0,0:0:0:0:
64,192,30596,1,0,0:0:0:0:
448,192,30664,1,0,0:0:0:0:
192,192,30664,1,0,0:0:0:0:
320,192,30731,1,0,0:0:0:0:
64,192,30798,1,0,0:0:0:0:
192,192,30798,1,0,0:0:0:0:
448,192,30933,1,0,0:0:0:0:
320,192,31000,1,0,0:0:0:0:
64,192,31067,1,0,0:0:0:0:
192,192,31067,1,0,0:0:0:0:
448,192,31134,1,0,0:0:0:0:
192,192,31202,1,0,0:0:0:0:
320,192,31269,1,0,0:0:0:0:
64,192,31336,1,0,0:0:0:0:
192,192,31336,1,0,0:0:0:0:
448,192,31471,1,0,0:0:0:0:
320,192,31538,1,0,0:0:0:0:
64,192,31605,1,0,0:0:0:0:
192,192,31605,1,0,0:0:0:0:
320,192,31740,1,0,0:0:0:0:
64,192,31874,1,0,0:0:0:0:
448,192,31874,1,0,0:0:0:0:
192,192,31942,1,0,0:0:0:0:
320,192,32009,1,0,0:0:0:0:
64,192,32076,1,0,0:0:0:0:
192,192,32143,1,0,0:0:0:0:
448,192,32143,1,0,0:0:0:0:
320,192,32278,1,0,0:0:0:0:
192,192,32345,1,0,0:0:0:0:
64,192,32345,1,0,0:0:0:0:
320,192,32412,1,0,0:0:0:0:
448,192,32412,1,0,0:0:0:0:
192,192,32547,1,0,0:0:0:0:
320,192,32547,1,0,0:0:0:0:
64,192,32681,1,0,0:0:0:0:
192,192,32681,1,0,0:0:0:0:
448,192,32749,1,0,0:0:0:0:
320,192,32816,1,0,0:0:0:0:
64,192,32816,1,0,0:0:0:0:
320,192,32950,1,0,0:0:0:0:
448,192,32950,1,0,0:0:0:0:
192,192,33018,1,0,0:0:0:0:
64,192,33085,1,0,0:0:0:0:
448,192,33152,1,0,0:0:0:0:
320,192,33220,1,0,0:0:0:0:
64,192,33287,1,0,0:0:0:0:
192,192,33287,1,0,0:0:0:0:
320,192,33354,1,0,0:0:0:0:
448,192,33354,1,0,0:0:0:0:
64,192,33421,1,0,0:0:0:0:
192,192,33489,1,0,0:0:0:0:
448,192,33489,1,0,0:0:0:0:
320,192,33556,1,0,0:0:0:0:
64,192,33623,1,0,0:0:0:0:
192,192,33690,1,0,0:0:0:0:
320,192,33758,1,0,0:0:0:0:
448,192,33758,1,0,0:0:0:0:
64,192,33825,1,0,0:0:0:0:
192,192,33892,1,0,0:0:0:0:
320,192,33892,1,0,0:0:0:0:
448,192,33959,1,0,0:0:0:0:
64,192,34027,1,0,0:0:0:0:
192,192,34027,1,0,0:0:0:0:
192,192,34161,1,0,0:0:0:0:
448,192,34161,1,0,0:0:0:0:
64,192,34296,1,0,0:0:0:0:
320,192,34296,1,0,0:0:0:0:
320,192,34430,1,0,0:0:0:0:
448,192,34430,1,0,0:0:0:0:
64,192,34565,1,0,0:0:0:0:
192,192,34565,1,0,0:0:0:0:
64,192,34699,1,0,0:0:0:0:
448,192,34699,1,0,0:0:0:0:
448,192,34834,1,0,0:0:0:0:
320,192,34834,1,0,0:0:0:0:
192,192,34901,1,0,0:0:0:0:
448,192,34968,1,0,0:0:0:0:
320,192,34968,1,0,0:0:0:0:
192,192,35036,1,0,0:0:0:0:
320,192,35103,1,0,0:0:0:0:
448,192,35103,1,0,0:0:0:0:
64,192,35170,1,0,0:0:0:0:
192,192,35237,1,0,0:0:0:0:
448,192,35305,1,0,0:0:0:0:
320,192,35372,1,0,0:0:0:0:
64,192,35439,1,0,0:0:0:0:
192,192,35507,1,0,0:0:0:0:
448,192,35507,1,0,0:0:0:0:
320,192,35574,1,0,0:0:0:0:
64,192,35641,1,0,0:0:0:0:
192,192,35641,1,0,0:0:0:0:
320,192,35708,1,0,0:0:0:0:
448,192,35776,1,0,0:0:0:0:
64,192,35843,1,0,0:0:0:0:
192,192,35910,1,0,0:0:0:0:
448,192,35910,1,0,0:0:0:0:
320,192,35977,1,0,0:0:0:0:
192,192,36045,1,0,0:0:0:0:
64,192,36112,1,0,0:0:0:0:
320,192,36179,1,0,0:0:0:0:
448,192,36179,1,0,0:0:0:0:
320,192,36717,1,0,0:0:0:0:
448,192,36717,1,0,0:0:0:0:
192,192,36852,1,0,0:0:0:0:
64,192,36986,1,0,0:0:0:0:
448,192,36986,1,0,0:0:0:0:
192,192,37054,1,0,0:0:0:0:
320,192,37121,1,0,0:0:0:0:
64,192,37188,1,0,0:0:0:0:
448,192,37255,1,0,0:0:0:0:
320,192,37255,1,0,0:0:0:0:
192,192,37255,1,0,0:0:0:0:
192,192,37390,1,0,0:0:0:0:
64,192,37457,1,0,0:0:0:0:
320,192,37524,1,0,0:0:0:0:
448,192,37524,1,0,0:0:0:0:
64,192,37592,1,0,0:0:0:0:
192,192,37659,1,0,0:0:0:0:
64,192,37794,1,0,0:0:0:0:
448,192,37794,1,0,0:0:0:0:
192,192,37861,1,0,0:0:0:0:
320,192,37928,1,0,0:0:0:0:
64,192,38063,1,0,0:0:0:0:
192,192,38063,1,0,0:0:0:0:
320,192,38130,1,0,0:0:0:0:
448,192,38197,1,0,0:0:0:0:
192,192,38264,1,0,0:0:0:0:
320,192,38332,1,0,0:0:0:0:
448,192,38332,1,0,0:0:0:0:
320,192,38466,1,0,0:0:0:0:
192,192,38533,1,0,0:0:0:0:
64,192,38601,1,0,0:0:0:0:
448,192,38601,1,0,0:0:0:0:
192,192,38735,1,0,0:0:0:0:
64,192,38803,1,0,0:0:0:0:
320,192,38870,1,0,0:0:0:0:
448,192,38870,1,0,0:0:0:0:
64,192,38937,1,0,0:0:0:0:
192,192,38937,1,0,0:0:0:0:
320,192,39004,1,0,0:0:0:0:
192,192,39072,1,0,0:0:0:0:
64,192,39139,1,0,0:0:0:0:
448,192,39139,1,0,0:0:0:0:
320,192,39206,1,0,0:0:0:0:
192,192,39273,1,0,0:0:0:0:
320,192,39341,1,0,0:0:0:0:
64,192,39408,1,0,0:0:0:0:
448,192,39408,1,0,0:0:0:0:
192,192,39408,1,0,0:0:0:0:
320,192,39475,1,0,0:0:0:0:
64,192,39542,1,0,0:0:0:0:
192,192,39610,1,0,0:0:0:0:
448,192,39677,1,0,0:0:0:0:
320,192,39677,1,0,0:0:0:0:
192,192,39744,1,0,0:0:0:0:
320,192,39811,1,0,0:0:0:0:
64,192,39879,1,0,0:0:0:0:
192,192,39946,1,0,0:0:0:0:
320,192,39946,1,0,0:0:0:0:
448,192,39946,1,0,0:0:0:0:
192,192,40081,1,0,0:0:0:0:
320,192,40148,1,0,0:0:0:0:
64,192,40215,1,0,0:0:0:0:
448,192,40215,1,0,0:0:0:0:
192,192,40282,1,0,0:0:0:0:
320,192,40350,1,0,0:0:0:0:
64,192,40484,1,0,0:0:0:0:
192,192,40484,1,0,0:0:0:0:
320,192,40551,1,0,0:0:0:0:
448,192,40551,1,0,0:0:0:0:
192,192,40619,1,0,0:0:0:0:
64,192,40686,1,0,0:0:0:0:
320,192,40753,1,0,0:0:0:0:
448,192,40753,1,0,0:0:0:0:
64,192,40820,1,0,0:0:0:0:
192,192,40888,1,0,0:0:0:0:
448,192,40955,1,0,0:0:0:0:
320,192,41022,1,0,0:0:0:0:
64,192,41022,1,0,0:0:0:0:
192,192,41090,1,0,0:0:0:0:
320,192,41157,1,0,0:0:0:0:
192,192,41224,1,0,0:0:0:0:
320,192,41291,1,0,0:0:0:0:
448,192,41291,1,0,0:0:0:0:
64,192,41359,1,0,0:0:0:0:
320,192,41426,1,0,0:0:0:0:
192,192,41493,1,0,0:0:0:0:
448,192,41560,1,0,0:0:0:0:
320,192,41560,1,0,0:0:0:0:
192,192,41695,1,0,0:0:0:0:
320,192,41762,1,0,0:0:0:0:
64,192,41829,1,0,0:0:0:0:
448,192,41829,1,0,0:0:0:0:
192,192,41897,1,0,0:0:0:0:
320,192,41964,1,0,0:0:0:0:
448,192,41964,1,0,0:0:0:0:
64,192,42031,1,0,0:0:0:0:
192,192,42098,1,0,0:0:0:0:
320,192,42098,1,0,0:0:0:0:
64,192,42233,1,0,0:0:0:0:
192,192,42233,1,0,0:0:0:0:
320,192,42368,1,0,0:0:0:0:
448,192,42368,1,0,0:0:0:0:
192,192,42435,1,0,0:0:0:0:
320,192,42502,1,0,0:0:0:0:
448,192,42502,1,0,0:0:0:0:
448,192,42771,1,0,0:0:0:0:
320,192,42838,1,0,0:0:0:0:
64,192,42906,1,0,0:0:0:0:
192,192,42906,1,0,0:0:0:0:
448,192,42973,1,0,0:0:0:0:
320,192,43040,1,0,0:0:0:0:
192,192,43040,1,0,0:0:0:0:
64,192,43107,1,0,0:0:0:0:
320,192,43175,1,0,0:0:0:0:
448,192,43175,1,0,0:0:0:0:
64,192,43242,1,0,0:0:0:0:
192,192,43309,1,0,0:0:0:0:
448,192,43309,1,0,0:0:0:0:
192,192,43444,1,0,0:0:0:0:
64,192,43444,1,0,0:0:0:0:
448,192,43578,1,0,0:0:0:0:
320,192,43578,1,0,0:0:0:0:
64,192,43646,1,0,0:0:0:0:
192,192,43646,1,0,0:0:0:0:
320,192,43713,1,0,0:0:0:0:
448,192,43713,1,0,0:0:0:0:
64,192,43847,1,0,0:0:0:0:
192,192,43915,1,0,0:0:0:0:
320,192,43915,1,0,0:0:0:0:
448,192,43982,1,0,0:0:0:0:
192,192,44049,1,0,0:0:0:0:
64,192,44116,1,0,0:0:0:0:
320,192,44116,1,0,0:0:0:0:
448,192,44184,1,0,0:0:0:0:
192,192,44251,1,0,0:0:0:0:
64,192,44251,1,0,0:0:0:0:
448,192,44318,128,0,44453:0:0:0:0:
64,192,44453,128,0,44655:0:0:0:0:
192,192,44453,1,0,0:0:0:0:
320,192,44655,1,0,0:0:0:0:
448,192,44655,1,0,0:0:0:0:
192,192,44789,1,0,0:0:0:0:
320,192,44789,1,0,0:0:0:0:
64,192,44856,1,0,0:0:0:0:
320,192,44924,1,0,0:0:0:0:
448,192,44924,1,0,0:0:0:0:
64,192,44991,1,0,0:0:0:0:
192,192,44991,1,0,0:0:0:0:
448,192,45058,1,0,0:0:0:0:
192,192,45125,1,0,0:0:0:0:
64,192,45125,1,0,0:0:0:0:
320,192,45193,1,0,0:0:0:0:
448,192,45193,1,0,0:0:0:0:
192,192,45260,1,0,0:0:0:0:
64,192,45327,1,0,0:0:0:0:
192,192,45462,1,0,0:0:0:0:
320,192,45462,1,0,0:0:0:0:
448,192,45596,1,0,0:0:0:0:
192,192,45596,1,0,0:0:0:0:
64,192,45731,1,0,0:0:0:0:
448,192,45731,1,0,0:0:0:0:
64,192,45865,128,0,46134:0:0:0:0:
192,192,46000,128,0,46134:0:0:0:0:
320,192,46134,1,0,0:0:0:0:
448,192,46134,1,0,0:0:0:0:
192,192,46202,1,0,0:0:0:0:
320,192,46269,1,0,0:0:0:0:
192,192,46403,1,0,0:0:0:0:
448,192,46403,1,0,0:0:0:0:
320,192,46471,1,0,0:0:0:0:
64,192,46538,1,0,0:0:0:0:
192,192,46605,1,0,0:0:0:0:
320,192,46672,1,0,0:0:0:0:
448,192,46672,1,0,0:0:0:0:
192,192,46740,1,0,0:0:0:0:
64,192,46807,1,0,0:0:0:0:
448,192,46807,1,0,0:0:0:0:
320,192,46942,1,0,0:0:0:0:
64,192,46942,1,0,0:0:0:0:
320,192,47076,1,0,0:0:0:0:
448,192,47076,1,0,0:0:0:0:
192,192,47143,1,0,0:0:0:0:
64,192,47211,1,0,0:0:0:0:
448,192,47211,1,0,0:0:0:0:
320,192,47278,1,0,0:0:0:0:
64,192,47345,1,0,0:0:0:0:
192,192,47345,1,0,0:0:0:0:
448,192,47412,1,0,0:0:0:0:
64,192,47480,1,0,0:0:0:0:
192,192,47480,1,0,0:0:0:0:
320,192,47547,1,0,0:0:0:0:
64,192,47614,1,0,0:0:0:0:
448,192,47614,1,0,0:0:0:0:
192,192,47681,1,0,0:0:0:0:
320,192,47749,1,0,0:0:0:0:
448,192,47749,1,0,0:0:0:0:
64,192,47816,1,0,0:0:0:0:
192,192,47883,1,0,0:0:0:0:
448,192,47883,1,0,0:0:0:0:
320,192,47950,1,0,0:0:0:0:
192,192,48018,1,0,0:0:0:0:
64,192,48018,1,0,0:0:0:0:
320,192,48152,1,0,0:0:0:0:
448,192,48220,1,0,0:0:0:0:
64,192,48220,1,0,0:0:0:0:
320,192,48287,1,0,0:0:0:0:
192,192,48287,1,0,0:0:0:0:
64,192,48354,1,0,0:0:0:0:
320,192,48421,1,0,0:0:0:0:
448,192,48421,1,0,0:0:0:0:
64,192,48556,1,0,0:0:0:0:
192,192,48556,1,0,0:0:0:0:
320,192,48623,1,0,0:0:0:0:
64,192,48690,1,0,0:0:0:0:
448,192,48758,1,0,0:0:0:0:
64,192,48825,1,0,0:0:0:0:
192,192,48825,1,0,0:0:0:0:
320,192,48892,1,0,0:0:0:0:
448,192,48959,1,0,0:0:0:0:
192,192,49027,1,0,0:0:0:0:
448,192,49094,1,0,0:0:0:0:
64,192,49094,1,0,0:0:0:0:
320,192,49161,1,0,0:0:0:0:
192,192,49229,1,0,0:0:0:0:
320,192,49296,1,0,0:0:0:0:
64,192,49363,1,0,0:0:0:0:
448,192,49363,1,0,0:0:0:0:
192,192,49430,1,0,0:0:0:0:
320,192,49498,1,0,0:0:0:0:
64,192,49565,1,0,0:0:0:0:
192,192,49632,1,0,0:0:0:0:
448,192,49632,1,0,0:0:0:0:
320,192,49699,1,0,0:0:0:0:
64,192,49767,1,0,0:0:0:0:
320,192,49834,1,0,0:0:0:0:
448,192,49834,1,0,0:0:0:0:
64,192,49901,1,0,0:0:0:0:
192,192,49901,1,0,0:0:0:0:
448,192,50036,1,0,0:0:0:0:
64,192,50103,1,0,0:0:0:0:
192,192,50103,1,0,0:0:0:0:
320,192,50170,1,0,0:0:0:0:
448,192,50170,128,0,50574:0:0:0:0:
64,192,50574,1,0,0:0:0:0:
192,192,50607,1,0,0:0:0:0:
320,192,50641,1,0,0:0:0:0:
448,192,50675,1,0,0:0:0:0:
64,192,50708,1,0,0:0:0:0:
192,192,50742,1,0,0:0:0:0:
320,192,50776,1,0,0:0:0:0:
448,192,50809,1,0,0:0:0:0:
64,192,50843,128,0,51112:0:0:0:0:
192,192,50843,1,0,0:0:0:0:
448,192,51112,1,0,0:0:0:0:
320,192,51112,128,0,51381:0:0:0:0:
64,192,51516,1,0,0:0:0:0:
192,192,51516,1,0,0:0:0:0:
320,192,51650,1,0,0:0:0:0:
448,192,51717,1,0,0:0:0:0:
64,192,51785,1,0,0:0:0:0:
192,192,51785,128,0,52054:0:0:0:0:
448,192,52054,1,0,0:0:0:0:
320,192,52054,128,0,52323:0:0:0:0:
448,192,52323,1,0,0:0:0:0:
64,192,52323,1,0,0:0:0:0:
64,192,52457,1,0,0:0:0:0:
192,192,52457,1,0,0:0:0:0:
448,192,52524,1,0,0:0:0:0:
320,192,52524,1,0,0:0:0:0:
64,192,52592,1,0,0:0:0:0:
192,192,52592,1,0,0:0:0:0:
448,192,52659,1,0,0:0:0:0:
64,192,52726,1,0,0:0:0:0:
320,192,52726,1,0,0:0:0:0:
192,192,52794,1,0,0:0:0:0:
320,192,52861,1,0,0:0:0:0:
448,192,52861,1,0,0:0:0:0:
64,192,52928,1,0,0:0:0:0:
320,192,52995,1,0,0:0:0:0:
64,192,53063,1,0,0:0:0:0:
192,192,53063,1,0,0:0:0:0:
320,192,53130,1,0,0:0:0:0:
448,192,53130,1,0,0:0:0:0:
64,192,53197,1,0,0:0:0:0:
192,192,53264,1,0,0:0:0:0:
320,192,53264,1,0,0:0:0:0:
448,192,53332,1,0,0:0:0:0:
64,192,53399,1,0,0:0:0:0:
192,192,53399,1,0,0:0:0:0:
320,192,53466,1,0,0:0:0:0:
192,192,53533,1,0,0:0:0:0:
320,192,53601,1,0,0:0:0:0:
64,192,53668,1,0,0:0:0:0:
448,192,53735,1,0,0:0:0:0:
64,192,53803,1,0,0:0:0:0:
448,192,53870,1,0,0:0:0:0:
320,192,53937,1,0,0:0:0:0:
192,192,54004,1,0,0:0:0:0:
320,192,54072,1,0,0:0:0:0:
192,192,54139,1,0,0:0:0:0:
448,192,54206,1,0,0:0:0:0:
64,192,54273,1,0,0:0:0:0:
448,192,54341,1,0,0:0:0:0:
64,192,54408,1,0,0:0:0:0:
320,192,54475,1,0,0:0:0:0:
448,192,54475,128,0,56628:0:0:0:0:
320,192,58242,128,0,58377:0:0:0:0:
192,192,58377,128,0,58511:0:0:0:0:
64,192,58511,128,0,58646:0:0:0:0:
448,192,58646,128,0,58780:0:0:0:0:
320,192,58780,128,0,58915:0:0:0:0:
64,192,59184,128,0,59318:0:0:0:0:
192,192,59722,1,0,0:0:0:0:
320,192,59789,1,0,0:0:0:0:
64,192,59856,128,0,59991:0:0:0:0:
448,192,60260,128,0,60394:0:0:0:0:
192,192,60529,128,0,60664:0:0:0:0:
320,192,60664,128,0,60798:0:0:0:0:
64,192,60798,128,0,60933:0:0:0:0:
448,192,60933,128,0,61067:0:0:0:0:
192,192,61336,128,0,61471:0:0:0:0:
64,192,61740,128,0,61874:0:0:0:0:
320,192,61874,128,0,62009:0:0:0:0:
448,192,62412,1,0,0:0:0:0:
320,192,62480,1,0,0:0:0:0:
64,192,62547,1,0,0:0:0:0:
192,192,62614,1,0,0:0:0:0:
320,192,62681,1,0,0:0:0:0:
64,192,62749,1,0,0:0:0:0:
192,192,62816,1,0,0:0:0:0:
448,192,62883,1,0,0:0:0:0:
320,192,62950,1,0,0:0:0:0:
64,192,63018,1,0,0:0:0:0:
448,192,63085,1,0,0:0:0:0:
192,192,63085,1,0,0:0:0:0:
320,192,63220,1,0,0:0:0:0:
448,192,63354,1,0,0:0:0:0:
64,192,63354,1,0,0:0:0:0:
192,192,63489,1,0,0:0:0:0:
320,192,63623,1,0,0:0:0:0:
448,192,63623,1,0,0:0:0:0:
64,192,63758,1,0,0:0:0:0:
192,192,63892,1,0,0:0:0:0:
448,192,63892,1,0,0:0:0:0:
64,192,64027,1,0,0:0:0:0:
320,192,64161,1,0,0:0:0:0:
448,192,64161,1,0,0:0:0:0:
64,192,64296,1,0,0:0:0:0:
192,192,64296,1,0,0:0:0:0:
320,192,64430,1,0,0:0:0:0:
448,192,64430,1,0,0:0:0:0:
64,192,64565,1,0,0:0:0:0:
192,192,64699,1,0,0:0:0:0:
320,192,64699,1,0,0:0:0:0:
64,192,64834,1,0,0:0:0:0:
448,192,64834,1,0,0:0:0:0:
192,192,64968,1,0,0:0:0:0:
320,192,64968,1,0,0:0:0:0:
448,192,65103,1,0,0:0:0:0:
64,192,65103,1,0,0:0:0:0:
448,192,65237,1,0,0:0:0:0:
320,192,65237,1,0,0:0:0:0:
64,192,65372,1,0,0:0:0:0:
192,192,65507,1,0,0:0:0:0:
448,192,65507,1,0,0:0:0:0:
320,192,65641,1,0,0:0:0:0:
64,192,65776,1,0,0:0:0:0:
192,192,65776,1,0,0:0:0:0:
320,192,65910,1,0,0:0:0:0:
64,192,66045,1,0,0:0:0:0:
448,192,66045,1,0,0:0:0:0:
192,192,66179,1,0,0:0:0:0:
320,192,66179,1,0,0:0:0:0:
64,192,66314,1,0,0:0:0:0:
448,192,66314,1,0,0:0:0:0:
192,192,66448,1,0,0:0:0:0:
320,192,66448,1,0,0:0:0:0:
64,192,66583,1,0,0:0:0:0:
448,192,66583,1,0,0:0:0:0:
192,192,66717,1,0,0:0:0:0:
448,192,66852,1,0,0:0:0:0:
320,192,66852,1,0,0:0:0:0:
64,192,66986,1,0,0:0:0:0:
320,192,67121,1,0,0:0:0:0:
448,192,67121,1,0,0:0:0:0:
64,192,67255,1,0,0:0:0:0:
64,192,67390,1,0,0:0:0:0:
192,192,67390,1,0,0:0:0:0:
320,192,67524,1,0,0:0:0:0:
448,192,67524,1,0,0:0:0:0:
64,192,67659,1,0,0:0:0:0:
192,192,67659,1,0,0:0:0:0:
320,192,67794,1,0,0:0:0:0:
448,192,67794,1,0,0:0:0:0:
64,192,67928,1,0,0:0:0:0:
448,192,67928,1,0,0:0:0:0:
192,192,68063,1,0,0:0:0:0:
320,192,68063,1,0,0:0:0:0:
64,192,68197,1,0,0:0:0:0:
448,192,68197,1,0,0:0:0:0:
192,192,68332,1,0,0:0:0:0:
320,192,68332,1,0,0:0:0:0:
64,192,68466,1,0,0:0:0:0:
192,192,68466,1,0,0:0:0:0:
448,192,68601,1,0,0:0:0:0:
64,192,68601,1,0,0:0:0:0:
448,192,68735,1,0,0:0:0:0:
192,192,68735,1,0,0:0:0:0:
192,192,68870,1,0,0:0:0:0:
320,192,68870,1,0,0:0:0:0:
320,192,69004,1,0,0:0:0:0:
448,192,69004,1,0,0:0:0:0:
320,192,69139,1,0,0:0:0:0:
448,192,69139,1,0,0:0:0:0:
64,192,69273,1,0,0:0:0:0:
192,192,69273,1,0,0:0:0:0:
64,192,69408,1,0,0:0:0:0:
192,192,69408,1,0,0:0:0:0:
64,192,69542,1,0,0:0:0:0:
448,192,69542,1,0,0:0:0:0:
192,192,69677,1,0,0:0:0:0:
320,192,69744,1,0,0:0:0:0:
64,192,69811,1,0,0:0:0:0:
448,192,69811,1,0,0:0:0:0:
192,192,69879,1,0,0:0:0:0:
320,192,69946,1,0,0:0:0:0:
64,192,70013,1,0,0:0:0:0:
192,192,70081,1,0,0:0:0:0:
448,192,70081,1,0,0:0:0:0:
320,192,70148,1,0,0:0:0:0:
64,192,70215,1,0,0:0:0:0:
192,192,70215,1,0,0:0:0:0:
448,192,70282,1,0,0:0:0:0:
320,192,70350,1,0,0:0:0:0:
192,192,70417,1,0,0:0:0:0:
448,192,70484,1,0,0:0:0:0:
64,192,70484,1,0,0:0:0:0:
320,192,70619,1,0,0:0:0:0:
192,192,70753,1,0,0:0:0:0:
64,192,70888,1,0,0:0:0:0:
448,192,71022,1,0,0:0:0:0:
320,192,71157,1,0,0:0:0:0:
192,192,71291,1,0,0:0:0:0:
64,192,71426,1,0,0:0:0:0:
192,192,71493,1,0,0:0:0:0:
448,192,71560,1,0,0:0:0:0:
320,192,71628,1,0,0:0:0:0:
64,192,71695,1,0,0:0:0:0:
192,192,71695,1,0,0:0:0:0:
448,192,71695,128,0,72031:0:0:0:0:
320,192,71762,1,0,0:0:0:0:
192,192,71829,1,0,0:0:0:0:
320,192,71897,1,0,0:0:0:0:
64,192,71964,1,0,0:0:0:0:
192,192,72031,1,0,0:0:0:0:
448,192,72098,1,0,0:0:0:0:
64,192,72166,1,0,0:0:0:0:
448,192,72233,128,0,72368:0:0:0:0:
192,192,72300,1,0,0:0:0:0:
320,192,72368,1,0,0:0:0:0:
448,192,72435,128,0,72569:0:0:0:0:
64,192,72502,1,0,0:0:0:0:
192,192,72569,1,0,0:0:0:0:
448,192,72637,128,0,72838:0:0:0:0:
64,192,72704,1,0,0:0:0:0:
192,192,72771,1,0,0:0:0:0:
320,192,72838,1,0,0:0:0:0:
64,192,72906,128,0,73040:0:0:0:0:
320,192,73040,128,0,73175:0:0:0:0:
64,192,73175,128,0,73309:0:0:0:0:
448,192,73309,128,0,73444:0:0:0:0:
64,192,73444,128,0,73578:0:0:0:0:
320,192,73578,1,0,0:0:0:0:
320,192,73713,128,0,74184:0:0:0:0:
192,192,73847,1,0,0:0:0:0:
64,192,74116,1,0,0:0:0:0:
320,192,74251,1,0,0:0:0:0:
192,192,74318,1,0,0:0:0:0:
320,192,74385,128,0,74587:0:0:0:0:
192,192,74587,128,0,74789:0:0:0:0:
448,192,74655,1,0,0:0:0:0:
64,192,74789,128,0,74924:0:0:0:0:
448,192,74924,128,0,75327:0:0:0:0:
64,192,75125,1,0,0:0:0:0:
320,192,75193,1,0,0:0:0:0:
192,192,75327,128,0,75462:0:0:0:0:
320,192,75462,128,0,75731:0:0:0:0:
192,192,75731,128,0,76000:0:0:0:0:
320,192,76000,1,0,0:0:0:0:
448,192,76000,128,0,76403:0:0:0:0:
64,192,76269,1,0,0:0:0:0:
320,192,76269,1,0,0:0:0:0:
192,192,76403,128,0,76672:0:0:0:0:
320,192,76538,1,0,0:0:0:0:
448,192,76538,1,0,0:0:0:0:
320,192,76672,128,0,76807:0:0:0:0:
64,192,76807,128,0,77211:0:0:0:0:
192,192,76807,1,0,0:0:0:0:
320,192,77076,1,0,0:0:0:0:
448,192,77211,128,0,77345:0:0:0:0:
192,192,77345,128,0,77480:0:0:0:0:
64,192,77345,1,0,0:0:0:0:
320,192,77480,128,0,77614:0:0:0:0:
64,192,77614,128,0,77749:0:0:0:0:
448,192,77749,128,0,77883:0:0:0:0:
192,192,77883,1,0,0:0:0:0:
64,192,77883,1,0,0:0:0:0:
320,192,77950,1,0,0:0:0:0:
64,192,78018,128,0,78152:0:0:0:0:
320,192,78152,1,0,0:0:0:0:
448,192,78152,128,0,78354:0:0:0:0:
192,192,78354,128,0,78959:0:0:0:0:
64,192,78421,1,0,0:0:0:0:
320,192,78421,1,0,0:0:0:0:
320,192,78690,1,0,0:0:0:0:
448,192,78690,1,0,0:0:0:0:
320,192,78825,1,0,0:0:0:0:
448,192,78959,128,0,79094:0:0:0:0:
64,192,78959,1,0,0:0:0:0:
192,192,79094,128,0,79363:0:0:0:0:
64,192,79229,1,0,0:0:0:0:
320,192,79229,1,0,0:0:0:0:
448,192,79363,1,0,0:0:0:0:
320,192,79498,128,0,79767:0:0:0:0:
192,192,79498,1,0,0:0:0:0:
192,192,79767,1,0,0:0:0:0:
448,192,79767,1,0,0:0:0:0:
64,192,79901,128,0,80036:0:0:0:0:
448,192,80036,128,0,80170:0:0:0:0:
320,192,80036,1,0,0:0:0:0:
192,192,80170,128,0,80305:0:0:0:0:
320,192,80305,1,0,0:0:0:0:
448,192,80305,1,0,0:0:0:0:
192,192,80439,1,0,0:0:0:0:
64,192,80574,1,0,0:0:0:0:
448,192,80574,1,0,0:0:0:0:
192,192,80708,1,0,0:0:0:0:
320,192,80776,1,0,0:0:0:0:
64,192,80843,1,0,0:0:0:0:
192,192,80843,1,0,0:0:0:0:
192,192,80977,1,0,0:0:0:0:
320,192,81045,1,0,0:0:0:0:
448,192,81045,1,0,0:0:0:0:
192,192,81112,1,0,0:0:0:0:
64,192,81112,1,0,0:0:0:0:
192,192,81246,1,0,0:0:0:0:
320,192,81246,1,0,0:0:0:0:
320,192,81381,1,0,0:0:0:0:
448,192,81381,1,0,0:0:0:0:
64,192,81516,1,0,0:0:0:0:
192,192,81516,1,0,0:0:0:0:
64,192,81650,1,0,0:0:0:0:
448,192,81650,1,0,0:0:0:0:
320,192,81785,1,0,0:0:0:0:
448,192,81785,1,0,0:0:0:0:
64,192,81919,1,0,0:0:0:0:
192,192,81919,1,0,0:0:0:0:
448,192,82054,1,0,0:0:0:0:
192,192,82054,1,0,0:0:0:0:
64,192,82188,1,0,0:0:0:0:
320,192,82188,1,0,0:0:0:0:
320,192,82323,1,0,0:0:0:0:
448,192,82323,1,0,0:0:0:0:
64,192,82457,1,0,0:0:0:0:
192,192,82457,1,0,0:0:0:0:
320,192,82592,1,0,0:0:0:0:
64,192,82726,1,0,0:0:0:0:
192,192,82726,1,0,0:0:0:0:
320,192,82861,1,0,0:0:0:0:
448,192,82861,1,0,0:0:0:0:
192,192,82928,1,0,0:0:0:0:
64,192,82928,1,0,0:0:0:0:
320,192,82995,1,0,0:0:0:0:
448,192,82995,1,0,0:0:0:0:
320,192,83130,1,0,0:0:0:0:
192,192,83197,1,0,0:0:0:0:
448,192,83197,1,0,0:0:0:0:
64,192,83264,1,0,0:0:0:0:
320,192,83264,1,0,0:0:0:0:
320,192,83399,1,0,0:0:0:0:
64,192,83533,1,0,0:0:0:0:
192,192,83533,1,0,0:0:0:0:
448,192,83668,1,0,0:0:0:0:
192,192,83735,1,0,0:0:0:0:
320,192,83803,1,0,0:0:0:0:
448,192,83803,1,0,0:0:0:0:
64,192,83870,1,0,0:0:0:0:
192,192,83937,1,0,0:0:0:0:
320,192,84072,1,0,0:0:0:0:
448,192,84072,1,0,0:0:0:0:
64,192,84206,1,0,0:0:0:0:
448,192,84273,1,0,0:0:0:0:
64,192,84341,1,0,0:0:0:0:
192,192,84341,1,0,0:0:0:0:
320,192,84408,1,0,0:0:0:0:
448,192,84475,1,0,0:0:0:0:
64,192,84542,1,0,0:0:0:0:
192,192,84610,1,0,0:0:0:0:
448,192,84610,1,0,0:0:0:0:
320,192,84677,1,0,0:0:0:0:
64,192,84744,1,0,0:0:0:0:
192,192,84811,1,0,0:0:0:0:
448,192,84879,1,0,0:0:0:0:
320,192,84879,1,0,0:0:0:0:
64,192,84946,1,0,0:0:0:0:
320,192,85013,1,0,0:0:0:0:
448,192,85081,1,0,0:0:0:0:
64,192,85148,1,0,0:0:0:0:
192,192,85148,1,0,0:0:0:0:
320,192,85215,1,0,0:0:0:0:
192,192,85282,1,0,0:0:0:0:
448,192,85350,1,0,0:0:0:0:
64,192,85417,1,0,0:0:0:0:
192,192,85417,1,0,0:0:0:0:
320,192,85484,1,0,0:0:0:0:
192,192,85551,1,0,0:0:0:0:
64,192,85619,1,0,0:0:0:0:
320,192,85686,1,0,0:0:0:0:
448,192,85686,1,0,0:0:0:0:
64,192,85753,1,0,0:0:0:0:
192,192,85753,1,0,0:0:0:0:
448,192,85820,1,0,0:0:0:0:
320,192,85888,1,0,0:0:0:0:
64,192,85955,1,0,0:0:0:0:
192,192,85955,1,0,0:0:0:0:
320,192,86022,1,0,0:0:0:0:
448,192,86022,1,0,0:0:0:0:
64,192,86090,1,0,0:0:0:0:
192,192,86157,1,0,0:0:0:0:
320,192,86224,1,0,0:0:0:0:
448,192,86224,1,0,0:0:0:0:
192,192,86359,1,0,0:0:0:0:
320,192,86359,1,0,0:0:0:0:
64,192,86493,1,0,0:0:0:0:
192,192,86493,1,0,0:0:0:0:
64,192,86628,1,0,0:0:0:0:
448,192,86628,1,0,0:0:0:0:
320,192,86762,1,0,0:0:0:0:
448,192,86762,1,0,0:0:0:0:
64,192,86897,1,0,0:0:0:0:
320,192,86964,1,0,0:0:0:0:
64,192,87031,1,0,0:0:0:0:
192,192,87031,1,0,0:0:0:0:
448,192,87098,1,0,0:0:0:0:
192,192,87166,1,0,0:0:0:0:
448,192,87233,1,0,0:0:0:0:
64,192,87300,1,0,0:0:0:0:
320,192,87368,1,0,0:0:0:0:
64,192,87435,1,0,0:0:0:0:
320,192,87502,1,0,0:0:0:0:
448,192,87569,1,0,0:0:0:0:
192,192,87637,1,0,0:0:0:0:
448,192,87704,1,0,0:0:0:0:
192,192,87771,1,0,0:0:0:0:
320,192,87838,1,0,0:0:0:0:
448,192,87838,1,0,0:0:0:0:
192,192,87906,1,0,0:0:0:0:
64,192,87973,1,0,0:0:0:0:
320,192,87973,1,0,0:0:0:0:
192,192,88040,1,0,0:0:0:0:
448,192,88107,1,0,0:0:0:0:
320,192,88107,1,0,0:0:0:0:
64,192,88175,1,0,0:0:0:0:
320,192,88242,1,0,0:0:0:0:
448,192,88242,1,0,0:0:0:0:
192,192,88309,1,0,0:0:0:0:
448,192,88377,1,0,0:0:0:0:
64,192,88377,1,0,0:0:0:0:
320,192,88444,1,0,0:0:0:0:
64,192,88511,1,0,0:0:0:0:
448,192,88511,1,0,0:0:0:0:
192,192,88578,1,0,0:0:0:0:
64,192,88646,1,0,0:0:0:0:
448,192,88646,1,0,0:0:0:0:
320,192,88713,1,0,0:0:0:0:
192,192,88780,1,0,0:0:0:0:
64,192,88780,1,0,0:0:0:0:
320,192,88847,1,0,0:0:0:0:
192,192,88915,1,0,0:0:0:0:
64,192,88915,1,0,0:0:0:0:
448,192,88915,1,0,0:0:0:0:
320,192,89049,1,0,0:0:0:0:
192,192,89116,1,0,0:0:0:0:
64,192,89184,1,0,0:0:0:0:
448,192,89184,1,0,0:0:0:0:
320,192,89251,1,0,0:0:0:0:
64,192,89318,1,0,0:0:0:0:
192,192,89318,1,0,0:0:0:0:
320,192,89385,1,0,0:0:0:0:
64,192,89453,1,0,0:0:0:0:
192,192,89453,1,0,0:0:0:0:
320,192,89520,1,0,0:0:0:0:
448,192,89587,1,0,0:0:0:0:
64,192,89655,1,0,0:0:0:0:
192,192,89655,1,0,0:0:0:0:
320,192,89722,1,0,0:0:0:0:
448,192,89722,1,0,0:0:0:0:
192,192,89789,1,0,0:0:0:0:
64,192,89856,1,0,0:0:0:0:
448,192,89856,1,0,0:0:0:0:
320,192,89924,1,0,0:0:0:0:
64,192,89991,1,0,0:0:0:0:
192,192,89991,1,0,0:0:0:0:
448,192,90125,1,0,0:0:0:0:
64,192,90125,1,0,0:0:0:0:
320,192,90260,1,0,0:0:0:0:
192,192,90260,1,0,0:0:0:0:
448,192,90394,1,0,0:0:0:0:
320,192,90394,1,0,0:0:0:0:
192,192,90529,1,0,0:0:0:0:
64,192,90529,1,0,0:0:0:0:
192,192,90664,1,0,0:0:0:0:
320,192,90664,1,0,0:0:0:0:
448,192,90798,1,0,0:0:0:0:
64,192,90798,1,0,0:0:0:0:
320,192,90933,1,0,0:0:0:0:
448,192,90933,1,0,0:0:0:0:
64,192,91067,1,0,0:0:0:0:
320,192,91067,1,0,0:0:0:0:
192,192,91134,1,0,0:0:0:0:
64,192,91202,1,0,0:0:0:0:
320,192,91202,1,0,0:0:0:0:
192,192,91269,1,0,0:0:0:0:
448,192,91336,1,0,0:0:0:0:
320,192,91336,1,0,0:0:0:0:
320,192,91471,1,0,0:0:0:0:
448,192,91471,1,0,0:0:0:0:
192,192,91538,1,0,0:0:0:0:
448,192,91605,1,0,0:0:0:0:
320,192,91605,1,0,0:0:0:0:
64,192,91672,1,0,0:0:0:0:
448,192,91740,1,0,0:0:0:0:
64,192,91807,1,0,0:0:0:0:
192,192,91807,1,0,0:0:0:0:
320,192,91874,1,0,0:0:0:0:
448,192,91874,1,0,0:0:0:0:
64,192,91942,1,0,0:0:0:0:
192,192,92009,1,0,0:0:0:0:
320,192,92009,1,0,0:0:0:0:
448,192,92076,1,0,0:0:0:0:
64,192,92143,1,0,0:0:0:0:
192,192,92143,1,0,0:0:0:0:
448,192,92211,1,0,0:0:0:0:
320,192,92278,1,0,0:0:0:0:
192,192,92345,1,0,0:0:0:0:
448,192,92412,1,0,0:0:0:0:
64,192,92412,1,0,0:0:0:0:
320,192,92480,1,0,0:0:0:0:
192,192,92547,1,0,0:0:0:0:
448,192,92614,1,0,0:0:0:0:
64,192,92681,1,0,0:0:0:0:
320,192,92681,1,0,0:0:0:0:
448,192,92816,1,0,0:0:0:0:
320,192,92816,1,0,0:0:0:0:
64,192,92950,1,0,0:0:0:0:
192,192,92950,1,0,0:0:0:0:
192,192,93085,1,0,0:0:0:0:
320,192,93085,1,0,0:0:0:0:
448,192,93220,1,0,0:0:0:0:
64,192,93220,1,0,0:0:0:0:
192,192,93287,1,0,0:0:0:0:
320,192,93354,1,0,0:0:0:0:
64,192,93421,1,0,0:0:0:0:
448,192,93489,1,0,0:0:0:0:
192,192,93489,1,0,0:0:0:0:
320,192,93556,1,0,0:0:0:0:
192,192,93623,1,0,0:0:0:0:
320,192,93690,1,0,0:0:0:0:
448,192,93758,1,0,0:0:0:0:
64,192,93758,1,0,0:0:0:0:
192,192,93825,1,0,0:0:0:0:
320,192,93892,1,0,0:0:0:0:
320,192,94027,1,0,0:0:0:0:
448,192,94027,1,0,0:0:0:0:
64,192,94094,1,0,0:0:0:0:
192,192,94161,1,0,0:0:0:0:
320,192,94229,1,0,0:0:0:0:
448,192,94296,1,0,0:0:0:0:
64,192,94296,1,0,0:0:0:0:
448,192,94430,1,0,0:0:0:0:
320,192,94430,1,0,0:0:0:0:
192,192,94565,1,0,0:0:0:0:
320,192,94565,1,0,0:0:0:0:
64,192,94699,1,0,0:0:0:0:
192,192,94699,1,0,0:0:0:0:
64,192,94834,1,0,0:0:0:0:
320,192,94834,1,0,0:0:0:0:
448,192,94968,1,0,0:0:0:0:
320,192,94968,1,0,0:0:0:0:
192,192,95103,1,0,0:0:0:0:
448,192,95103,1,0,0:0:0:0:
320,192,95170,1,0,0:0:0:0:
192,192,95237,1,0,0:0:0:0:
64,192,95237,1,0,0:0:0:0:
64,192,95372,1,0,0:0:0:0:
192,192,95372,1,0,0:0:0:0:
320,192,95439,1,0,0:0:0:0:
448,192,95507,1,0,0:0:0:0:
64,192,95574,1,0,0:0:0:0:
192,192,95574,1,0,0:0:0:0:
320,192,95641,1,0,0:0:0:0:
448,192,95641,1,0,0:0:0:0:
64,192,95708,1,0,0:0:0:0:
192,192,95776,1,0,0:0:0:0:
448,192,95843,1,0,0:0:0:0:
320,192,95910,1,0,0:0:0:0:
64,192,95910,1,0,0:0:0:0:
192,192,95977,1,0,0:0:0:0:
448,192,96045,1,0,0:0:0:0:
320,192,96112,1,0,0:0:0:0:
64,192,96179,1,0,0:0:0:0:
192,192,96179,1,0,0:0:0:0:
448,192,96246,1,0,0:0:0:0:
320,192,96314,1,0,0:0:0:0:
192,192,96314,1,0,0:0:0:0:
64,192,96381,1,0,0:0:0:0:
320,192,96448,1,0,0:0:0:0:
448,192,96448,1,0,0:0:0:0:
192,192,96583,1,0,0:0:0:0:
448,192,96650,1,0,0:0:0:0:
64,192,96717,1,0,0:0:0:0:
320,192,96717,1,0,0:0:0:0:
192,192,96785,1,0,0:0:0:0:
448,192,96852,1,0,0:0:0:0:
320,192,96852,1,0,0:0:0:0:
64,192,96919,1,0,0:0:0:0:
192,192,96986,1,0,0:0:0:0:
448,192,96986,1,0,0:0:0:0:
320,192,97054,1,0,0:0:0:0:
64,192,97121,1,0,0:0:0:0:
192,192,97121,1,0,0:0:0:0:
320,192,97188,1,0,0:0:0:0:
64,192,97255,1,0,0:0:0:0:
192,192,97255,1,0,0:0:0:0:
320,192,97390,1,0,0:0:0:0:
448,192,97390,1,0,0:0:0:0:
64,192,97524,1,0,0:0:0:0:
192,192,97524,1,0,0:0:0:0:
448,192,97524,1,0,0:0:0:0:
320,192,97592,1,0,0:0:0:0:
192,192,97659,1,0,0:0:0:0:
320,192,97726,1,0,0:0:0:0:
448,192,97794,1,0,0:0:0:0:
64,192,97794,1,0,0:0:0:0:
192,192,97861,1,0,0:0:0:0:
320,192,97928,1,0,0:0:0:0:
448,192,97928,1,0,0:0:0:0:
192,192,97995,1,0,0:0:0:0:
64,192,97995,1,0,0:0:0:0:
320,192,98063,1,0,0:0:0:0:
448,192,98063,1,0,0:0:0:0:
192,192,98130,1,0,0:0:0:0:
64,192,98197,1,0,0:0:0:0:
320,192,98264,1,0,0:0:0:0:
448,192,98264,1,0,0:0:0:0:
64,192,98332,1,0,0:0:0:0:
192,192,98332,1,0,0:0:0:0:
320,192,98399,1,0,0:0:0:0:
64,192,98466,1,0,0:0:0:0:
448,192,98466,1,0,0:0:0:0:
192,192,98533,1,0,0:0:0:0:
320,192,98601,1,0,0:0:0:0:
448,192,98601,1,0,0:0:0:0:
192,192,98735,1,0,0:0:0:0:
320,192,98735,1,0,0:0:0:0:
448,192,98803,1,0,0:0:0:0:
64,192,98870,1,0,0:0:0:0:
192,192,98870,1,0,0:0:0:0:
320,192,98937,1,0,0:0:0:0:
448,192,99004,1,0,0:0:0:0:
192,192,99004,1,0,0:0:0:0:
64,192,99072,1,0,0:0:0:0:
320,192,99139,1,0,0:0:0:0:
448,192,99139,1,0,0:0:0:0:
192,192,99206,1,0,0:0:0:0:
64,192,99273,1,0,0:0:0:0:
320,192,99273,1,0,0:0:0:0:
448,192,99341,1,0,0:0:0:0:
64,192,99408,1,0,0:0:0:0:
192,192,99408,1,0,0:0:0:0:
320,192,99475,1,0,0:0:0:0:
64,192,99542,1,0,0:0:0:0:
192,192,99542,1,0,0:0:0:0:
320,192,99610,1,0,0:0:0:0:
448,192,99677,1,0,0:0:0:0:
64,192,99677,1,0,0:0:0:0:
192,192,99744,1,0,0:0:0:0:
448,192,99811,1,0,0:0:0:0:
64,192,99811,1,0,0:0:0:0:
320,192,99879,1,0,0:0:0:0:
448,192,99946,1,0,0:0:0:0:
192,192,99946,1,0,0:0:0:0:
64,192,100081,1,0,0:0:0:0:
448,192,100081,1,0,0:0:0:0:
192,192,100148,1,0,0:0:0:0:
320,192,100148,1,0,0:0:0:0:
64,192,100215,1,0,0:0:0:0:
448,192,100215,1,0,0:0:0:0:
192,192,100282,1,0,0:0:0:0:
320,192,100350,1,0,0:0:0:0:
192,192,100417,1,0,0:0:0:0:
64,192,100417,1,0,0:0:0:0:
448,192,100484,1,0,0:0:0:0:
320,192,100484,1,0,0:0:0:0:
192,192,100551,1,0,0:0:0:0:
64,192,100619,1,0,0:0:0:0:
448,192,100619,1,0,0:0:0:0:
320,192,100686,1,0,0:0:0:0:
448,192,100753,1,0,0:0:0:0:
64,192,100753,1,0,0:0:0:0:
192,192,100820,1,0,0:0:0:0:
448,192,100888,1,0,0:0:0:0:
64,192,100955,1,0,0:0:0:0:
320,192,100955,1,0,0:0:0:0:
448,192,101022,1,0,0:0:0:0:
192,192,101022,1,0,0:0:0:0:
64,192,101090,1,0,0:0:0:0:
448,192,101157,1,0,0:0:0:0:
320,192,101157,1,0,0:0:0:0:
192,192,101224,1,0,0:0:0:0:
64,192,101291,1,0,0:0:0:0:
320,192,101291,1,0,0:0:0:0:
448,192,101359,1,0,0:0:0:0:
192,192,101426,1,0,0:0:0:0:
64,192,101560,1,0,0:0:0:0:
448,192,101560,1,0,0:0:0:0:
192,192,101628,1,0,0:0:0:0:
448,192,101695,1,0,0:0:0:0:
320,192,101762,1,0,0:0:0:0:
64,192,101829,1,0,0:0:0:0:
192,192,101829,1,0,0:0:0:0:
320,192,101897,1,0,0:0:0:0:
64,192,101964,1,0,0:0:0:0:
448,192,101964,1,0,0:0:0:0:
192,192,102031,1,0,0:0:0:0:
448,192,102098,1,0,0:0:0:0:
64,192,102098,1,0,0:0:0:0:
320,192,102166,1,0,0:0:0:0:
448,192,102233,1,0,0:0:0:0:
320,192,102300,1,0,0:0:0:0:
64,192,102368,1,0,0:0:0:0:
192,192,102368,1,0,0:0:0:0:
320,192,102435,1,0,0:0:0:0:
64,192,102502,1,0,0:0:0:0:
448,192,102502,1,0,0:0:0:0:
192,192,102569,1,0,0:0:0:0:
64,192,102637,1,0,0:0:0:0:
320,192,102637,1,0,0:0:0:0:
192,192,102704,1,0,0:0:0:0:
448,192,102771,1,0,0:0:0:0:
320,192,102838,1,0,0:0:0:0:
64,192,102906,1,0,0:0:0:0:
192,192,102906,1,0,0:0:0:0:
320,192,102973,1,0,0:0:0:0:
64,192,103040,1,0,0:0:0:0:
192,192,103040,1,0,0:0:0:0:
448,192,103107,1,0,0:0:0:0:
192,192,103175,1,0,0:0:0:0:
320,192,103175,1,0,0:0:0:0:
64,192,103242,1,0,0:0:0:0:
192,192,103309,1,0,0:0:0:0:
320,192,103309,1,0,0:0:0:0:
64,192,103377,1,0,0:0:0:0:
448,192,103444,1,0,0:0:0:0:
320,192,103444,1,0,0:0:0:0:
192,192,103511,1,0,0:0:0:0:
64,192,103578,1,0,0:0:0:0:
448,192,103578,1,0,0:0:0:0:
320,192,103646,1,0,0:0:0:0:
64,192,103713,1,0,0:0:0:0:
448,192,103713,1,0,0:0:0:0:
192,192,103780,1,0,0:0:0:0:
448,192,103847,1,0,0:0:0:0:
64,192,103847,1,0,0:0:0:0:
320,192,103915,1,0,0:0:0:0:
64,192,103982,1,0,0:0:0:0:
448,192,103982,1,0,0:0:0:0:
192,192,104049,1,0,0:0:0:0:
320,192,104116,1,0,0:0:0:0:
448,192,104116,1,0,0:0:0:0:
192,192,104184,1,0,0:0:0:0:
448,192,104251,1,0,0:0:0:0:
320,192,104251,1,0,0:0:0:0:
192,192,104318,1,0,0:0:0:0:
64,192,104385,1,0,0:0:0:0:
320,192,104385,1,0,0:0:0:0:
192,192,104453,1,0,0:0:0:0:
64,192,104520,1,0,0:0:0:0:
448,192,104520,1,0,0:0:0:0:
320,192,104587,1,0,0:0:0:0:
64,192,104655,1,0,0:0:0:0:
192,192,104655,1,0,0:0:0:0:
320,192,104722,1,0,0:0:0:0:
64,192,104789,1,0,0:0:0:0:
192,192,104789,1,0,0:0:0:0:
320,192,104856,1,0,0:0:0:0:
448,192,104924,1,0,0:0:0:0:
192,192,104924,1,0,0:0:0:0:
320,192,104991,1,0,0:0:0:0:
64,192,105058,1,0,0:0:0:0:
448,192,105058,1,0,0:0:0:0:
192,192,105125,1,0,0:0:0:0:
448,192,105193,1,0,0:0:0:0:
320,192,105193,1,0,0:0:0:0:
192,192,105260,1,0,0:0:0:0:
64,192,105327,1,0,0:0:0:0:
448,192,105327,1,0,0:0:0:0:
320,192,105394,1,0,0:0:0:0:
64,192,105462,1,0,0:0:0:0:
192,192,105462,1,0,0:0:0:0:
448,192,105529,1,0,0:0:0:0:
192,192,105596,1,0,0:0:0:0:
320,192,105596,1,0,0:0:0:0:
64,192,105664,1,0,0:0:0:0:
320,192,105731,1,0,0:0:0:0:
448,192,105731,1,0,0:0:0:0:
192,192,105798,1,0,0:0:0:0:
64,192,105865,1,0,0:0:0:0:
320,192,105865,1,0,0:0:0:0:
448,192,105933,1,0,0:0:0:0:
64,192,106000,1,0,0:0:0:0:
448,192,106067,1,0,0:0:0:0:
64,192,106134,128,0,106202:0:0:0:0:
192,192,106134,1,0,0:0:0:0:
