osu file format v14

[General]
AudioFilename: audio.mp3
AudioLeadIn: 0
PreviewTime: 86622
Countdown: 0
SampleSet: Normal
StackLeniency: 0.7
Mode: 3
LetterboxInBreaks: 0
SpecialStyle: 0
WidescreenStoryboard: 0

[Editor]
Bookmarks: 25074,62235
DistanceSpacing: 1.1
BeatDivisor: 4
GridSize: 8
TimelineZoom: 2.108

[Metadata]
Title:Corona (Warufuzake Album Version)
TitleUnicode:コロナ (悪巫山戯 Album Version)
Artist:utsuP
ArtistUnicode:鬱P
Creator:puxtu
Version:MX
Source:
Tags:utsu-P kagamine rin vocaloid metal scream
BeatmapID:1586651
BeatmapSetID:753626

[Difficulty]
HPDrainRate:8.5
CircleSize:4
OverallDifficulty:8.5
ApproachRate:5
SliderMultiplier:1.4
SliderTickRate:1

[Events]
//Background and Video events
0,0,"cats.jpg",0,0
//Break Periods
//Storyboard Layer 0 (Background)
//Storyboard Layer 1 (Fail)
//Storyboard Layer 2 (Pass)
//Storyboard Layer 3 (Foreground)
//Storyboard Sound Samples

[TimingPoints]
300,387.096774193548,4,1,1,50,1,0
87009,-100,4,1,1,50,0,1
98816,-100,4,1,1,50,0,0
99396,-100,4,1,1,50,0,1
111783,-100,4,1,1,50,0,0

[HitObjects]
64,192,300,5,2,0:0:0:0:
192,192,300,1,4,0:0:0:0:
448,192,300,1,0,0:0:0:0:
320,192,493,1,0,0:0:0:0:
64,192,590,1,0,0:0:0:0:
448,192,783,1,0,0:0:0:0:
192,192,880,1,0,0:0:0:0:
320,192,1074,1,0,0:0:0:0:
64,192,1170,1,0,0:0:0:0:
448,192,1267,1,0,0:0:0:0:
192,192,1364,1,0,0:0:0:0:
448,192,1461,1,0,0:0:0:0:
320,192,1654,1,0,0:0:0:0:
448,192,1848,1,0,0:0:0:0:
192,192,1848,1,4,0:0:0:0:
64,192,1848,1,2,0:0:0:0:
320,192,2041,1,0,0:0:0:0:
192,192,2138,1,0,0:0:0:0:
448,192,2332,1,0,0:0:0:0:
320,192,2429,1,0,0:0:0:0:
64,192,2622,1,0,0:0:0:0:
448,192,2719,1,0,0:0:0:0:
192,192,2816,1,0,0:0:0:0:
320,192,2912,1,0,0:0:0:0:
448,192,3009,1,0,0:0:0:0:
192,192,3009,1,4,0:0:0:0:
64,192,3009,1,2,0:0:0:0:
64,192,3396,1,2,0:0:0:0:
320,192,3396,1,4,0:0:0:0:
448,192,3396,1,0,0:0:0:0:
192,192,3590,1,0,0:0:0:0:
448,192,3687,1,0,0:0:0:0:
64,192,3880,1,0,0:0:0:0:
320,192,3977,1,0,0:0:0:0:
192,192,4170,1,0,0:0:0:0:
448,192,4267,1,0,0:0:0:0:
64,192,4364,1,0,0:0:0:0:
320,192,4461,1,0,0:0:0:0:
192,192,4558,1,0,0:0:0:0:
64,192,4751,1,0,0:0:0:0:
320,192,4945,1,2,0:0:0:0:
192,192,4945,1,4,0:0:0:0:
448,192,4945,1,0,0:0:0:0:
64,192,5138,1,0,0:0:0:0:
448,192,5235,1,0,0:0:0:0:
448,192,5429,1,0,0:0:0:0:
64,192,5525,1,0,0:0:0:0:
320,192,5719,1,0,0:0:0:0:
192,192,5816,1,0,0:0:0:0:
448,192,5912,1,0,0:0:0:0:
320,192,6009,1,0,0:0:0:0:
448,192,6106,1,0,0:0:0:0:
192,192,6106,1,4,0:0:0:0:
64,192,6106,1,2,0:0:0:0:
64,192,6493,1,2,0:0:0:0:
320,192,6493,1,4,0:0:0:0:
448,192,6493,1,0,0:0:0:0:
192,192,6687,1,0,0:0:0:0:
448,192,6783,1,0,0:0:0:0:
192,192,6880,1,2,0:0:0:0:
320,192,6880,1,0,0:0:0:0:
64,192,6977,1,0,0:0:0:0:
320,192,7074,1,0,0:0:0:0:
192,192,7267,1,2,0:0:0:0:
448,192,7267,1,0,0:0:0:0:
64,192,7364,1,0,0:0:0:0:
320,192,7461,1,0,0:0:0:0:
448,192,7558,1,0,0:0:0:0:
64,192,7654,1,0,0:0:0:0:
192,192,7654,1,2,0:0:0:0:
448,192,7848,1,0,0:0:0:0:
320,192,8041,1,0,0:0:0:0:
192,192,8041,1,4,0:0:0:0:
64,192,8041,1,2,0:0:0:0:
448,192,8235,1,0,0:0:0:0:
192,192,8332,1,0,0:0:0:0:
448,192,8429,1,0,0:0:0:0:
64,192,8429,1,2,0:0:0:0:
320,192,8525,1,0,0:0:0:0:
64,192,8622,1,0,0:0:0:0:
448,192,8816,1,0,0:0:0:0:
192,192,8816,1,2,0:0:0:0:
64,192,8912,1,0,0:0:0:0:
320,192,9009,1,0,0:0:0:0:
192,192,9106,1,0,0:0:0:0:
64,192,9203,1,2,0:0:0:0:
320,192,9203,1,4,0:0:0:0:
448,192,9203,1,0,0:0:0:0:
320,192,9590,1,0,0:0:0:0:
192,192,9590,1,4,0:0:0:0:
64,192,9590,1,2,0:0:0:0:
448,192,9783,1,0,0:0:0:0:
192,192,9880,1,0,0:0:0:0:
64,192,9977,1,2,0:0:0:0:
320,192,9977,1,0,0:0:0:0:
448,192,10074,1,0,0:0:0:0:
192,192,10170,1,0,0:0:0:0:
64,192,10364,1,2,0:0:0:0:
320,192,10364,1,0,0:0:0:0:
448,192,10461,1,0,0:0:0:0:
192,192,10558,1,0,0:0:0:0:
320,192,10654,1,0,0:0:0:0:
448,192,10751,1,0,0:0:0:0:
192,192,10751,1,2,0:0:0:0:
64,192,10848,1,0,0:0:0:0:
320,192,10945,1,0,0:0:0:0:
448,192,11138,1,0,0:0:0:0:
192,192,11138,1,8,0:0:0:0:
64,192,11138,1,2,0:0:0:0:
320,192,11332,1,2,0:0:0:0:
448,192,11332,1,8,0:0:0:0:
448,192,11429,1,8,0:0:0:0:
320,192,11429,1,2,0:0:0:0:
64,192,11622,1,0,0:0:0:0:
192,192,11622,1,8,0:0:0:0:
192,192,11719,1,8,0:0:0:0:
64,192,11719,1,0,0:0:0:0:
320,192,11816,1,0,0:0:0:0:
448,192,11816,1,8,0:0:0:0:
448,192,11912,1,2,0:0:0:0:
320,192,11912,1,8,0:0:0:0:
64,192,11912,1,0,0:0:0:0:
320,192,12299,1,0,0:0:0:0:
448,192,12299,1,8,0:0:0:0:
320,192,12396,1,8,0:0:0:0:
448,192,12396,1,0,0:0:0:0:
192,192,12493,1,0,0:0:0:0:
64,192,12493,1,8,0:0:0:0:
192,192,12590,1,8,0:0:0:0:
64,192,12590,1,0,0:0:0:0:
64,192,12687,1,2,0:0:0:0:
320,192,12687,1,4,0:0:0:0:
448,192,12687,1,0,0:0:0:0:
192,192,12880,1,8,3:0:0:0:
448,192,12880,1,2,0:0:0:0:
320,192,12977,1,8,3:0:0:0:
448,192,13074,1,2,0:0:0:0:
64,192,13074,1,8,3:0:0:0:
192,192,13170,1,8,3:0:0:0:
64,192,13267,1,8,3:0:0:0:
320,192,13267,1,2,0:0:0:0:
192,192,13461,1,8,3:0:0:0:
448,192,13461,1,2,0:0:0:0:
320,192,13558,1,8,3:0:0:0:
64,192,13654,1,2,0:0:0:0:
448,192,13654,1,8,3:0:0:0:
192,192,13751,1,8,3:0:0:0:
320,192,13848,1,8,3:0:0:0:
64,192,13848,1,2,0:0:0:0:
64,192,14041,1,2,0:0:0:0:
192,192,14041,1,8,0:0:0:0:
448,192,14041,1,8,3:0:0:0:
64,192,14235,1,2,0:0:0:0:
320,192,14235,1,4,0:0:0:0:
448,192,14235,1,0,0:0:0:0:
320,192,14429,1,8,3:0:0:0:
192,192,14429,1,2,0:0:0:0:
64,192,14525,1,8,3:0:0:0:
192,192,14622,1,8,3:0:0:0:
448,192,14622,1,2,0:0:0:0:
320,192,14719,1,8,3:0:0:0:
448,192,14816,1,8,3:0:0:0:
64,192,14816,1,2,0:0:0:0:
320,192,15009,1,8,3:0:0:0:
192,192,15009,1,2,0:0:0:0:
448,192,15106,1,8,3:0:0:0:
64,192,15203,1,2,0:0:0:0:
320,192,15203,1,8,3:0:0:0:
192,192,15299,1,8,3:0:0:0:
448,192,15396,1,8,3:0:0:0:
64,192,15396,1,2,0:0:0:0:
448,192,15590,1,2,0:0:0:0:
192,192,15590,1,8,0:0:0:0:
320,192,15590,1,8,3:0:0:0:
320,192,15783,1,0,0:0:0:0:
192,192,15783,1,4,0:0:0:0:
64,192,15783,1,2,0:0:0:0:
64,192,15977,1,2,0:0:0:0:
448,192,15977,1,8,3:0:0:0:
320,192,16074,1,8,3:0:0:0:
448,192,16170,1,2,0:0:0:0:
192,192,16170,1,8,3:0:0:0:
320,192,16267,1,8,3:0:0:0:
192,192,16364,1,2,0:0:0:0:
64,192,16364,1,8,3:0:0:0:
448,192,16558,1,2,0:0:0:0:
320,192,16558,1,8,3:0:0:0:
192,192,16654,1,8,3:0:0:0:
320,192,16751,1,8,3:0:0:0:
64,192,16751,1,2,0:0:0:0:
192,192,16848,1,8,3:0:0:0:
64,192,16945,1,2,0:0:0:0:
448,192,16945,1,8,3:0:0:0:
448,192,17138,1,8,3:0:0:0:
192,192,17138,1,8,0:0:0:0:
320,192,17138,1,2,0:0:0:0:
64,192,17332,1,2,0:0:0:0:
192,192,17332,1,4,0:0:0:0:
320,192,17332,1,0,0:0:0:0:
448,192,17525,1,8,3:0:0:0:
64,192,17525,1,2,0:0:0:0:
320,192,17622,1,8,3:0:0:0:
448,192,17719,1,8,3:0:0:0:
192,192,17719,1,2,0:0:0:0:
64,192,17816,1,8,3:0:0:0:
320,192,17912,1,8,3:0:0:0:
192,192,17912,1,2,0:0:0:0:
448,192,18106,1,8,3:0:0:0:
64,192,18106,1,2,0:0:0:0:
192,192,18203,1,8,3:0:0:0:
64,192,18299,1,2,0:0:0:0:
320,192,18299,1,8,3:0:0:0:
448,192,18396,1,8,3:0:0:0:
320,192,18493,1,8,3:0:0:0:
192,192,18493,1,2,0:0:0:0:
64,192,18687,1,2,0:0:0:0:
192,192,18687,1,8,0:0:0:0:
448,192,18687,1,8,3:0:0:0:
448,192,18880,1,0,0:0:0:0:
320,192,18880,1,4,0:0:0:0:
64,192,18880,1,2,0:0:0:0:
192,192,19074,1,2,0:0:0:0:
320,192,19074,1,8,3:0:0:0:
64,192,19170,1,8,3:0:0:0:
448,192,19267,1,2,0:0:0:0:
320,192,19267,1,8,3:0:0:0:
192,192,19364,1,8,3:0:0:0:
64,192,19461,1,2,0:0:0:0:
448,192,19461,1,8,3:0:0:0:
320,192,19654,1,2,0:0:0:0:
192,192,19654,1,8,3:0:0:0:
448,192,19751,1,8,3:0:0:0:
64,192,19848,1,8,3:0:0:0:
192,192,19848,1,2,0:0:0:0:
320,192,19945,1,8,3:0:0:0:
64,192,20041,1,2,0:0:0:0:
448,192,20041,1,8,3:0:0:0:
320,192,20235,1,8,3:0:0:0:
192,192,20235,1,8,0:0:0:0:
448,192,20235,1,2,0:0:0:0:
64,192,20429,1,2,0:0:0:0:
192,192,20429,1,4,0:0:0:0:
320,192,20429,1,0,0:0:0:0:
448,192,20622,1,8,3:0:0:0:
64,192,20622,1,2,0:0:0:0:
320,192,20719,1,8,3:0:0:0:
192,192,20816,1,8,3:0:0:0:
64,192,20816,1,2,0:0:0:0:
448,192,20912,1,8,3:0:0:0:
320,192,21009,1,8,3:0:0:0:
192,192,21009,1,2,0:0:0:0:
448,192,21203,1,8,3:0:0:0:
64,192,21203,1,2,0:0:0:0:
192,192,21299,1,8,3:0:0:0:
448,192,21396,1,2,0:0:0:0:
320,192,21396,1,8,3:0:0:0:
64,192,21493,1,8,3:0:0:0:
320,192,21590,1,8,3:0:0:0:
192,192,21590,1,2,0:0:0:0:
64,192,21783,1,2,0:0:0:0:
192,192,21783,1,8,0:0:0:0:
448,192,21783,1,8,3:0:0:0:
64,192,21977,1,0,0:0:0:0:
320,192,21977,1,4,0:0:0:0:
448,192,21977,1,2,0:0:0:0:
448,192,22170,1,2,0:0:0:0:
192,192,22170,1,8,3:0:0:0:
320,192,22267,1,8,3:0:0:0:
64,192,22364,1,2,0:0:0:0:
192,192,22364,1,8,3:0:0:0:
320,192,22461,1,8,3:0:0:0:
448,192,22558,1,2,0:0:0:0:
192,192,22558,1,8,3:0:0:0:
64,192,22751,1,2,0:0:0:0:
320,192,22751,1,8,3:0:0:0:
192,192,22848,1,8,3:0:0:0:
320,192,22945,1,8,3:0:0:0:
448,192,22945,1,2,0:0:0:0:
192,192,23041,1,8,3:0:0:0:
64,192,23138,1,2,0:0:0:0:
320,192,23138,1,8,3:0:0:0:
448,192,23332,1,8,3:0:0:0:
192,192,23332,1,8,0:0:0:0:
64,192,23332,1,2,0:0:0:0:
64,192,23525,1,2,0:0:0:0:
320,192,23525,1,4,0:0:0:0:
448,192,23525,1,0,0:0:0:0:
448,192,23719,1,8,3:0:0:0:
192,192,23719,1,2,0:0:0:0:
64,192,23816,1,8,3:0:0:0:
320,192,23912,1,8,3:0:0:0:
192,192,23912,1,2,0:0:0:0:
448,192,24009,1,8,3:0:0:0:
320,192,24106,1,8,3:0:0:0:
64,192,24106,1,2,0:0:0:0:
192,192,24299,1,2,0:0:0:0:
320,192,24396,1,2,0:0:0:0:
448,192,24396,1,8,0:0:0:0:
192,192,24493,1,8,0:0:0:0:
64,192,24493,1,2,0:0:0:0:
320,192,24590,1,2,0:0:0:0:
448,192,24590,1,8,0:0:0:0:
64,192,24687,1,2,0:0:0:0:
192,192,24687,1,8,0:0:0:0:
448,192,24783,1,8,0:0:0:0:
320,192,24783,1,2,0:0:0:0:
192,192,24880,1,8,0:0:0:0:
64,192,24880,1,2,0:0:0:0:
320,192,24977,1,2,0:0:0:0:
448,192,24977,1,8,0:0:0:0:
64,192,25074,1,2,0:0:0:0:
192,192,25074,1,4,0:0:0:0:
320,192,25074,1,0,0:0:0:0:
448,192,25170,1,0,0:0:0:0:
192,192,25267,1,8,0:0:0:0:
64,192,25267,1,2,0:0:0:0:
448,192,25364,1,0,0:0:0:0:
320,192,25364,1,2,0:0:0:0:
64,192,25461,1,0,0:0:0:0:
320,192,25558,1,2,0:0:0:0:
192,192,25558,1,0,0:0:0:0:
448,192,25654,1,8,0:0:0:0:
64,192,25654,1,2,0:0:0:0:
320,192,25751,1,0,0:0:0:0:
192,192,25848,1,2,0:0:0:0:
448,192,25848,1,0,0:0:0:0:
64,192,25945,1,0,0:0:0:0:
448,192,26041,1,8,0:0:0:0:
320,192,26041,1,2,0:0:0:0:
64,192,26138,1,2,0:0:0:0:
192,192,26138,1,0,0:0:0:0:
448,192,26235,1,0,0:0:0:0:
320,192,26332,1,2,0:0:0:0:
64,192,26332,1,0,0:0:0:0:
192,192,26429,1,2,0:0:0:0:
448,192,26429,1,8,0:0:0:0:
64,192,26525,1,0,0:0:0:0:
320,192,26622,1,0,0:0:0:0:
192,192,26622,1,2,0:0:0:0:
448,192,26719,1,0,0:0:0:0:
64,192,26816,1,2,0:0:0:0:
192,192,26816,1,8,0:0:0:0:
448,192,26912,1,0,0:0:0:0:
320,192,26912,1,2,0:0:0:0:
192,192,27009,1,0,0:0:0:0:
64,192,27106,1,0,0:0:0:0:
448,192,27106,1,2,0:0:0:0:
320,192,27203,1,8,0:0:0:0:
192,192,27203,1,2,0:0:0:0:
448,192,27299,1,0,0:0:0:0:
192,192,27396,1,2,0:0:0:0:
64,192,27396,1,0,0:0:0:0:
320,192,27493,1,0,0:0:0:0:
448,192,27590,1,8,0:0:0:0:
64,192,27590,1,2,0:0:0:0:
320,192,27687,1,2,0:0:0:0:
192,192,27687,1,0,0:0:0:0:
64,192,27783,1,0,0:0:0:0:
320,192,27880,1,2,0:0:0:0:
448,192,27880,1,0,0:0:0:0:
64,192,27977,1,2,0:0:0:0:
192,192,27977,1,8,0:0:0:0:
320,192,28074,1,0,0:0:0:0:
448,192,28170,1,0,0:0:0:0:
192,192,28170,1,2,0:0:0:0:
64,192,28267,1,0,0:0:0:0:
320,192,28364,1,2,0:0:0:0:
192,192,28364,1,8,0:0:0:0:
64,192,28461,1,0,0:0:0:0:
448,192,28461,1,2,0:0:0:0:
320,192,28558,1,0,0:0:0:0:
192,192,28654,1,0,0:0:0:0:
448,192,28654,1,2,0:0:0:0:
320,192,28751,1,8,0:0:0:0:
64,192,28751,1,2,0:0:0:0:
192,192,28848,1,0,0:0:0:0:
64,192,28945,1,2,0:0:0:0:
448,192,28945,1,0,0:0:0:0:
320,192,29041,1,0,0:0:0:0:
64,192,29138,1,8,0:0:0:0:
192,192,29138,1,2,0:0:0:0:
320,192,29235,1,2,0:0:0:0:
448,192,29235,1,0,0:0:0:0:
192,192,29332,1,0,0:0:0:0:
448,192,29429,1,2,0:0:0:0:
64,192,29429,1,0,0:0:0:0:
192,192,29525,1,2,0:0:0:0:
320,192,29525,1,8,0:0:0:0:
448,192,29622,1,0,0:0:0:0:
64,192,29719,1,0,0:0:0:0:
192,192,29719,1,2,0:0:0:0:
320,192,29816,1,0,0:0:0:0:
192,192,29912,1,2,0:0:0:0:
448,192,29912,1,8,0:0:0:0:
64,192,30009,1,0,0:0:0:0:
320,192,30009,1,2,0:0:0:0:
448,192,30106,1,0,0:0:0:0:
192,192,30203,1,0,0:0:0:0:
64,192,30203,1,2,0:0:0:0:
448,192,30299,1,8,0:0:0:0:
320,192,30299,1,2,0:0:0:0:
64,192,30396,1,0,0:0:0:0:
192,192,30493,1,2,0:0:0:0:
320,192,30493,1,0,0:0:0:0:
448,192,30590,1,0,0:0:0:0:
64,192,30687,1,2,0:0:0:0:
192,192,30687,1,8,0:0:0:0:
192,192,30783,1,8,0:0:0:0:
64,192,30783,1,2,0:0:0:0:
320,192,30880,1,2,0:0:0:0:
448,192,30880,1,8,0:0:0:0:
448,192,30977,1,8,0:0:0:0:
320,192,30977,1,2,0:0:0:0:
64,192,31074,1,2,0:0:0:0:
192,192,31074,1,8,0:0:0:0:
192,192,31170,1,8,0:0:0:0:
64,192,31170,1,2,0:0:0:0:
448,192,31267,1,2,0:0:0:0:
320,192,31267,1,4,0:0:0:0:
192,192,31267,1,0,0:0:0:0:
64,192,31364,1,0,0:0:0:0:
320,192,31461,1,8,0:0:0:0:
448,192,31461,1,2,0:0:0:0:
64,192,31558,1,0,0:0:0:0:
192,192,31558,1,2,0:0:0:0:
448,192,31654,1,0,0:0:0:0:
192,192,31751,1,2,0:0:0:0:
320,192,31751,1,0,0:0:0:0:
64,192,31848,1,8,0:0:0:0:
448,192,31848,1,2,0:0:0:0:
192,192,31945,1,0,0:0:0:0:
320,192,32041,1,2,0:0:0:0:
64,192,32041,1,0,0:0:0:0:
448,192,32138,1,0,0:0:0:0:
64,192,32235,1,8,0:0:0:0:
192,192,32235,1,2,0:0:0:0:
448,192,32332,1,2,0:0:0:0:
320,192,32332,1,0,0:0:0:0:
64,192,32429,1,0,0:0:0:0:
192,192,32525,1,2,0:0:0:0:
448,192,32525,1,0,0:0:0:0:
320,192,32622,1,2,0:0:0:0:
64,192,32622,1,8,0:0:0:0:
448,192,32719,1,0,0:0:0:0:
192,192,32816,1,0,0:0:0:0:
320,192,32816,1,2,0:0:0:0:
64,192,32912,1,0,0:0:0:0:
448,192,33009,1,2,0:0:0:0:
320,192,33009,1,8,0:0:0:0:
64,192,33106,1,0,0:0:0:0:
192,192,33106,1,2,0:0:0:0:
320,192,33203,1,0,0:0:0:0:
448,192,33299,1,0,0:0:0:0:
64,192,33299,1,2,0:0:0:0:
192,192,33396,1,8,0:0:0:0:
320,192,33396,1,2,0:0:0:0:
64,192,33493,1,0,0:0:0:0:
320,192,33590,1,2,0:0:0:0:
448,192,33590,1,0,0:0:0:0:
192,192,33687,1,0,0:0:0:0:
64,192,33783,1,8,0:0:0:0:
448,192,33783,1,2,0:0:0:0:
192,192,33880,1,2,0:0:0:0:
320,192,33880,1,0,0:0:0:0:
448,192,33977,1,0,0:0:0:0:
192,192,34074,1,2,0:0:0:0:
64,192,34074,1,0,0:0:0:0:
448,192,34170,1,2,0:0:0:0:
320,192,34170,1,8,0:0:0:0:
192,192,34267,1,0,0:0:0:0:
64,192,34364,1,0,0:0:0:0:
320,192,34364,1,2,0:0:0:0:
448,192,34461,1,0,0:0:0:0:
192,192,34558,1,2,0:0:0:0:
320,192,34558,1,8,0:0:0:0:
448,192,34654,1,0,0:0:0:0:
64,192,34654,1,2,0:0:0:0:
192,192,34751,1,0,0:0:0:0:
320,192,34848,1,0,0:0:0:0:
64,192,34848,1,2,0:0:0:0:
192,192,34945,1,8,0:0:0:0:
448,192,34945,1,2,0:0:0:0:
320,192,35041,1,0,0:0:0:0:
448,192,35138,1,2,0:0:0:0:
64,192,35138,1,0,0:0:0:0:
192,192,35235,1,0,0:0:0:0:
448,192,35332,1,8,0:0:0:0:
320,192,35332,1,2,0:0:0:0:
192,192,35429,1,2,0:0:0:0:
64,192,35429,1,0,0:0:0:0:
320,192,35525,1,0,0:0:0:0:
64,192,35622,1,2,0:0:0:0:
448,192,35622,1,0,0:0:0:0:
320,192,35719,1,2,0:0:0:0:
192,192,35719,1,8,0:0:0:0:
64,192,35816,1,0,0:0:0:0:
448,192,35912,1,0,0:0:0:0:
320,192,35912,1,2,0:0:0:0:
192,192,36009,1,0,0:0:0:0:
320,192,36106,1,2,0:0:0:0:
64,192,36106,1,8,0:0:0:0:
448,192,36203,1,0,0:0:0:0:
192,192,36203,1,2,0:0:0:0:
64,192,36299,1,0,0:0:0:0:
320,192,36396,1,0,0:0:0:0:
448,192,36396,1,2,0:0:0:0:
64,192,36493,1,8,0:0:0:0:
192,192,36493,1,2,0:0:0:0:
448,192,36590,1,0,0:0:0:0:
320,192,36687,1,2,0:0:0:0:
192,192,36687,1,0,0:0:0:0:
64,192,36783,1,0,0:0:0:0:
448,192,36880,1,2,0:0:0:0:
320,192,36880,1,8,0:0:0:0:
320,192,36977,1,8,0:0:0:0:
448,192,36977,1,2,0:0:0:0:
192,192,37074,1,2,0:0:0:0:
64,192,37074,1,8,0:0:0:0:
64,192,37170,1,8,0:0:0:0:
192,192,37170,1,2,0:0:0:0:
448,192,37267,1,2,0:0:0:0:
320,192,37267,1,8,0:0:0:0:
320,192,37364,1,8,0:0:0:0:
448,192,37364,1,2,0:0:0:0:
448,192,37461,1,2,0:0:0:0:
192,192,37461,1,4,0:0:0:0:
64,192,37461,1,0,0:0:0:0:
320,192,37654,1,8,3:0:0:0:
64,192,37654,1,2,0:0:0:0:
192,192,37751,1,8,3:0:0:0:
448,192,37848,1,8,3:0:0:0:
64,192,37848,1,2,0:0:0:0:
320,192,37945,1,8,3:0:0:0:
448,192,38041,1,8,3:0:0:0:
192,192,38041,1,2,0:0:0:0:
320,192,38235,1,8,3:0:0:0:
64,192,38235,1,2,0:0:0:0:
192,192,38332,1,8,3:0:0:0:
448,192,38429,1,2,0:0:0:0:
64,192,38429,1,8,3:0:0:0:
320,192,38525,1,8,3:0:0:0:
192,192,38622,1,8,3:0:0:0:
448,192,38622,1,2,0:0:0:0:
448,192,38816,1,2,0:0:0:0:
320,192,38816,1,8,0:0:0:0:
64,192,38816,1,8,3:0:0:0:
448,192,39009,1,2,0:0:0:0:
192,192,39009,1,4,0:0:0:0:
64,192,39009,1,0,0:0:0:0:
192,192,39203,1,8,3:0:0:0:
320,192,39203,1,2,0:0:0:0:
448,192,39299,1,8,3:0:0:0:
320,192,39396,1,8,3:0:0:0:
64,192,39396,1,2,0:0:0:0:
192,192,39493,1,8,3:0:0:0:
64,192,39590,1,8,3:0:0:0:
448,192,39590,1,2,0:0:0:0:
192,192,39783,1,8,3:0:0:0:
320,192,39783,1,2,0:0:0:0:
64,192,39880,1,8,3:0:0:0:
448,192,39977,1,2,0:0:0:0:
192,192,39977,1,8,3:0:0:0:
320,192,40074,1,8,3:0:0:0:
64,192,40170,1,8,3:0:0:0:
448,192,40170,1,2,0:0:0:0:
64,192,40364,1,2,0:0:0:0:
320,192,40364,1,8,0:0:0:0:
192,192,40364,1,8,3:0:0:0:
192,192,40558,1,0,0:0:0:0:
320,192,40558,1,4,0:0:0:0:
448,192,40558,1,2,0:0:0:0:
448,192,40751,1,2,0:0:0:0:
64,192,40751,1,8,3:0:0:0:
192,192,40848,1,8,3:0:0:0:
64,192,40945,1,2,0:0:0:0:
320,192,40945,1,8,3:0:0:0:
192,192,41041,1,8,3:0:0:0:
320,192,41138,1,2,0:0:0:0:
448,192,41138,1,8,3:0:0:0:
64,192,41332,1,2,0:0:0:0:
192,192,41332,1,8,3:0:0:0:
320,192,41429,1,8,3:0:0:0:
192,192,41525,1,8,3:0:0:0:
448,192,41525,1,2,0:0:0:0:
320,192,41622,1,8,3:0:0:0:
448,192,41719,1,2,0:0:0:0:
64,192,41719,1,8,3:0:0:0:
64,192,41912,1,8,3:0:0:0:
320,192,41912,1,8,0:0:0:0:
192,192,41912,1,2,0:0:0:0:
448,192,42106,1,2,0:0:0:0:
320,192,42106,1,4,0:0:0:0:
192,192,42106,1,0,0:0:0:0:
64,192,42299,1,8,3:0:0:0:
448,192,42299,1,2,0:0:0:0:
192,192,42396,1,8,3:0:0:0:
64,192,42493,1,8,3:0:0:0:
320,192,42493,1,2,0:0:0:0:
448,192,42590,1,8,3:0:0:0:
192,192,42687,1,8,3:0:0:0:
320,192,42687,1,2,0:0:0:0:
64,192,42880,1,8,3:0:0:0:
448,192,42880,1,2,0:0:0:0:
320,192,42977,1,8,3:0:0:0:
448,192,43074,1,2,0:0:0:0:
192,192,43074,1,8,3:0:0:0:
64,192,43170,1,8,3:0:0:0:
192,192,43267,1,8,3:0:0:0:
320,192,43267,1,2,0:0:0:0:
448,192,43461,1,2,0:0:0:0:
320,192,43461,1,8,0:0:0:0:
64,192,43461,1,8,3:0:0:0:
64,192,43654,1,0,0:0:0:0:
192,192,43654,1,4,0:0:0:0:
448,192,43654,1,2,0:0:0:0:
320,192,43848,1,2,0:0:0:0:
192,192,43848,1,8,3:0:0:0:
448,192,43945,1,8,3:0:0:0:
64,192,44041,1,2,0:0:0:0:
192,192,44041,1,8,3:0:0:0:
320,192,44138,1,8,3:0:0:0:
448,192,44235,1,2,0:0:0:0:
64,192,44235,1,8,3:0:0:0:
192,192,44429,1,2,0:0:0:0:
320,192,44429,1,8,3:0:0:0:
64,192,44525,1,8,3:0:0:0:
448,192,44622,1,8,3:0:0:0:
320,192,44622,1,2,0:0:0:0:
192,192,44719,1,8,3:0:0:0:
448,192,44816,1,2,0:0:0:0:
64,192,44816,1,8,3:0:0:0:
192,192,45009,1,8,3:0:0:0:
320,192,45009,1,8,0:0:0:0:
64,192,45009,1,2,0:0:0:0:
448,192,45203,1,2,0:0:0:0:
320,192,45203,1,4,0:0:0:0:
192,192,45203,1,0,0:0:0:0:
64,192,45396,1,8,3:0:0:0:
448,192,45396,1,2,0:0:0:0:
192,192,45493,1,8,3:0:0:0:
320,192,45590,1,8,3:0:0:0:
448,192,45590,1,2,0:0:0:0:
64,192,45687,1,8,3:0:0:0:
192,192,45783,1,8,3:0:0:0:
320,192,45783,1,2,0:0:0:0:
64,192,45977,1,8,3:0:0:0:
448,192,45977,1,2,0:0:0:0:
320,192,46074,1,8,3:0:0:0:
64,192,46170,1,2,0:0:0:0:
192,192,46170,1,8,3:0:0:0:
448,192,46267,1,8,3:0:0:0:
192,192,46364,1,8,3:0:0:0:
320,192,46364,1,2,0:0:0:0:
448,192,46558,1,2,0:0:0:0:
320,192,46558,1,8,0:0:0:0:
64,192,46558,1,8,3:0:0:0:
448,192,46751,1,0,0:0:0:0:
192,192,46751,1,4,0:0:0:0:
64,192,46751,1,2,0:0:0:0:
64,192,46945,1,2,0:0:0:0:
320,192,46945,1,8,3:0:0:0:
192,192,47041,1,8,3:0:0:0:
448,192,47138,1,2,0:0:0:0:
320,192,47138,1,8,3:0:0:0:
192,192,47235,1,8,3:0:0:0:
64,192,47332,1,2,0:0:0:0:
320,192,47332,1,8,3:0:0:0:
448,192,47525,1,2,0:0:0:0:
192,192,47525,1,8,3:0:0:0:
320,192,47622,1,8,3:0:0:0:
192,192,47719,1,8,3:0:0:0:
64,192,47719,1,2,0:0:0:0:
320,192,47816,1,8,3:0:0:0:
448,192,47912,1,2,0:0:0:0:
192,192,47912,1,8,3:0:0:0:
64,192,48106,1,8,3:0:0:0:
320,192,48106,1,8,0:0:0:0:
448,192,48106,1,2,0:0:0:0:
448,192,48299,1,2,0:0:0:0:
192,192,48299,1,4,0:0:0:0:
64,192,48299,1,0,0:0:0:0:
64,192,48493,1,8,3:0:0:0:
320,192,48493,1,2,0:0:0:0:
448,192,48590,1,8,3:0:0:0:
192,192,48687,1,8,3:0:0:0:
320,192,48687,1,2,0:0:0:0:
64,192,48783,1,8,3:0:0:0:
192,192,48880,1,8,3:0:0:0:
448,192,48880,1,2,0:0:0:0:
320,192,49074,1,2,0:0:0:0:
192,192,49170,1,2,0:0:0:0:
64,192,49170,1,8,0:0:0:0:
320,192,49267,1,8,0:0:0:0:
448,192,49267,1,2,0:0:0:0:
192,192,49364,1,2,0:0:0:0:
64,192,49364,1,8,0:0:0:0:
448,192,49461,1,2,0:0:0:0:
320,192,49461,1,8,0:0:0:0:
64,192,49558,1,8,0:0:0:0:
192,192,49558,1,2,0:0:0:0:
320,192,49654,1,8,0:0:0:0:
448,192,49654,1,2,0:0:0:0:
192,192,49751,1,2,0:0:0:0:
64,192,49751,1,8,0:0:0:0:
448,192,49848,1,2,0:0:0:0:
320,192,49848,1,4,0:0:0:0:
192,192,49848,1,0,0:0:0:0:
64,192,49945,1,0,0:0:0:0:
320,192,50041,1,8,0:0:0:0:
448,192,50041,1,2,0:0:0:0:
64,192,50138,1,0,0:0:0:0:
192,192,50138,1,2,0:0:0:0:
448,192,50235,1,0,0:0:0:0:
192,192,50332,1,2,0:0:0:0:
320,192,50332,1,0,0:0:0:0:
64,192,50429,1,8,0:0:0:0:
448,192,50429,1,2,0:0:0:0:
192,192,50525,1,0,0:0:0:0:
320,192,50622,1,2,0:0:0:0:
64,192,50622,1,0,0:0:0:0:
448,192,50719,1,0,0:0:0:0:
64,192,50816,1,8,0:0:0:0:
192,192,50816,1,2,0:0:0:0:
448,192,50912,1,2,0:0:0:0:
320,192,50912,1,0,0:0:0:0:
64,192,51009,1,0,0:0:0:0:
192,192,51106,1,2,0:0:0:0:
448,192,51106,1,0,0:0:0:0:
320,192,51203,1,2,0:0:0:0:
64,192,51203,1,8,0:0:0:0:
448,192,51299,1,0,0:0:0:0:
192,192,51396,1,0,0:0:0:0:
320,192,51396,1,2,0:0:0:0:
64,192,51493,1,0,0:0:0:0:
448,192,51590,1,2,0:0:0:0:
320,192,51590,1,8,0:0:0:0:
64,192,51687,1,0,0:0:0:0:
192,192,51687,1,2,0:0:0:0:
320,192,51783,1,0,0:0:0:0:
448,192,51880,1,0,0:0:0:0:
64,192,51880,1,2,0:0:0:0:
192,192,51977,1,8,0:0:0:0:
320,192,51977,1,2,0:0:0:0:
64,192,52074,1,0,0:0:0:0:
320,192,52170,1,2,0:0:0:0:
448,192,52170,1,0,0:0:0:0:
192,192,52267,1,0,0:0:0:0:
64,192,52364,1,8,0:0:0:0:
448,192,52364,1,2,0:0:0:0:
192,192,52461,1,2,0:0:0:0:
320,192,52461,1,0,0:0:0:0:
448,192,52558,1,0,0:0:0:0:
192,192,52654,1,2,0:0:0:0:
64,192,52654,1,0,0:0:0:0:
448,192,52751,1,2,0:0:0:0:
320,192,52751,1,8,0:0:0:0:
192,192,52848,1,0,0:0:0:0:
64,192,52945,1,0,0:0:0:0:
320,192,52945,1,2,0:0:0:0:
448,192,53041,1,0,0:0:0:0:
192,192,53138,1,2,0:0:0:0:
320,192,53138,1,8,0:0:0:0:
448,192,53235,1,0,0:0:0:0:
64,192,53235,1,2,0:0:0:0:
192,192,53332,1,0,0:0:0:0:
320,192,53429,1,0,0:0:0:0:
64,192,53429,1,2,0:0:0:0:
192,192,53525,1,8,0:0:0:0:
448,192,53525,1,2,0:0:0:0:
320,192,53622,1,0,0:0:0:0:
448,192,53719,1,2,0:0:0:0:
64,192,53719,1,0,0:0:0:0:
192,192,53816,1,0,0:0:0:0:
448,192,53912,1,8,0:0:0:0:
320,192,53912,1,2,0:0:0:0:
192,192,54009,1,2,0:0:0:0:
64,192,54009,1,0,0:0:0:0:
320,192,54106,1,0,0:0:0:0:
64,192,54203,1,2,0:0:0:0:
448,192,54203,1,0,0:0:0:0:
320,192,54299,1,2,0:0:0:0:
192,192,54299,1,8,0:0:0:0:
64,192,54396,1,0,0:0:0:0:
448,192,54493,1,0,0:0:0:0:
320,192,54493,1,2,0:0:0:0:
192,192,54590,1,0,0:0:0:0:
320,192,54687,1,2,0:0:0:0:
64,192,54687,1,8,0:0:0:0:
448,192,54783,1,0,0:0:0:0:
192,192,54783,1,2,0:0:0:0:
64,192,54880,1,0,0:0:0:0:
320,192,54977,1,0,0:0:0:0:
448,192,54977,1,2,0:0:0:0:
64,192,55074,1,8,0:0:0:0:
192,192,55074,1,2,0:0:0:0:
448,192,55170,1,0,0:0:0:0:
320,192,55267,1,2,0:0:0:0:
192,192,55267,1,0,0:0:0:0:
64,192,55364,1,0,0:0:0:0:
448,192,55461,1,2,0:0:0:0:
320,192,55461,1,8,0:0:0:0:
320,192,55558,1,8,0:0:0:0:
448,192,55558,1,2,0:0:0:0:
192,192,55654,1,2,0:0:0:0:
64,192,55654,1,8,0:0:0:0:
64,192,55751,1,8,0:0:0:0:
192,192,55751,1,2,0:0:0:0:
448,192,55848,1,2,0:0:0:0:
320,192,55848,1,8,0:0:0:0:
320,192,55945,1,8,0:0:0:0:
448,192,55945,1,2,0:0:0:0:
64,192,56041,1,2,0:0:0:0:
192,192,56041,1,4,0:0:0:0:
320,192,56041,1,0,0:0:0:0:
448,192,56138,1,0,0:0:0:0:
192,192,56235,1,8,0:0:0:0:
64,192,56235,1,2,0:0:0:0:
448,192,56332,1,0,0:0:0:0:
320,192,56332,1,2,0:0:0:0:
64,192,56429,1,0,0:0:0:0:
320,192,56525,1,2,0:0:0:0:
192,192,56525,1,0,0:0:0:0:
448,192,56622,1,8,0:0:0:0:
64,192,56622,1,2,0:0:0:0:
320,192,56719,1,0,0:0:0:0:
192,192,56816,1,2,0:0:0:0:
448,192,56816,1,0,0:0:0:0:
64,192,56912,1,0,0:0:0:0:
448,192,57009,1,8,0:0:0:0:
320,192,57009,1,2,0:0:0:0:
64,192,57106,1,2,0:0:0:0:
192,192,57106,1,0,0:0:0:0:
448,192,57203,1,0,0:0:0:0:
320,192,57299,1,2,0:0:0:0:
64,192,57299,1,0,0:0:0:0:
192,192,57396,1,2,0:0:0:0:
448,192,57396,1,8,0:0:0:0:
64,192,57493,1,0,0:0:0:0:
320,192,57590,1,0,0:0:0:0:
192,192,57590,1,2,0:0:0:0:
448,192,57687,1,0,0:0:0:0:
64,192,57783,1,2,0:0:0:0:
192,192,57783,1,8,0:0:0:0:
448,192,57880,1,0,0:0:0:0:
320,192,57880,1,2,0:0:0:0:
192,192,57977,1,0,0:0:0:0:
64,192,58074,1,0,0:0:0:0:
448,192,58074,1,2,0:0:0:0:
320,192,58170,1,8,0:0:0:0:
192,192,58170,1,2,0:0:0:0:
448,192,58267,1,0,0:0:0:0:
192,192,58364,1,2,0:0:0:0:
64,192,58364,1,0,0:0:0:0:
320,192,58461,1,0,0:0:0:0:
448,192,58558,1,8,0:0:0:0:
64,192,58558,1,2,0:0:0:0:
320,192,58654,1,2,0:0:0:0:
192,192,58654,1,0,0:0:0:0:
64,192,58751,1,0,0:0:0:0:
320,192,58848,1,2,0:0:0:0:
448,192,58848,1,0,0:0:0:0:
64,192,58945,1,2,0:0:0:0:
192,192,58945,1,8,0:0:0:0:
320,192,59041,1,0,0:0:0:0:
448,192,59138,1,0,0:0:0:0:
192,192,59138,1,2,0:0:0:0:
64,192,59235,1,0,0:0:0:0:
320,192,59332,1,2,0:0:0:0:
192,192,59332,1,8,0:0:0:0:
64,192,59429,1,0,0:0:0:0:
448,192,59429,1,2,0:0:0:0:
320,192,59525,1,0,0:0:0:0:
192,192,59622,1,0,0:0:0:0:
448,192,59622,1,2,0:0:0:0:
320,192,59719,1,8,0:0:0:0:
64,192,59719,1,2,0:0:0:0:
192,192,59816,1,0,0:0:0:0:
64,192,59912,1,2,0:0:0:0:
448,192,59912,1,0,0:0:0:0:
320,192,60009,1,0,0:0:0:0:
64,192,60106,1,8,0:0:0:0:
192,192,60106,1,2,0:0:0:0:
320,192,60203,1,2,0:0:0:0:
448,192,60203,1,0,0:0:0:0:
192,192,60299,1,0,0:0:0:0:
448,192,60396,1,2,0:0:0:0:
64,192,60396,1,0,0:0:0:0:
192,192,60493,1,2,0:0:0:0:
320,192,60493,1,8,0:0:0:0:
448,192,60590,1,0,0:0:0:0:
64,192,60687,1,0,0:0:0:0:
192,192,60687,1,2,0:0:0:0:
320,192,60783,1,0,0:0:0:0:
192,192,60880,1,2,0:0:0:0:
448,192,60880,1,8,0:0:0:0:
64,192,60977,1,0,0:0:0:0:
320,192,60977,1,2,0:0:0:0:
448,192,61074,1,0,0:0:0:0:
192,192,61170,1,0,0:0:0:0:
64,192,61170,1,2,0:0:0:0:
448,192,61267,1,8,0:0:0:0:
320,192,61267,1,2,0:0:0:0:
64,192,61364,1,0,0:0:0:0:
192,192,61461,1,2,0:0:0:0:
320,192,61461,1,0,0:0:0:0:
448,192,61461,1,4,0:0:0:0:
64,192,61654,1,2,0:0:0:0:
192,192,61654,1,4,3:0:0:0:
320,192,61654,1,8,3:0:0:0:
448,192,61848,1,4,3:0:0:0:
64,192,61848,1,2,0:0:0:0:
192,192,61848,1,8,3:0:0:0:
320,192,62041,1,2,0:0:0:0:
448,192,62041,1,4,3:0:0:0:
64,192,62041,1,8,3:0:0:0:
64,192,62235,1,2,0:0:0:0:
192,192,62235,1,4,3:0:0:0:
448,192,62332,1,4,3:0:0:0:
320,192,62332,1,2,0:0:0:0:
448,192,62525,1,2,0:0:0:0:
64,192,62525,1,8,0:0:0:0:
192,192,62525,1,4,3:0:0:0:
320,192,62622,1,2,0:0:0:0:
192,192,62816,1,8,0:0:0:0:
64,192,62816,1,4,3:0:0:0:
448,192,62816,1,2,0:0:0:0:
448,192,63009,1,4,3:0:0:0:
320,192,63009,1,2,0:0:0:0:
64,192,63106,1,4,3:0:0:0:
192,192,63106,1,2,0:0:0:0:
448,192,63299,1,8,0:0:0:0:
64,192,63299,1,2,0:0:0:0:
320,192,63299,1,4,3:0:0:0:
192,192,63396,1,2,0:0:0:0:
320,192,63590,1,8,0:0:0:0:
64,192,63590,1,2,0:0:0:0:
448,192,63590,1,4,3:0:0:0:
448,192,63783,1,4,3:0:0:0:
192,192,63783,1,2,0:0:0:0:
320,192,63880,1,2,0:0:0:0:
64,192,63880,1,4,3:0:0:0:
192,192,64074,1,2,0:0:0:0:
320,192,64074,1,8,0:0:0:0:
448,192,64074,1,4,3:0:0:0:
64,192,64170,1,2,0:0:0:0:
448,192,64364,1,4,3:0:0:0:
192,192,64364,1,2,0:0:0:0:
320,192,64364,1,8,0:0:0:0:
320,192,64558,1,2,0:0:0:0:
64,192,64558,1,4,3:0:0:0:
448,192,64654,1,4,3:0:0:0:
192,192,64654,1,2,0:0:0:0:
320,192,64848,1,8,0:0:0:0:
192,192,64848,1,2,0:0:0:0:
64,192,64848,1,4,3:0:0:0:
448,192,64945,1,2,0:0:0:0:
320,192,65138,1,8,0:0:0:0:
192,192,65138,1,2,0:0:0:0:
64,192,65138,1,4,3:0:0:0:
448,192,65332,1,4,3:0:0:0:
320,192,65332,1,2,0:0:0:0:
192,192,65429,1,2,0:0:0:0:
64,192,65429,1,4,3:0:0:0:
64,192,65622,1,2,0:0:0:0:
448,192,65622,1,4,3:0:0:0:
320,192,65622,1,8,0:0:0:0:
192,192,65719,1,2,0:0:0:0:
448,192,65912,1,4,3:0:0:0:
320,192,65912,1,2,0:0:0:0:
64,192,65912,1,8,0:0:0:0:
192,192,66106,1,2,0:0:0:0:
448,192,66106,1,4,3:0:0:0:
64,192,66203,1,4,3:0:0:0:
320,192,66203,1,2,0:0:0:0:
192,192,66396,1,8,0:0:0:0:
64,192,66396,1,2,0:0:0:0:
448,192,66396,1,4,3:0:0:0:
320,192,66493,1,2,0:0:0:0:
192,192,66687,1,8,0:0:0:0:
64,192,66687,1,2,0:0:0:0:
448,192,66687,1,4,3:0:0:0:
192,192,66880,1,4,3:0:0:0:
320,192,66880,1,2,0:0:0:0:
448,192,66977,1,2,0:0:0:0:
64,192,66977,1,4,3:0:0:0:
448,192,67170,1,2,0:0:0:0:
320,192,67170,1,8,0:0:0:0:
64,192,67170,1,4,3:0:0:0:
192,192,67267,1,2,0:0:0:0:
64,192,67461,1,4,3:0:0:0:
448,192,67461,1,2,0:0:0:0:
320,192,67461,1,8,0:0:0:0:
320,192,67654,1,2,0:0:0:0:
448,192,67654,1,4,3:0:0:0:
192,192,67751,1,2,0:0:0:0:
64,192,67751,1,4,3:0:0:0:
64,192,67945,1,4,3:0:0:0:
320,192,67945,1,8,0:0:0:0:
448,192,67945,1,2,0:0:0:0:
192,192,68041,1,2,0:0:0:0:
320,192,68235,1,8,3:0:0:0:
448,192,68235,1,2,0:0:0:0:
320,192,68332,1,8,3:0:0:0:
448,192,68332,1,2,0:0:0:0:
192,192,68429,1,2,0:0:0:0:
64,192,68429,1,4,0:0:0:0:
448,192,68429,1,0,0:0:0:0:
64,192,68719,1,2,0:0:0:0:
448,192,68719,1,8,0:0:0:0:
320,192,68719,1,4,3:0:0:0:
192,192,68816,1,2,0:0:0:0:
320,192,69009,1,8,0:0:0:0:
448,192,69009,1,4,3:0:0:0:
64,192,69009,1,2,0:0:0:0:
64,192,69203,1,4,3:0:0:0:
192,192,69203,1,2,0:0:0:0:
448,192,69299,1,4,3:0:0:0:
320,192,69299,1,2,0:0:0:0:
64,192,69493,1,8,0:0:0:0:
448,192,69493,1,2,0:0:0:0:
192,192,69493,1,4,3:0:0:0:
320,192,69590,1,2,0:0:0:0:
192,192,69783,1,8,0:0:0:0:
448,192,69783,1,2,0:0:0:0:
64,192,69783,1,4,3:0:0:0:
64,192,69977,1,4,3:0:0:0:
320,192,69977,1,2,0:0:0:0:
192,192,70074,1,2,0:0:0:0:
448,192,70074,1,4,3:0:0:0:
320,192,70267,1,2,0:0:0:0:
192,192,70267,1,8,0:0:0:0:
64,192,70267,1,4,3:0:0:0:
448,192,70364,1,2,0:0:0:0:
64,192,70558,1,4,3:0:0:0:
320,192,70558,1,2,0:0:0:0:
192,192,70558,1,8,0:0:0:0:
192,192,70751,1,2,0:0:0:0:
448,192,70751,1,4,3:0:0:0:
64,192,70848,1,4,3:0:0:0:
320,192,70848,1,2,0:0:0:0:
192,192,71041,1,8,0:0:0:0:
320,192,71041,1,2,0:0:0:0:
448,192,71041,1,4,3:0:0:0:
64,192,71138,1,2,0:0:0:0:
192,192,71332,1,8,0:0:0:0:
320,192,71332,1,2,0:0:0:0:
448,192,71332,1,4,3:0:0:0:
64,192,71525,1,8,0:0:0:0:
448,192,71525,1,2,0:0:0:0:
320,192,71622,1,2,0:0:0:0:
192,192,71719,1,2,0:0:0:0:
320,192,71816,1,2,0:0:0:0:
448,192,71816,1,4,0:0:0:0:
64,192,71816,1,8,0:0:0:0:
192,192,72009,1,2,0:0:0:0:
64,192,72106,1,8,0:0:0:0:
320,192,72106,1,2,0:0:0:0:
448,192,72106,1,4,0:0:0:0:
448,192,72299,1,8,0:0:0:0:
64,192,72299,1,2,0:0:0:0:
192,192,72396,1,2,0:0:0:0:
320,192,72493,1,2,0:0:0:0:
192,192,72590,1,2,0:0:0:0:
64,192,72590,1,4,0:0:0:0:
448,192,72590,1,8,0:0:0:0:
320,192,72783,1,2,0:0:0:0:
448,192,72880,1,8,0:0:0:0:
192,192,72880,1,2,0:0:0:0:
64,192,72880,1,4,0:0:0:0:
64,192,73074,1,8,0:0:0:0:
448,192,73074,1,2,0:0:0:0:
320,192,73170,1,2,0:0:0:0:
192,192,73267,1,2,0:0:0:0:
320,192,73364,1,2,0:0:0:0:
448,192,73364,1,4,0:0:0:0:
64,192,73364,1,8,0:0:0:0:
192,192,73558,1,2,0:0:0:0:
64,192,73654,1,8,0:0:0:0:
320,192,73654,1,2,0:0:0:0:
448,192,73654,1,4,0:0:0:0:
448,192,73848,1,8,0:0:0:0:
64,192,73848,1,2,0:0:0:0:
192,192,73945,1,2,0:0:0:0:
320,192,74041,1,2,0:0:0:0:
192,192,74138,1,2,0:0:0:0:
64,192,74138,1,4,0:0:0:0:
448,192,74138,1,8,0:0:0:0:
320,192,74235,1,0,0:0:0:0:
192,192,74332,1,2,0:0:0:0:
448,192,74429,1,8,0:0:0:0:
320,192,74429,1,2,0:0:0:0:
64,192,74429,1,4,0:0:0:0:
192,192,74622,1,4,3:0:0:0:
448,192,74622,1,2,0:0:0:0:
64,192,74816,1,4,3:0:0:0:
320,192,74816,1,2,0:0:0:0:
192,192,74816,1,8,0:0:0:0:
448,192,74912,1,2,0:0:0:0:
320,192,75009,1,2,0:0:0:0:
64,192,75106,1,2,0:0:0:0:
192,192,75203,1,2,0:0:0:0:
320,192,75203,1,4,3:0:0:0:
448,192,75203,1,8,0:0:0:0:
320,192,75396,1,4,3:0:0:0:
64,192,75396,1,2,0:0:0:0:
64,192,75590,1,8,0:0:0:0:
192,192,75590,1,2,0:0:0:0:
448,192,75590,1,4,3:0:0:0:
320,192,75687,1,2,0:0:0:0:
64,192,75783,1,2,0:0:0:0:
192,192,75880,1,2,0:0:0:0:
448,192,75977,1,4,3:0:0:0:
320,192,75977,1,2,0:0:0:0:
64,192,75977,1,8,0:0:0:0:
192,192,76170,1,2,0:0:0:0:
448,192,76170,1,4,3:0:0:0:
64,192,76364,1,4,3:0:0:0:
320,192,76364,1,2,0:0:0:0:
448,192,76364,1,8,0:0:0:0:
192,192,76461,1,2,0:0:0:0:
64,192,76558,1,2,0:0:0:0:
320,192,76654,1,2,0:0:0:0:
448,192,76751,1,8,0:0:0:0:
192,192,76751,1,2,0:0:0:0:
64,192,76751,1,4,3:0:0:0:
320,192,76945,1,4,3:0:0:0:
64,192,76945,1,2,0:0:0:0:
448,192,77138,1,4,3:0:0:0:
192,192,77138,1,2,0:0:0:0:
320,192,77138,1,8,0:0:0:0:
64,192,77235,1,2,0:0:0:0:
320,192,77332,1,2,0:0:0:0:
448,192,77429,1,2,0:0:0:0:
320,192,77525,1,2,0:0:0:0:
192,192,77525,1,4,3:0:0:0:
64,192,77525,1,8,0:0:0:0:
192,192,77719,1,4,3:0:0:0:
448,192,77719,1,2,0:0:0:0:
448,192,77912,1,8,0:0:0:0:
320,192,77912,1,2,0:0:0:0:
64,192,77912,1,4,3:0:0:0:
192,192,78009,1,2,0:0:0:0:
64,192,78106,1,2,0:0:0:0:
320,192,78203,1,2,0:0:0:0:
64,192,78299,1,4,3:0:0:0:
192,192,78299,1,2,0:0:0:0:
448,192,78299,1,8,0:0:0:0:
320,192,78493,1,2,0:0:0:0:
64,192,78493,1,4,3:0:0:0:
448,192,78687,1,4,3:0:0:0:
192,192,78687,1,2,0:0:0:0:
64,192,78687,1,8,0:0:0:0:
320,192,78783,1,2,0:0:0:0:
64,192,78880,1,2,0:0:0:0:
192,192,78977,1,2,0:0:0:0:
64,192,79074,1,8,0:0:0:0:
320,192,79074,1,2,0:0:0:0:
448,192,79074,1,4,3:0:0:0:
192,192,79267,1,2,0:0:0:0:
320,192,79267,1,4,3:0:0:0:
64,192,79461,1,8,0:0:0:0:
192,192,79461,1,2,0:0:0:0:
448,192,79461,1,4,3:0:0:0:
320,192,79558,1,2,0:0:0:0:
448,192,79654,1,2,0:0:0:0:
192,192,79751,1,2,0:0:0:0:
64,192,79848,1,8,0:0:0:0:
448,192,79848,1,4,3:0:0:0:
320,192,79848,1,2,0:0:0:0:
448,192,80041,1,2,0:0:0:0:
192,192,80041,1,4,3:0:0:0:
64,192,80235,1,4,3:0:0:0:
320,192,80235,1,2,0:0:0:0:
192,192,80235,1,8,0:0:0:0:
448,192,80332,1,2,0:0:0:0:
320,192,80429,1,2,0:0:0:0:
64,192,80525,1,2,0:0:0:0:
448,192,80622,1,8,0:0:0:0:
192,192,80622,1,2,0:0:0:0:
320,192,80622,1,4,3:0:0:0:
448,192,80816,1,4,3:0:0:0:
64,192,80816,1,2,0:0:0:0:
64,192,81009,1,4,3:0:0:0:
192,192,81009,1,2,0:0:0:0:
320,192,81009,1,8,0:0:0:0:
448,192,81106,1,2,0:0:0:0:
320,192,81203,1,2,0:0:0:0:
64,192,81299,1,2,0:0:0:0:
320,192,81396,1,2,0:0:0:0:
192,192,81396,1,4,3:0:0:0:
448,192,81396,1,8,0:0:0:0:
64,192,81590,1,4,3:0:0:0:
192,192,81590,1,2,0:0:0:0:
448,192,81783,1,8,0:0:0:0:
320,192,81783,1,2,0:0:0:0:
64,192,81783,1,4,3:0:0:0:
192,192,81880,1,2,0:0:0:0:
448,192,81977,1,2,0:0:0:0:
320,192,82074,1,2,0:0:0:0:
64,192,82170,1,4,3:0:0:0:
192,192,82170,1,2,0:0:0:0:
448,192,82170,1,8,0:0:0:0:
320,192,82364,1,2,0:0:0:0:
64,192,82364,1,4,3:0:0:0:
448,192,82558,1,4,3:0:0:0:
192,192,82558,1,2,0:0:0:0:
64,192,82558,1,8,0:0:0:0:
320,192,82654,1,2,0:0:0:0:
448,192,82751,1,2,0:0:0:0:
192,192,82848,1,2,0:0:0:0:
64,192,82945,1,8,0:0:0:0:
320,192,82945,1,2,0:0:0:0:
448,192,82945,1,4,3:0:0:0:
192,192,83138,1,4,3:0:0:0:
448,192,83138,1,2,0:0:0:0:
64,192,83332,1,4,3:0:0:0:
320,192,83332,1,2,0:0:0:0:
192,192,83332,1,8,0:0:0:0:
448,192,83429,1,2,0:0:0:0:
192,192,83525,1,2,0:0:0:0:
64,192,83622,1,2,0:0:0:0:
192,192,83719,1,2,0:0:0:0:
320,192,83719,1,4,3:0:0:0:
448,192,83719,1,8,0:0:0:0:
448,192,83912,1,8,0:0:0:0:
64,192,83912,1,2,0:0:0:0:
192,192,84009,1,2,0:0:0:0:
320,192,84106,1,2,0:0:0:0:
192,192,84203,1,2,0:0:0:0:
64,192,84203,1,4,0:0:0:0:
448,192,84203,1,8,0:0:0:0:
320,192,84396,1,2,0:0:0:0:
448,192,84493,1,8,0:0:0:0:
192,192,84493,1,2,0:0:0:0:
64,192,84493,1,4,0:0:0:0:
64,192,84687,1,8,0:0:0:0:
320,192,84687,1,2,0:0:0:0:
448,192,84783,1,2,0:0:0:0:
192,192,84880,1,2,0:0:0:0:
320,192,84977,1,2,0:0:0:0:
448,192,84977,1,4,0:0:0:0:
64,192,84977,1,8,0:0:0:0:
192,192,85074,1,2,0:0:0:0:
64,192,85267,1,8,0:0:0:0:
320,192,85267,1,2,0:0:0:0:
448,192,85267,1,4,0:0:0:0:
448,192,85461,1,8,0:0:0:0:
192,192,85461,1,2,0:0:0:0:
64,192,85558,1,2,0:0:0:0:
320,192,85654,1,2,0:0:0:0:
192,192,85751,1,2,0:0:0:0:
64,192,85751,1,4,0:0:0:0:
448,192,85751,1,8,0:0:0:0:
320,192,85848,1,2,0:0:0:0:
448,192,86041,1,8,0:0:0:0:
192,192,86041,1,2,0:0:0:0:
64,192,86041,1,4,0:0:0:0:
192,192,86235,1,2,0:0:0:0:
320,192,86235,1,0,0:0:0:0:
64,192,86622,1,4,3:0:0:0:
448,192,86622,1,8,3:0:0:0:
320,192,86622,1,2,0:0:0:0:
192,192,87009,1,4,0:0:0:0:
64,192,87009,1,2,0:0:0:0:
448,192,87009,1,0,0:0:0:0:
320,192,87106,1,0,0:0:0:0:
64,192,87203,1,0,0:0:0:0:
192,192,87299,1,0,0:0:0:0:
64,192,87396,1,0,0:0:0:0:
320,192,87396,1,8,0:0:0:0:
448,192,87396,1,2,0:0:0:0:
192,192,87493,1,0,0:0:0:0:
448,192,87590,1,0,0:0:0:0:
320,192,87687,1,0,0:0:0:0:
192,192,87783,1,0,0:0:0:0:
448,192,87783,1,2,0:0:0:0:
64,192,87880,1,0,0:0:0:0:
320,192,87977,1,0,0:0:0:0:
64,192,88074,1,0,0:0:0:0:
192,192,88170,1,2,0:0:0:0:
320,192,88170,1,8,0:0:0:0:
448,192,88170,1,0,0:0:0:0:
64,192,88267,1,0,0:0:0:0:
448,192,88364,1,0,0:0:0:0:
320,192,88461,1,0,0:0:0:0:
192,192,88558,1,0,0:0:0:0:
64,192,88558,1,2,0:0:0:0:
320,192,88654,1,0,0:0:0:0:
192,192,88751,1,0,0:0:0:0:
448,192,88848,1,0,0:0:0:0:
64,192,88945,1,0,0:0:0:0:
192,192,88945,1,8,0:0:0:0:
320,192,88945,1,2,0:0:0:0:
448,192,89041,1,0,0:0:0:0:
64,192,89138,1,0,0:0:0:0:
192,192,89235,1,0,0:0:0:0:
320,192,89332,1,0,0:0:0:0:
448,192,89332,1,2,0:0:0:0:
64,192,89429,1,0,0:0:0:0:
320,192,89525,1,0,0:0:0:0:
192,192,89622,1,0,0:0:0:0:
64,192,89719,1,2,0:0:0:0:
320,192,89719,1,8,0:0:0:0:
448,192,89719,1,0,0:0:0:0:
192,192,89816,1,0,0:0:0:0:
448,192,89912,1,0,0:0:0:0:
192,192,90009,1,0,0:0:0:0:
320,192,90106,1,0,0:0:0:0:
64,192,90106,1,2,0:0:0:0:
448,192,90203,1,0,0:0:0:0:
64,192,90299,1,0,0:0:0:0:
192,192,90396,1,0,0:0:0:0:
448,192,90493,1,2,0:0:0:0:
320,192,90493,1,8,0:0:0:0:
64,192,90493,1,0,0:0:0:0:
192,192,90590,1,0,0:0:0:0:
448,192,90687,1,0,0:0:0:0:
320,192,90783,1,0,0:0:0:0:
448,192,90880,1,2,0:0:0:0:
64,192,90880,1,0,0:0:0:0:
192,192,90977,1,0,0:0:0:0:
320,192,91074,1,0,0:0:0:0:
64,192,91170,1,0,0:0:0:0:
448,192,91267,1,0,0:0:0:0:
320,192,91267,1,8,0:0:0:0:
192,192,91267,1,2,0:0:0:0:
64,192,91364,1,0,0:0:0:0:
320,192,91461,1,0,0:0:0:0:
192,192,91558,1,0,0:0:0:0:
64,192,91654,1,2,0:0:0:0:
448,192,91654,1,0,0:0:0:0:
320,192,91751,1,0,0:0:0:0:
192,192,91848,1,0,0:0:0:0:
448,192,91945,1,0,0:0:0:0:
64,192,92041,1,0,0:0:0:0:
192,192,92041,1,8,0:0:0:0:
320,192,92041,1,2,0:0:0:0:
448,192,92138,1,0,0:0:0:0:
64,192,92235,1,0,0:0:0:0:
192,192,92332,1,0,0:0:0:0:
320,192,92429,1,0,0:0:0:0:
448,192,92429,1,2,0:0:0:0:
64,192,92525,1,0,0:0:0:0:
320,192,92622,1,0,0:0:0:0:
192,192,92719,1,0,0:0:0:0:
64,192,92816,1,2,0:0:0:0:
320,192,92816,1,8,0:0:0:0:
448,192,92816,1,0,0:0:0:0:
192,192,92912,1,0,0:0:0:0:
448,192,93009,1,0,0:0:0:0:
192,192,93106,1,0,0:0:0:0:
320,192,93203,1,4,0:0:0:0:
448,192,93203,1,2,0:0:0:0:
64,192,93203,1,0,0:0:0:0:
192,192,93299,1,0,0:0:0:0:
448,192,93396,1,0,0:0:0:0:
320,192,93493,1,0,0:0:0:0:
448,192,93590,1,0,0:0:0:0:
192,192,93590,1,8,0:0:0:0:
64,192,93590,1,2,0:0:0:0:
320,192,93687,1,0,0:0:0:0:
64,192,93783,1,0,0:0:0:0:
192,192,93880,1,0,0:0:0:0:
320,192,93977,1,0,0:0:0:0:
64,192,93977,1,2,0:0:0:0:
448,192,94074,1,0,0:0:0:0:
192,192,94170,1,0,0:0:0:0:
448,192,94267,1,0,0:0:0:0:
320,192,94364,1,2,0:0:0:0:
192,192,94364,1,8,0:0:0:0:
64,192,94364,1,0,0:0:0:0:
448,192,94461,1,0,0:0:0:0:
64,192,94558,1,0,0:0:0:0:
192,192,94654,1,0,0:0:0:0:
320,192,94751,1,0,0:0:0:0:
448,192,94751,1,2,0:0:0:0:
192,192,94848,1,0,0:0:0:0:
320,192,94945,1,0,0:0:0:0:
64,192,95041,1,0,0:0:0:0:
448,192,95138,1,0,0:0:0:0:
320,192,95138,1,8,0:0:0:0:
192,192,95138,1,2,0:0:0:0:
64,192,95235,1,0,0:0:0:0:
448,192,95332,1,0,0:0:0:0:
320,192,95429,1,0,0:0:0:0:
192,192,95525,1,0,0:0:0:0:
64,192,95525,1,2,0:0:0:0:
448,192,95622,1,0,0:0:0:0:
192,192,95719,1,0,0:0:0:0:
320,192,95816,1,0,0:0:0:0:
448,192,95912,1,2,0:0:0:0:
192,192,95912,1,8,0:0:0:0:
64,192,95912,1,0,0:0:0:0:
320,192,96009,1,0,0:0:0:0:
448,192,96106,1,0,0:0:0:0:
320,192,96203,1,0,0:0:0:0:
192,192,96299,1,2,0:0:0:0:
64,192,96299,1,8,3:0:0:0:
320,192,96396,1,2,0:0:0:0:
64,192,96493,1,2,0:0:0:0:
448,192,96493,1,8,3:0:0:0:
192,192,96590,1,2,0:0:0:0:
320,192,96687,1,2,0:0:0:0:
448,192,96687,1,8,3:0:0:0:
192,192,96783,1,2,0:0:0:0:
64,192,96880,1,2,0:0:0:0:
448,192,96880,1,8,3:0:0:0:
320,192,96977,1,2,0:0:0:0:
192,192,97074,1,2,0:0:0:0:
64,192,97074,1,8,3:0:0:0:
320,192,97170,1,2,0:0:0:0:
64,192,97267,1,2,0:0:0:0:
448,192,97267,1,8,3:0:0:0:
192,192,97364,1,2,0:0:0:0:
320,192,97461,1,2,0:0:0:0:
448,192,97461,1,8,3:0:0:0:
192,192,97558,1,2,0:0:0:0:
64,192,97654,1,2,0:0:0:0:
448,192,97654,1,8,3:0:0:0:
320,192,97751,1,2,0:0:0:0:
192,192,97848,1,2,0:0:0:0:
64,192,97848,1,4,0:0:0:0:
448,192,97848,1,0,0:0:0:0:
320,192,98041,1,2,0:0:0:0:
448,192,98041,1,0,0:0:0:0:
64,192,98041,1,4,0:0:0:0:
64,192,98235,1,4,0:0:0:0:
320,192,98235,1,0,0:0:0:0:
192,192,98235,1,2,0:0:0:0:
192,192,98429,1,2,0:0:0:0:
448,192,98429,1,0,0:0:0:0:
320,192,98429,1,4,0:0:0:0:
64,192,98622,1,4,0:0:0:0:
448,192,98622,1,0,0:0:0:0:
192,192,98622,1,2,0:0:0:0:
320,192,98816,1,2,0:0:0:0:
448,192,98816,1,8,0:0:0:0:
192,192,98912,1,2,0:0:0:0:
64,192,98912,1,8,0:0:0:0:
320,192,99009,1,2,0:0:0:0:
448,192,99009,1,8,0:0:0:0:
192,192,99106,1,2,0:0:0:0:
64,192,99106,1,8,0:0:0:0:
320,192,99203,1,2,0:0:0:0:
448,192,99203,1,8,0:0:0:0:
192,192,99299,1,2,0:0:0:0:
64,192,99299,1,8,0:0:0:0:
448,192,99396,1,2,0:0:0:0:
320,192,99396,1,4,0:0:0:0:
192,192,99396,1,0,0:0:0:0:
64,192,99493,1,0,0:0:0:0:
320,192,99590,1,8,0:0:0:0:
448,192,99590,1,2,0:0:0:0:
64,192,99687,1,0,0:0:0:0:
192,192,99687,1,2,0:0:0:0:
448,192,99783,1,0,0:0:0:0:
192,192,99880,1,2,0:0:0:0:
320,192,99880,1,0,0:0:0:0:
64,192,99977,1,8,0:0:0:0:
448,192,99977,1,2,0:0:0:0:
192,192,100074,1,0,0:0:0:0:
320,192,100170,1,2,0:0:0:0:
64,192,100170,1,0,0:0:0:0:
448,192,100267,1,0,0:0:0:0:
64,192,100364,1,8,0:0:0:0:
192,192,100364,1,2,0:0:0:0:
448,192,100461,1,2,0:0:0:0:
320,192,100461,1,0,0:0:0:0:
64,192,100558,1,0,0:0:0:0:
192,192,100654,1,2,0:0:0:0:
448,192,100654,1,0,0:0:0:0:
320,192,100751,1,2,0:0:0:0:
64,192,100751,1,8,0:0:0:0:
448,192,100848,1,0,0:0:0:0:
192,192,100945,1,0,0:0:0:0:
320,192,100945,1,2,0:0:0:0:
64,192,101041,1,0,0:0:0:0:
448,192,101138,1,2,0:0:0:0:
320,192,101138,1,8,0:0:0:0:
64,192,101235,1,0,0:0:0:0:
192,192,101235,1,2,0:0:0:0:
320,192,101332,1,0,0:0:0:0:
448,192,101429,1,0,0:0:0:0:
64,192,101429,1,2,0:0:0:0:
192,192,101525,1,8,0:0:0:0:
320,192,101525,1,2,0:0:0:0:
64,192,101622,1,0,0:0:0:0:
320,192,101719,1,2,0:0:0:0:
448,192,101719,1,0,0:0:0:0:
192,192,101816,1,0,0:0:0:0:
64,192,101912,1,8,0:0:0:0:
448,192,101912,1,2,0:0:0:0:
192,192,102009,1,2,0:0:0:0:
320,192,102009,1,0,0:0:0:0:
448,192,102106,1,0,0:0:0:0:
192,192,102203,1,2,0:0:0:0:
64,192,102203,1,0,0:0:0:0:
448,192,102299,1,2,0:0:0:0:
320,192,102299,1,8,0:0:0:0:
192,192,102396,1,0,0:0:0:0:
64,192,102493,1,0,0:0:0:0:
320,192,102493,1,2,0:0:0:0:
448,192,102590,1,0,0:0:0:0:
192,192,102687,1,2,0:0:0:0:
320,192,102687,1,8,0:0:0:0:
448,192,102783,1,0,0:0:0:0:
64,192,102783,1,2,0:0:0:0:
192,192,102880,1,0,0:0:0:0:
320,192,102977,1,0,0:0:0:0:
64,192,102977,1,2,0:0:0:0:
192,192,103074,1,8,0:0:0:0:
448,192,103074,1,2,0:0:0:0:
320,192,103170,1,0,0:0:0:0:
448,192,103267,1,2,0:0:0:0:
64,192,103267,1,0,0:0:0:0:
192,192,103364,1,0,0:0:0:0:
448,192,103461,1,8,0:0:0:0:
320,192,103461,1,2,0:0:0:0:
192,192,103558,1,2,0:0:0:0:
64,192,103558,1,0,0:0:0:0:
320,192,103654,1,0,0:0:0:0:
64,192,103751,1,2,0:0:0:0:
448,192,103751,1,0,0:0:0:0:
320,192,103848,1,2,0:0:0:0:
192,192,103848,1,8,0:0:0:0:
64,192,103945,1,0,0:0:0:0:
448,192,104041,1,0,0:0:0:0:
320,192,104041,1,2,0:0:0:0:
192,192,104138,1,0,0:0:0:0:
320,192,104235,1,2,0:0:0:0:
64,192,104235,1,8,0:0:0:0:
448,192,104332,1,0,0:0:0:0:
192,192,104332,1,2,0:0:0:0:
64,192,104429,1,0,0:0:0:0:
320,192,104525,1,0,0:0:0:0:
448,192,104525,1,2,0:0:0:0:
64,192,104622,1,8,0:0:0:0:
192,192,104622,1,2,0:0:0:0:
320,192,104719,1,0,0:0:0:0:
448,192,104816,1,2,0:0:0:0:
192,192,104816,1,0,0:0:0:0:
320,192,104912,1,0,0:0:0:0:
64,192,105009,1,2,0:0:0:0:
192,192,105009,1,8,0:0:0:0:
448,192,105106,1,2,0:0:0:0:
320,192,105106,1,0,0:0:0:0:
64,192,105203,1,0,0:0:0:0:
448,192,105299,1,0,0:0:0:0:
192,192,105299,1,2,0:0:0:0:
320,192,105396,1,2,0:0:0:0:
64,192,105396,1,8,0:0:0:0:
448,192,105493,1,0,0:0:0:0:
64,192,105590,1,2,0:0:0:0:
192,192,105590,1,0,0:0:0:0:
320,192,105590,1,4,0:0:0:0:
448,192,105687,1,0,0:0:0:0:
192,192,105783,1,8,0:0:0:0:
64,192,105783,1,2,0:0:0:0:
448,192,105880,1,0,0:0:0:0:
320,192,105880,1,2,0:0:0:0:
64,192,105977,1,0,0:0:0:0:
320,192,106074,1,2,0:0:0:0:
192,192,106074,1,0,0:0:0:0:
448,192,106170,1,8,0:0:0:0:
64,192,106170,1,2,0:0:0:0:
320,192,106267,1,0,0:0:0:0:
192,192,106364,1,2,0:0:0:0:
448,192,106364,1,0,0:0:0:0:
64,192,106461,1,0,0:0:0:0:
448,192,106558,1,8,0:0:0:0:
320,192,106558,1,2,0:0:0:0:
64,192,106654,1,2,0:0:0:0:
192,192,106654,1,0,0:0:0:0:
448,192,106751,1,0,0:0:0:0:
320,192,106848,1,2,0:0:0:0:
64,192,106848,1,0,0:0:0:0:
192,192,106945,1,2,0:0:0:0:
448,192,106945,1,8,0:0:0:0:
64,192,107041,1,0,0:0:0:0:
320,192,107138,1,0,0:0:0:0:
192,192,107138,1,2,0:0:0:0:
448,192,107235,1,0,0:0:0:0:
64,192,107332,1,2,0:0:0:0:
192,192,107332,1,8,0:0:0:0:
448,192,107429,1,0,0:0:0:0:
320,192,107429,1,2,0:0:0:0:
192,192,107525,1,0,0:0:0:0:
64,192,107622,1,0,0:0:0:0:
448,192,107622,1,2,0:0:0:0:
320,192,107719,1,8,0:0:0:0:
192,192,107719,1,2,0:0:0:0:
448,192,107816,1,0,0:0:0:0:
192,192,107912,1,2,0:0:0:0:
64,192,107912,1,0,0:0:0:0:
320,192,108009,1,0,0:0:0:0:
448,192,108106,1,8,0:0:0:0:
64,192,108106,1,2,0:0:0:0:
320,192,108203,1,2,0:0:0:0:
192,192,108203,1,0,0:0:0:0:
64,192,108299,1,0,0:0:0:0:
320,192,108396,1,2,0:0:0:0:
448,192,108396,1,0,0:0:0:0:
64,192,108493,1,2,0:0:0:0:
192,192,108493,1,8,0:0:0:0:
320,192,108590,1,0,0:0:0:0:
448,192,108687,1,8,0:0:0:0:
64,192,108687,1,2,0:0:0:0:
192,192,108783,1,2,0:0:0:0:
320,192,108880,1,2,0:0:0:0:
192,192,108977,1,2,0:0:0:0:
64,192,108977,1,4,0:0:0:0:
448,192,108977,1,8,0:0:0:0:
320,192,109170,1,2,0:0:0:0:
448,192,109267,1,8,0:0:0:0:
192,192,109267,1,2,0:0:0:0:
64,192,109267,1,4,0:0:0:0:
64,192,109461,1,8,0:0:0:0:
448,192,109461,1,2,0:0:0:0:
320,192,109558,1,2,0:0:0:0:
192,192,109654,1,2,0:0:0:0:
320,192,109751,1,2,0:0:0:0:
448,192,109751,1,4,0:0:0:0:
64,192,109751,1,8,0:0:0:0:
192,192,109945,1,2,0:0:0:0:
64,192,110041,1,8,0:0:0:0:
320,192,110041,1,2,0:0:0:0:
448,192,110041,1,4,0:0:0:0:
448,192,110235,1,8,0:0:0:0:
64,192,110235,1,2,0:0:0:0:
192,192,110332,1,2,0:0:0:0:
320,192,110429,1,2,0:0:0:0:
192,192,110525,1,2,0:0:0:0:
64,192,110525,1,4,0:0:0:0:
448,192,110525,1,8,0:0:0:0:
320,192,110719,1,2,0:0:0:0:
448,192,110816,1,8,0:0:0:0:
192,192,110816,1,2,0:0:0:0:
64,192,110816,1,4,0:0:0:0:
192,192,111009,1,8,0:0:0:0:
320,192,111009,1,2,0:0:0:0:
320,192,111396,1,2,0:0:0:0:
448,192,111396,1,4,3:0:0:0:
64,192,111396,1,8,3:0:0:0:
192,192,111783,128,2,111977:0:0:0:0:
320,192,111977,128,2,112170:0:0:0:0:
64,192,112170,128,2,112364:0:0:0:0:
448,192,112364,128,2,112558:0:0:0:0:
192,192,112558,128,2,112751:0:0:0:0:
320,192,112751,128,2,112945:0:0:0:0:
64,192,112945,128,2,113138:0:0:0:0:
192,192,113138,128,2,113332:0:0:0:0:
320,192,113332,128,2,113525:0:0:0:0:
448,192,113525,128,2,113719:0:0:0:0:
192,192,113719,128,2,113912:0:0:0:0:
64,192,113912,128,2,114106:0:0:0:0:
448,192,114106,128,2,114299:0:0:0:0:
320,192,114299,128,2,114493:0:0:0:0:
192,192,114493,128,2,114687:0:0:0:0:
448,192,114687,128,2,114880:0:0:0:0:
64,192,114880,128,2,115074:0:0:0:0:
320,192,115074,128,2,115267:0:0:0:0:
192,192,115267,128,2,115461:0:0:0:0:
64,192,115461,128,2,115654:0:0:0:0:
448,192,115654,128,2,115848:0:0:0:0:
192,192,115848,128,2,116041:0:0:0:0:
320,192,116041,128,2,116235:0:0:0:0:
64,192,116235,128,2,116429:0:0:0:0:
192,192,116429,128,2,116622:0:0:0:0:
448,192,116622,128,2,116816:0:0:0:0:
64,192,116816,128,2,117009:0:0:0:0:
320,192,117009,128,2,117203:0:0:0:0:
192,192,117203,128,2,117396:0:0:0:0:
448,192,117396,128,2,117590:0:0:0:0:
64,192,117590,128,2,117783:0:0:0:0:
192,192,117783,128,2,117977:0:0:0:0:
448,192,117977,128,2,118558:0:0:0:0:
320,192,118558,128,2,118751:0:0:0:0:
192,192,118751,128,2,118945:0:0:0:0:
64,192,118945,128,2,119138:0:0:0:0:
320,192,119138,128,2,119332:0:0:0:0:
192,192,119332,128,2,119525:0:0:0:0:
448,192,119525,128,2,119719:0:0:0:0:
448,192,119816,128,2,120009:0:0:0:0:
448,192,120106,128,2,120299:0:0:0:0:
64,192,120299,128,2,121074:0:0:0:0:
448,192,121074,128,2,121170:0:0:0:0:
320,192,121170,128,2,121267:0:0:0:0:
192,192,121267,128,2,121364:0:0:0:0:
64,192,121364,128,2,121461:0:0:0:0:
448,192,121461,128,2,121558:0:0:0:0:
320,192,121558,128,2,121654:0:0:0:0:
192,192,121654,128,2,121751:0:0:0:0:
64,192,121751,128,2,121848:0:0:0:0:
320,192,121848,128,2,121945:0:0:0:0:
448,192,121945,128,2,122041:0:0:0:0:
192,192,122041,128,2,122138:0:0:0:0:
64,192,122138,128,2,122235:0:0:0:0:
320,192,122235,128,2,122332:0:0:0:0:
448,192,122332,128,2,122429:0:0:0:0:
192,192,122429,128,2,122525:0:0:0:0:
64,192,122525,128,2,122622:0:0:0:0:
320,192,122622,128,2,122816:0:0:0:0:
320,192,122912,128,2,123106:0:0:0:0:
320,192,123203,128,2,123396:0:0:0:0:
192,192,123396,128,2,123590:0:0:0:0:
192,192,123687,128,2,123880:0:0:0:0:
192,192,123977,128,2,124170:0:0:0:0:
448,192,124170,128,2,124751:0:0:0:0:
