osu file format v14

[General]
AudioFilename: audio.mp3
AudioLeadIn: 0
PreviewTime: 86622
Countdown: 0
SampleSet: None
StackLeniency: 0.7
Mode: 3
LetterboxInBreaks: 0
SpecialStyle: 0
WidescreenStoryboard: 1

[Editor]
Bookmarks: 25074,62235
DistanceSpacing: 1.1
BeatDivisor: 4
GridSize: 8
TimelineZoom: 2.108

[Metadata]
Title:Corona (Warufuzake Album Version)
TitleUnicode:コロナ (悪巫山戯 Album Version)
Artist:utsuP
ArtistUnicode:鬱P
Creator:puxtu
Version:8k
Source:
Tags:utsu-P kagamine rin vocaloid metal scream
BeatmapID:1588831
BeatmapSetID:753626

[Difficulty]
HPDrainRate:8.5
CircleSize:8
OverallDifficulty:8.5
ApproachRate:5
SliderMultiplier:1.4
SliderTickRate:1

[Events]
//Background and Video events
0,0,"cats.jpg",0,0
//Break Periods
//Storyboard Layer 0 (Background)
//Storyboard Layer 1 (Fail)
//Storyboard Layer 2 (Pass)
//Storyboard Layer 3 (Foreground)
//Storyboard Sound Samples

[TimingPoints]
300,387.096774193548,4,1,1,50,1,0
87009,-100,4,1,1,50,0,1
98816,-100,4,1,1,50,0,0
99396,-100,4,1,1,50,0,1
111783,-100,4,1,1,50,0,0

[HitObjects]
352,192,111783,128,2,111977:0:0:0:0:
32,192,111783,1,0,0:0:0:0:
160,192,111783,1,4,0:0:0:0:
480,192,111783,1,2,0:0:0:0:
224,192,111977,128,2,112170:0:0:0:0:
96,192,111977,1,2,0:0:0:0:
288,192,111977,1,8,3:0:0:0:
160,192,112074,1,8,3:0:0:0:
480,192,112170,128,2,112364:0:0:0:0:
352,192,112170,1,8,3:0:0:0:
32,192,112170,1,2,0:0:0:0:
288,192,112267,1,8,3:0:0:0:
96,192,112364,128,2,112558:0:0:0:0:
160,192,112364,1,2,0:0:0:0:
416,192,112364,1,8,3:0:0:0:
352,192,112558,128,2,112751:0:0:0:0:
32,192,112558,1,2,0:0:0:0:
288,192,112558,1,8,3:0:0:0:
160,192,112654,1,8,3:0:0:0:
224,192,112751,128,2,112945:0:0:0:0:
96,192,112751,1,8,3:0:0:0:
416,192,112751,1,2,0:0:0:0:
288,192,112848,1,8,3:0:0:0:
480,192,112945,128,2,113138:0:0:0:0:
32,192,112945,1,2,0:0:0:0:
160,192,112945,1,8,3:0:0:0:
352,192,113138,128,2,113332:0:0:0:0:
96,192,113138,1,8,3:0:0:0:
288,192,113138,1,8,0:0:0:0:
416,192,113138,1,2,0:0:0:0:
224,192,113332,128,2,113525:0:0:0:0:
32,192,113332,1,0,0:0:0:0:
160,192,113332,1,4,0:0:0:0:
480,192,113332,1,2,0:0:0:0:
96,192,113525,128,2,113719:0:0:0:0:
288,192,113525,1,2,0:0:0:0:
416,192,113525,1,8,3:0:0:0:
480,192,113622,1,8,3:0:0:0:
352,192,113719,128,2,113912:0:0:0:0:
32,192,113719,1,2,0:0:0:0:
288,192,113719,1,8,3:0:0:0:
160,192,113816,1,8,3:0:0:0:
480,192,113912,128,2,114106:0:0:0:0:
416,192,113912,1,2,0:0:0:0:
224,192,113912,1,8,3:0:0:0:
96,192,114106,128,2,114299:0:0:0:0:
288,192,114106,1,2,0:0:0:0:
32,192,114106,1,8,3:0:0:0:
160,192,114203,1,8,3:0:0:0:
224,192,114299,128,2,114493:0:0:0:0:
352,192,114299,1,8,3:0:0:0:
416,192,114299,1,2,0:0:0:0:
288,192,114396,1,8,3:0:0:0:
352,192,114493,128,2,114687:0:0:0:0:
480,192,114493,1,2,0:0:0:0:
32,192,114493,1,8,3:0:0:0:
96,192,114687,128,2,114880:0:0:0:0:
160,192,114687,1,8,3:0:0:0:
288,192,114687,1,8,0:0:0:0:
32,192,114687,1,2,0:0:0:0:
480,192,114880,128,2,115074:0:0:0:0:
416,192,114880,1,2,0:0:0:0:
352,192,114880,1,4,0:0:0:0:
224,192,114880,1,0,0:0:0:0:
224,192,115074,128,2,115267:0:0:0:0:
32,192,115074,1,8,3:0:0:0:
96,192,115074,1,2,0:0:0:0:
160,192,115170,1,8,3:0:0:0:
352,192,115267,128,2,115461:0:0:0:0:
288,192,115267,1,8,3:0:0:0:
32,192,115267,1,2,0:0:0:0:
96,192,115364,1,8,3:0:0:0:
480,192,115461,128,2,115654:0:0:0:0:
416,192,115461,1,8,3:0:0:0:
224,192,115461,1,2,0:0:0:0:
96,192,115654,128,2,115848:0:0:0:0:
288,192,115654,1,8,3:0:0:0:
32,192,115654,1,2,0:0:0:0:
224,192,115751,1,8,3:0:0:0:
352,192,115848,128,2,116041:0:0:0:0:
416,192,115848,1,2,0:0:0:0:
160,192,115848,1,8,3:0:0:0:
288,192,115945,1,8,3:0:0:0:
224,192,116041,128,2,116235:0:0:0:0:
32,192,116041,1,8,3:0:0:0:
480,192,116041,1,2,0:0:0:0:
480,192,116235,128,2,116429:0:0:0:0:
160,192,116235,1,2,0:0:0:0:
288,192,116235,1,8,0:0:0:0:
96,192,116235,1,8,3:0:0:0:
352,192,116429,128,2,116622:0:0:0:0:
224,192,116429,1,0,0:0:0:0:
32,192,116429,1,4,0:0:0:0:
416,192,116429,1,2,0:0:0:0:
96,192,116622,128,2,116816:0:0:0:0:
416,192,116622,1,2,0:0:0:0:
288,192,116622,1,8,3:0:0:0:
160,192,116719,1,8,3:0:0:0:
480,192,116816,128,2,117009:0:0:0:0:
32,192,116816,1,2,0:0:0:0:
224,192,116816,1,8,3:0:0:0:
416,192,116912,1,8,3:0:0:0:
224,192,117009,128,2,117203:0:0:0:0:
352,192,117009,1,2,0:0:0:0:
160,192,117009,1,8,3:0:0:0:
352,192,117203,128,2,117396:0:0:0:0:
480,192,117203,1,2,0:0:0:0:
32,192,117203,1,8,3:0:0:0:
288,192,117299,1,8,3:0:0:0:
96,192,117396,128,2,117590:0:0:0:0:
160,192,117396,1,8,3:0:0:0:
416,192,117396,1,2,0:0:0:0:
32,192,117493,1,8,3:0:0:0:
480,192,117590,128,2,117783:0:0:0:0:
288,192,117590,1,2,0:0:0:0:
224,192,117590,1,8,3:0:0:0:
352,192,117783,128,2,117977:0:0:0:0:
32,192,117783,1,8,3:0:0:0:
160,192,117783,1,8,0:0:0:0:
416,192,117783,1,2,0:0:0:0:
32,192,117977,128,2,118558:0:0:0:0:
480,192,117977,1,2,0:0:0:0:
224,192,117977,1,4,0:0:0:0:
96,192,117977,1,0,0:0:0:0:
160,192,118170,1,8,3:0:0:0:
288,192,118170,1,2,0:0:0:0:
416,192,118267,1,8,3:0:0:0:
224,192,118364,1,8,3:0:0:0:
96,192,118364,1,2,0:0:0:0:
352,192,118461,1,8,3:0:0:0:
224,192,118558,128,2,118751:0:0:0:0:
160,192,118558,1,8,3:0:0:0:
480,192,118558,1,2,0:0:0:0:
352,192,118751,128,2,118945:0:0:0:0:
288,192,118751,1,8,3:0:0:0:
96,192,118751,1,2,0:0:0:0:
32,192,118848,1,8,3:0:0:0:
480,192,118945,128,2,119138:0:0:0:0:
224,192,118945,1,2,0:0:0:0:
416,192,118945,1,8,3:0:0:0:
160,192,119041,1,8,3:0:0:0:
224,192,119138,128,2,119332:0:0:0:0:
96,192,119138,1,8,3:0:0:0:
288,192,119138,1,2,0:0:0:0:
352,192,119332,128,2,119525:0:0:0:0:
32,192,119332,1,2,0:0:0:0:
480,192,119332,1,8,0:0:0:0:
160,192,119332,1,8,3:0:0:0:
96,192,119525,128,2,119719:0:0:0:0:
224,192,119525,1,0,0:0:0:0:
288,192,119525,1,4,0:0:0:0:
416,192,119525,1,2,0:0:0:0:
416,192,119719,1,2,0:0:0:0:
32,192,119719,1,8,3:0:0:0:
96,192,119816,128,2,120009:0:0:0:0:
160,192,119816,1,8,3:0:0:0:
480,192,119912,1,2,0:0:0:0:
288,192,119912,1,8,3:0:0:0:
32,192,120009,1,8,3:0:0:0:
96,192,120106,128,2,120299:0:0:0:0:
224,192,120106,1,2,0:0:0:0:
352,192,120106,1,8,3:0:0:0:
480,192,120299,128,2,121074:0:0:0:0:
416,192,120299,1,2,0:0:0:0:
160,192,120299,1,8,3:0:0:0:
288,192,120396,1,8,3:0:0:0:
224,192,120493,1,8,3:0:0:0:
32,192,120493,1,2,0:0:0:0:
416,192,120590,1,8,3:0:0:0:
352,192,120687,1,2,0:0:0:0:
96,192,120687,1,8,3:0:0:0:
32,192,120880,1,8,3:0:0:0:
224,192,120880,1,8,0:0:0:0:
416,192,120880,1,2,0:0:0:0:
96,192,121074,128,2,121170:0:0:0:0:
32,192,121074,1,2,0:0:0:0:
160,192,121074,1,4,0:0:0:0:
416,192,121074,1,0,0:0:0:0:
224,192,121170,128,2,121267:0:0:0:0:
352,192,121267,128,2,121364:0:0:0:0:
288,192,121267,1,8,3:0:0:0:
32,192,121267,1,2,0:0:0:0:
480,192,121364,128,2,121461:0:0:0:0:
160,192,121364,1,8,3:0:0:0:
96,192,121461,128,2,121558:0:0:0:0:
288,192,121461,1,8,3:0:0:0:
416,192,121461,1,2,0:0:0:0:
224,192,121558,128,2,121654:0:0:0:0:
160,192,121558,1,8,3:0:0:0:
352,192,121654,128,2,121751:0:0:0:0:
288,192,121654,1,8,3:0:0:0:
32,192,121654,1,2,0:0:0:0:
480,192,121751,128,2,121848:0:0:0:0:
224,192,121848,128,2,121945:0:0:0:0:
160,192,121848,1,8,3:0:0:0:
416,192,121848,1,2,0:0:0:0:
96,192,121945,128,2,122041:0:0:0:0:
288,192,121945,1,8,3:0:0:0:
352,192,122041,128,2,122138:0:0:0:0:
32,192,122041,1,2,0:0:0:0:
160,192,122041,1,8,3:0:0:0:
480,192,122138,128,2,122235:0:0:0:0:
288,192,122138,1,8,3:0:0:0:
224,192,122235,128,2,122332:0:0:0:0:
160,192,122235,1,8,3:0:0:0:
416,192,122235,1,2,0:0:0:0:
96,192,122332,128,2,122429:0:0:0:0:
352,192,122429,128,2,122525:0:0:0:0:
416,192,122429,1,2,0:0:0:0:
288,192,122429,1,8,0:0:0:0:
32,192,122429,1,8,3:0:0:0:
480,192,122525,128,2,122622:0:0:0:0:
224,192,122622,128,2,122816:0:0:0:0:
96,192,122622,1,0,0:0:0:0:
160,192,122622,1,4,0:0:0:0:
416,192,122622,1,2,0:0:0:0:
288,192,122816,1,2,0:0:0:0:
32,192,122816,1,8,3:0:0:0:
224,192,122912,128,2,123106:0:0:0:0:
416,192,122912,1,8,3:0:0:0:
352,192,123009,1,2,0:0:0:0:
96,192,123009,1,8,3:0:0:0:
32,192,123106,1,8,3:0:0:0:
224,192,123203,128,2,123396:0:0:0:0:
416,192,123203,1,2,0:0:0:0:
160,192,123203,1,8,3:0:0:0:
352,192,123396,128,2,123590:0:0:0:0:
480,192,123396,1,8,3:0:0:0:
32,192,123396,1,2,0:0:0:0:
160,192,123493,1,8,3:0:0:0:
288,192,123590,1,8,3:0:0:0:
416,192,123590,1,2,0:0:0:0:
352,192,123687,128,2,123880:0:0:0:0:
96,192,123687,1,8,3:0:0:0:
480,192,123783,1,8,3:0:0:0:
160,192,123783,1,2,0:0:0:0:
352,192,123977,128,2,124170:0:0:0:0:
32,192,123977,1,2,0:0:0:0:
224,192,123977,1,8,0:0:0:0:
416,192,123977,1,8,3:0:0:0:
96,192,124170,128,2,124751:0:0:0:0:
480,192,124170,1,2,0:0:0:0:
160,192,124170,1,0,0:0:0:0:
288,192,124170,1,4,0:0:0:0:
