osu file format v14

[General]
AudioFilename: audio.mp3
AudioLeadIn: 0
PreviewTime: 61646
Countdown: 0
SampleSet: Soft
StackLeniency: 0.7
Mode: 0
LetterboxInBreaks: 0
WidescreenStoryboard: 1

[Editor]
Bookmarks: 20576,30844,41111,51378,61646,79935,82020
DistanceSpacing: 1.1
BeatDivisor: 4
GridSize: 4
TimelineZoom: 2.1

[Metadata]
Title:caring is punk
TitleUnicode:caring is punk
Artist:user-177606669
ArtistUnicode:user-177606669
Creator:Mimari
Version:normal?
Source:
Tags:english i love ganyu electronic hyperpop pop dnb drum and bass music collective
BeatmapID:3724827
BeatmapSetID:1815602

[Difficulty]
HPDrainRate:3
CircleSize:3
OverallDifficulty:4
ApproachRate:6
SliderMultiplier:1
SliderTickRate:1

[Events]
//Background and Video events
0,0,"by me.png",0,0
//Break Periods
2,66979,78885
//Storyboard Layer 0 (Background)
//Storyboard Layer 1 (Fail)
//Storyboard Layer 2 (Pass)
//Storyboard Layer 3 (Foreground)
//Storyboard Layer 4 (Overlay)
//Storyboard Sound Samples

[TimingPoints]
42,320.855614973263,4,2,1,45,1,0
20576,-111.111111111111,4,2,1,45,0,0
41111,-100,4,2,1,75,0,0
46245,-100,4,2,1,75,0,1
46566,-100,4,2,1,75,0,0
47528,-100,4,2,1,75,0,1
47849,-100,4,2,1,75,0,0
50737,-100,4,2,1,75,0,1
51058,-100,4,2,1,75,0,0
56833,-100,4,2,1,75,0,0
57796,-100,4,2,1,75,0,1
58116,-100,4,2,1,75,0,0
61004,-100,4,2,1,75,0,1
61646,-100,4,2,1,45,0,0
79935,-100,4,2,1,30,0,0
82020,-100,4,2,1,15,0,0

[Colours]
Combo1 : 213,206,164
Combo2 : 91,126,138
Combo3 : 188,125,122
Combo4 : 116,192,118

[HitObjects]
254,33,20576,5,2,0:0:0:0:
252,127,20897,2,0,P|292:142|350:122,1,89.9999972534181,2|0,0:0|0:0,0:0:0:0:
384,111,21378,1,2,0:0:0:0:
384,111,21539,1,2,0:0:0:0:
423,202,21860,2,0,L|527:189,2,89.9999972534181,2|2|2,0:0|0:0|0:0,0:0:0:0:
355,274,22822,1,2,0:0:0:0:
271,327,23143,6,0,L|215:315,1,44.999998626709,2|0,0:0|0:0,0:0:0:0:
179,333,23464,2,0,L|169:231,1,89.9999972534181,2|0,0:0|0:0,0:0:0:0:
165,198,23945,1,2,0:0:0:0:
165,198,24106,1,2,0:0:0:0:
203,106,24427,2,0,P|247:101|303:130,1,89.9999972534181,2|2,0:0|0:0,0:0:0:0:
364,181,25068,2,0,P|408:186|464:157,1,89.9999972534181,2|2,0:0|0:0,0:0:0:0:
505,87,25710,5,2,0:0:0:0:
439,12,26031,2,0,L|347:30,1,89.9999972534181,2|0,0:0|0:0,0:0:0:0:
306,45,26512,1,2,0:0:0:0:
306,45,26673,1,2,0:0:0:0:
239,118,26993,2,0,L|138:101,1,89.9999972534181,2|2,0:0|0:0,0:0:0:0:
100,17,27635,1,2,0:0:0:0:
14,66,27956,2,0,L|34:163,1,89.9999972534181,2|2,0:0|0:0,0:0:0:0:
66,247,28598,6,0,P|96:222|159:216,1,89.9999972534181,2|0,0:0|0:0,0:0:0:0:
200,227,29079,1,2,0:0:0:0:
200,227,29239,1,2,0:0:0:0:
286,274,29560,1,2,0:0:0:0:
356,203,29881,2,0,P|425:194|473:281,1,179.999994506836,0|2,0:0|0:0,0:0:0:0:
403,351,30844,5,2,0:0:0:0:
308,310,31165,2,0,L|206:323,1,89.9999972534181,2|0,0:0|0:0,0:0:0:0:
181,352,31646,1,2,0:0:0:0:
181,352,31807,1,2,0:0:0:0:
83,334,32128,2,0,P|72:297|75:246,1,89.9999972534181,2|2,0:0|0:0,0:0:0:0:
122,233,32608,2,0,P|133:196|130:145,1,89.9999972534181
94,110,33090,1,2,0:0:0:0:
137,21,33410,6,0,B|33:12,2,89.9999972534181,2|0|0,0:0|0:0|0:0,0:0:0:0:
190,33,34212,1,2,0:0:0:0:
190,33,34373,1,2,0:0:0:0:
281,72,34695,2,0,P|320:63|390:66,1,89.9999972534181,2|2,0:0|0:0,0:0:0:0:
416,78,35175,2,0,L|406:187,1,89.9999972534181,2|0,0:0|0:0,0:0:0:0:
400,216,35656,1,2,0:0:0:0:
336,291,35977,5,2,0:0:0:0:
239,312,36299,2,0,L|228:207,1,89.9999972534181,2|0,0:0|0:0,0:0:0:0:
227,177,36780,1,2,0:0:0:0:
227,177,36941,1,2,0:0:0:0:
308,121,37261,2,0,P|307:83|270:36,1,89.9999972534181,2|2,0:0|0:0,0:0:0:0:
185,6,37903,1,2,0:0:0:0:
136,92,38224,1,2,0:0:0:0:
53,37,38544,5,2,0:0:0:0:
12,127,38866,2,0,L|26:231,1,89.9999972534181,2|0,0:0|0:0,0:0:0:0:
38,268,39347,1,2,0:0:0:0:
38,268,39507,1,2,0:0:0:0:
123,317,39828,2,0,B|204:286|210:362|306:330,1,179.999994506836,2|2,0:0|0:0,0:0:0:0:
473,195,41111,6,0,P|475:158|470:79,2,100,14|2|0,1:3|3:3|3:3,0:0:0:0:
455,249,41913,1,2,3:3:0:0:
455,249,42074,1,2,3:3:0:0:
355,294,42394,2,0,L|298:290,1,50,10|0,1:3|3:3,0:0:0:0:
250,287,42715,1,2,3:3:0:0:
160,351,43036,2,0,P|142:309|149:242,1,100,2|2,3:3|3:3,0:0:0:0:
103,152,43678,6,0,P|66:154|-13:149,2,100,10|2|0,1:3|3:3|3:3,0:0:0:0:
155,129,44480,1,2,3:3:0:0:
155,129,44640,1,2,3:3:0:0:
232,51,44961,2,0,P|281:48|331:50,1,100,10|2,1:3|3:3,0:0:0:0:
386,76,45443,1,0,3:3:0:0:
386,76,45603,1,2,3:3:0:0:
447,167,45924,1,2,3:3:0:0:
352,223,46245,6,0,L|293:212,1,50,10|10,1:3|1:3,0:0:0:0:
262,176,46566,2,0,P|216:175|165:199,1,100,2|0,1:3|3:3,0:0:0:0:
134,241,47047,1,2,3:3:0:0:
134,241,47207,1,2,3:3:0:0:
167,345,47528,2,0,L|230:351,1,50,10|10,1:3|1:3,0:0:0:0:
262,318,47849,1,10,1:3:0:0:
359,368,48170,1,2,3:3:0:0:
452,310,48491,1,2,3:3:0:0:
411,207,48812,6,0,P|417:157|416:93,2,100,10|2|0,1:3|3:3|3:3,0:0:0:0:
367,238,49614,1,2,3:3:0:0:
367,238,49774,1,2,3:3:0:0:
271,182,50095,2,0,P|222:176|167:192,1,100,10|0,1:3|3:3,0:0:0:0:
82,126,50737,2,0,P|66:102|70:66,1,50,10|10,1:3|1:3,0:0:0:0:
65,26,51058,1,10,1:3:0:0:
173,8,51378,6,0,P|210:6|289:11,2,100,14|2|0,1:3|3:3|3:3,0:0:0:0:
169,66,52180,1,2,3:3:0:0:
169,66,52341,1,2,3:3:0:0:
253,135,52661,2,0,L|248:194,1,50,10|0,1:3|3:3,0:0:0:0:
242,239,52982,1,2,3:3:0:0:
183,332,53303,2,0,P|225:350|294:336,1,100,2|2,3:3|3:3,0:0:0:0:
363,274,53945,6,0,P|400:276|479:271,2,100,10|2|0,1:3|3:3|3:3,0:0:0:0:
311,251,54747,1,2,3:3:0:0:
311,251,54907,1,2,3:3:0:0:
374,160,55229,2,0,P|386:115|372:53,1,100,10|2,1:3|3:3,0:0:0:0:
278,13,55870,1,2,3:3:0:0:
184,70,56191,1,2,3:3:0:0:
79,34,56512,6,0,L|84:90,1,50,10|10,1:3|1:3,0:0:0:0:
54,130,56833,2,0,L|44:235,1,100,2|0,1:3|3:3,0:0:0:0:
38,287,57314,1,2,3:3:0:0:
38,287,57474,1,2,3:3:0:0:
126,352,57795,2,0,L|190:340,1,50,10|10,1:3|1:3,0:0:0:0:
228,328,58116,1,10,1:3:0:0:
174,231,58437,1,2,3:3:0:0:
217,129,58758,1,2,3:3:0:0:
327,130,59079,6,0,P|333:80|332:16,2,100,10|2|0,1:3|3:3|3:3,0:0:0:0:
358,181,59881,1,2,3:3:0:0:
358,181,60041,1,2,3:3:0:0:
284,263,60362,1,10,1:3:0:0:
356,346,60683,1,0,3:3:0:0:
456,300,61004,2,0,L|464:233,1,50,10|10,1:3|1:3,0:0:0:0:
468,195,61325,2,0,L|476:128,1,50,10|10,1:3|1:3,0:0:0:0:
481,90,61646,5,2,0:0:0:0:
256,192,61726,12,0,66779,0:0:0:0:
256,192,79935,12,0,82020,0:0:0:0:
