osu file format v14

[General]
AudioFilename: audio.mp3
AudioLeadIn: 0
PreviewTime: 61646
Countdown: 0
SampleSet: Soft
StackLeniency: 0.7
Mode: 0
LetterboxInBreaks: 0
WidescreenStoryboard: 1

[Editor]
Bookmarks: 20576,30844,41111,51378,61646,79935,82020
DistanceSpacing: 1.1
BeatDivisor: 4
GridSize: 4
TimelineZoom: 2.1

[Metadata]
Title:caring is punk
TitleUnicode:caring is punk
Artist:user-177606669
ArtistUnicode:user-177606669
Creator:Mimari
Version:hyper?
Source:
Tags:english i love ganyu electronic hyperpop pop dnb drum and bass music collective
BeatmapID:3724826
BeatmapSetID:1815602

[Difficulty]
HPDrainRate:3.5
CircleSize:3.4
OverallDifficulty:6
ApproachRate:8
SliderMultiplier:1.4
SliderTickRate:1

[Events]
//Background and Video events
0,0,"by me.png",0,0
//Break Periods
2,66979,79185
//Storyboard Layer 0 (Background)
//Storyboard Layer 1 (Fail)
//Storyboard Layer 2 (Pass)
//Storyboard Layer 3 (Foreground)
//Storyboard Layer 4 (Overlay)
//Storyboard Sound Samples

[TimingPoints]
42,320.855614973263,4,2,1,45,1,0
20576,-125,4,2,1,45,0,0
41111,-100,4,2,1,75,0,0
46245,-100,4,2,1,75,0,1
46566,-100,4,2,1,75,0,0
47528,-100,4,2,1,75,0,1
47849,-100,4,2,1,75,0,0
50737,-100,4,2,1,75,0,1
51058,-100,4,2,1,75,0,0
56512,-100,4,2,1,75,0,1
56833,-100,4,2,1,75,0,0
57796,-100,4,2,1,75,0,1
58116,-100,4,2,1,75,0,0
61004,-100,4,2,1,75,0,1
61646,-100,4,2,1,45,0,0
79935,-100,4,2,1,30,0,0
82020,-100,4,2,1,15,0,0

[Colours]
Combo1 : 213,206,164
Combo2 : 91,126,138
Combo3 : 188,125,122
Combo4 : 116,192,118

[HitObjects]
414,344,20576,6,0,L|419:265,1,56,2|0,0:0|0:0,0:0:0:0:
475,227,20897,2,0,P|432:208|354:230,1,112,2|0,0:0|0:0,0:0:0:0:
331,295,21378,1,2,0:0:0:0:
331,295,21539,2,0,P|277:306|225:286,1,112,2|2,0:0|0:0,0:0:0:0:
118,206,22181,1,2,0:0:0:0:
230,135,22501,2,0,P|244:84|218:21,1,112,2|2,0:0|0:0,0:0:0:0:
70,1,23143,6,0,L|77:78,1,56,2|0,0:0|0:0,0:0:0:0:
145,103,23464,2,0,L|135:238,1,112,2|0,0:0|0:0,0:0:0:0:
60,245,23945,1,2,0:0:0:0:
60,245,24106,2,0,L|70:366,1,112,2|2,0:0|0:0,0:0:0:0:
205,363,24747,6,0,P|254:346|320:371,2,112,2|2|2,0:0|0:0|0:0,0:0:0:0:
76,299,25710,6,0,L|71:220,1,56,2|0,0:0|0:0,0:0:0:0:
15,182,26031,2,0,P|66:161|120:173,1,112,2|0,0:0|0:0,0:0:0:0:
159,251,26512,1,2,0:0:0:0:
159,251,26673,2,0,P|212:262|264:242,1,112,2|2,0:0|0:0,0:0:0:0:
348,127,27315,1,2,0:0:0:0:
436,250,27635,2,0,L|443:138,1,112,2|2,0:0|0:0,0:0:0:0:
321,23,28277,6,0,L|243:30,1,56,2|0,0:0|0:0,0:0:0:0:
230,104,28598,2,0,L|94:91,1,112,2|0,0:0|0:0,0:0:0:0:
57,43,29079,1,2,0:0:0:0:
57,43,29240,2,0,P|37:90|73:162,1,112,2|2,0:0|0:0,0:0:0:0:
135,185,29721,5,2,0:0:0:0:
135,185,29881,2,0,P|152:236|132:287,1,112,0|2,0:0|0:0,0:0:0:0:
44,383,30523,1,2,0:0:0:0:
1,244,30844,6,0,L|76:233,1,56,2|0,0:0|0:0,0:0:0:0:
124,285,31164,2,0,P|177:306|249:281,1,112,2|0,0:0|0:0,0:0:0:0:
302,252,31646,1,2,0:0:0:0:
302,252,31806,2,0,P|312:306|292:357,1,112,2|2,0:0|0:0,0:0:0:0:
188,231,32448,5,2,0:0:0:0:
188,231,32608,2,0,P|177:176|197:125,1,112
255,63,33090,1,2,0:0:0:0:
380,120,33410,6,0,L|458:113,1,56,2|0,0:0|0:0,0:0:0:0:
473,190,33731,2,0,L|361:201,1,112,2|0,0:0|0:0,0:0:0:0:
368,281,34213,1,2,0:0:0:0:
368,281,34373,2,0,L|480:270,1,112,2|2,0:0|0:0,0:0:0:0:
378,367,35015,5,2,0:0:0:0:
378,367,35175,2,0,P|330:365|282:302,1,112,2|0,0:0|0:0,0:0:0:0:
229,264,35656,1,2,0:0:0:0:
282,134,35977,6,0,L|353:143,1,56,2|0,0:0|0:0,0:0:0:0:
403,193,36298,2,0,P|422:146|396:79,1,112,2|0,0:0|0:0,0:0:0:0:
329,53,36779,1,2,0:0:0:0:
329,53,36939,2,0,L|206:44,1,112,2|2,0:0|0:0,0:0:0:0:
77,30,37581,5,2,0:0:0:0:
135,149,37902,1,2,0:0:0:0:
66,266,38223,1,2,0:0:0:0:
135,369,38543,6,0,L|213:362,1,56,2|0,0:0|0:0,0:0:0:0:
255,309,38864,2,0,P|272:259|239:185,1,112,2|0,0:0|0:0,0:0:0:0:
180,176,39346,1,2,0:0:0:0:
180,176,39507,2,0,P|163:126|196:52,1,112,2|2,0:0|0:0,0:0:0:0:
335,9,40148,6,0,L|399:20,1,56,0|2,0:0|0:0,0:0:0:0:
473,32,40469,2,0,L|462:96,1,56,2|0,0:0|0:0,0:0:0:0:
394,135,40790,2,0,L|405:199,1,56,2|0,0:0|0:0,0:0:0:0:
466,262,41111,6,0,B|385:252|408:303|303:295,1,140,14|2,1:3|3:3,0:0:0:0:
254,256,41592,1,0,3:3:0:0:
254,256,41673,1,0,3:3:0:0:
254,256,41753,2,0,P|249:220|277:166,1,70,0|2,3:3|3:3,0:0:0:0:
308,115,42074,2,0,P|313:79|285:25,1,70,2|0,3:3|3:3,0:0:0:0:
217,6,42394,6,0,L|123:17,1,70,10|0,1:3|3:3,0:0:0:0:
80,85,42715,2,0,L|137:159,1,70,2|0,3:3|3:3,0:0:0:0:
142,165,42956,1,0,3:3:0:0:
142,165,43036,2,0,P|75:161|13:217,1,140,2|2,3:3|3:3,0:0:0:0:
143,339,43678,6,0,B|224:329|201:380|306:372,1,140,10|2,1:3|3:3,0:0:0:0:
343,305,44159,1,0,3:3:0:0:
343,305,44240,1,0,3:3:0:0:
343,305,44320,2,0,P|348:269|320:215,1,70,0|2,3:3|3:3,0:0:0:0:
274,177,44640,1,2,3:3:0:0:
204,234,44801,1,0,3:3:0:0:
135,176,44961,6,0,L|146:89,1,70,10|0,1:3|3:3,0:0:0:0:
165,8,45282,2,0,L|233:62,1,70,2|0,3:3|3:3,0:0:0:0:
247,75,45523,1,0,3:3:0:0:
247,75,45603,2,0,P|288:74|364:15,1,140,2|2,3:3|3:3,0:0:0:0:
490,145,46245,5,10,1:3:0:0:
490,145,46325,1,10,1:3:0:0:
490,145,46405,2,0,L|483:198,1,35,10|10,1:3|1:3,0:0:0:0:
478,227,46566,1,2,1:3:0:0:
395,179,46726,2,0,P|353:176|306:201,1,70,10|0,1:3|3:3,0:0:0:0:
257,244,47047,1,2,3:3:0:0:
336,287,47207,2,0,L|327:366,1,70,2|2,3:3|3:3,0:0:0:0:
221,363,47528,5,10,1:3:0:0:
221,363,47608,1,10,1:3:0:0:
221,363,47689,2,0,L|155:352,1,35,10|10,1:3|1:3,0:0:0:0:
160,354,47849,2,0,L|152:284,1,70,10|10,1:3|1:3,0:0:0:0:
69,239,48170,2,0,L|78:152,1,70,2|0,3:3|3:3,0:0:0:0:
81,139,48410,1,0,3:3:0:0:
81,139,48491,2,0,P|79:103|44:71,1,70,2|0,3:3|3:3,0:0:0:0:
106,13,48812,6,0,B|187:3|164:54|269:46,1,140,10|2,1:3|3:3,0:0:0:0:
320,16,49293,1,0,3:3:0:0:
320,16,49374,1,0,3:3:0:0:
320,16,49454,2,0,P|325:52|297:106,1,70,0|2,3:3|3:3,0:0:0:0:
266,157,49775,2,0,P|261:193|289:247,1,70,2|0,3:3|3:3,0:0:0:0:
339,282,50095,5,10,1:3:0:0:
433,250,50255,2,0,P|438:286|410:340,1,70,2|0,3:3|3:3,0:0:0:0:
358,371,50576,1,2,3:3:0:0:
275,342,50737,5,10,1:3:0:0:
275,342,50817,1,10,1:3:0:0:
275,342,50897,2,0,L|214:348,1,35,10|10,1:3|1:3,0:0:0:0:
204,352,51058,2,0,L|212:269,1,70,10|10,1:3|1:3,0:0:0:0:
268,224,51378,6,0,B|254:73,1,140,14|2,1:3|3:3,0:0:0:0:
188,31,51859,1,0,3:3:0:0:
188,31,51940,1,0,3:3:0:0:
188,31,52020,2,0,P|152:26|98:54,1,70,0|2,3:3|3:3,0:0:0:0:
52,86,52341,2,0,L|47:179,1,70,2|0,3:3|3:3,0:0:0:0:
115,219,52661,6,0,P|145:229|209:214,1,70,10|0,1:3|3:3,0:0:0:0:
271,201,52982,2,0,L|264:286,1,70,2|0,3:3|3:3,0:0:0:0:
264,309,53223,1,0,3:3:0:0:
264,309,53303,2,0,P|197:305|135:361,1,140,2|2,3:3|3:3,0:0:0:0:
18,276,53945,6,0,B|8:195|59:218|51:113,1,140,10|2,1:3|3:3,0:0:0:0:
29,60,54426,1,0,3:3:0:0:
29,60,54507,1,0,3:3:0:0:
29,60,54587,2,0,P|65:55|119:83,1,70,0|2,3:3|3:3,0:0:0:0:
156,125,54907,1,2,3:3:0:0:
233,72,55068,1,0,3:3:0:0:
301,134,55228,6,0,L|286:216,1,70,10|0,1:3|3:3,0:0:0:0:
211,243,55550,2,0,L|222:312,1,70,2|0,3:3|3:3,0:0:0:0:
263,322,55790,1,0,3:3:0:0:
263,322,55870,2,0,P|304:323|380:382,1,140,2|2,3:3|3:3,0:0:0:0:
490,239,56512,5,10,1:3:0:0:
490,239,56592,1,10,1:3:0:0:
490,239,56672,2,0,L|483:186,1,35,10|10,1:3|1:3,0:0:0:0:
478,157,56833,1,2,1:3:0:0:
395,205,56993,2,0,L|305:194,1,70,10|0,1:3|3:3,0:0:0:0:
252,142,57314,1,2,3:3:0:0:
336,97,57474,2,0,P|344:63|327:18,1,70,2|2,3:3|3:3,0:0:0:0:
235,7,57795,5,10,1:3:0:0:
235,7,57875,1,10,1:3:0:0:
235,7,57956,2,0,L|169:18,1,35,10|10,1:3|1:3,0:0:0:0:
173,16,58116,2,0,P|165:47|165:86,1,70,10|10,1:3|1:3,0:0:0:0:
97,136,58437,2,0,P|107:174|106:223,1,70,2|0,3:3|3:3,0:0:0:0:
85,244,58677,1,0,3:3:0:0:
85,244,58758,2,0,L|173:258,1,70,2|0,3:3|3:3,0:0:0:0:
140,343,59079,6,0,B|221:353|198:302|303:310,1,140,10|2,1:3|3:3,0:0:0:0:
358,343,59560,1,0,3:3:0:0:
358,343,59641,1,0,3:3:0:0:
358,343,59721,2,0,P|363:307|335:253,1,70,0|2,3:3|3:3,0:0:0:0:
283,222,60042,2,0,P|278:186|306:132,1,70,2|0,3:3|3:3,0:0:0:0:
347,102,60362,5,10,1:3:0:0:
426,131,60522,2,0,L|440:43,1,70,2|0,3:3|3:3,0:0:0:0:
360,10,60843,1,2,3:3:0:0:
275,41,61004,5,10,1:3:0:0:
275,41,61084,1,10,1:3:0:0:
275,41,61164,2,0,L|214:35,1,35,10|10,1:3|1:3,0:0:0:0:
204,31,61325,2,0,L|226:115,1,70,10|10,1:3|1:3,0:0:0:0:
255,191,61645,5,2,0:0:0:0:
256,192,61726,12,0,66779,0:0:0:0:
256,192,79935,12,0,82020,0:0:0:0:
