osu file format v14

[General]
AudioFilename: audio.mp3
AudioLeadIn: 0
PreviewTime: 61646
Countdown: 0
SampleSet: Soft
StackLeniency: 0.7
Mode: 0
LetterboxInBreaks: 0
WidescreenStoryboard: 1

[Editor]
Bookmarks: 20576,30844,41111,51378,61646,79935,82020
DistanceSpacing: 1.1
BeatDivisor: 4
GridSize: 4
TimelineZoom: 2.1

[Metadata]
Title:caring is punk
TitleUnicode:caring is punk
Artist:user-177606669
ArtistUnicode:user-177606669
Creator:Mimari
Version:another?
Source:
Tags:english i love ganyu electronic hyperpop pop dnb drum and bass music collective
BeatmapID:3724824
BeatmapSetID:1815602

[Difficulty]
HPDrainRate:4
CircleSize:3.8
OverallDifficulty:8
ApproachRate:9
SliderMultiplier:1.5
SliderTickRate:1

[Events]
//Background and Video events
0,0,"by me.png",0,0
//Break Periods
2,66979,79335
//Storyboard Layer 0 (Background)
//Storyboard Layer 1 (Fail)
//Storyboard Layer 2 (Pass)
//Storyboard Layer 3 (Foreground)
//Storyboard Layer 4 (Overlay)
//Storyboard Sound Samples

[TimingPoints]
42,320.855614973263,4,2,1,45,1,0
20576,-125,4,2,1,45,0,0
30844,-111.111111111111,4,2,1,45,0,0
40469,-83.3333333333333,4,2,1,45,0,0
41111,-83.3333333333333,4,2,1,75,0,0
46245,-76.9230769230769,4,2,1,75,0,1
46566,-76.9230769230769,4,2,1,75,0,0
47528,-76.9230769230769,4,2,1,75,0,1
47849,-76.9230769230769,4,2,1,75,0,0
50737,-76.9230769230769,4,2,1,75,0,1
51058,-76.9230769230769,4,2,1,75,0,0
51699,-83.3333333333333,4,2,1,75,0,0
56512,-76.9230769230769,4,2,1,75,0,1
56833,-76.9230769230769,4,2,1,75,0,0
57796,-76.9230769230769,4,2,1,75,0,1
58116,-76.9230769230769,4,2,1,75,0,0
61004,-76.9230769230769,4,2,1,75,0,1
61646,-76.9230769230769,4,2,1,45,0,0
79935,-200,4,2,1,30,0,0
80496,-333.333333333333,4,2,1,5,0,0
80576,-333.333333333333,4,2,1,30,0,0
81138,-333.333333333333,4,2,1,5,0,0
81218,-1000,4,2,1,30,0,0
82020,-1000,4,2,1,15,0,0

[Colours]
Combo1 : 213,206,164
Combo2 : 91,126,138
Combo3 : 188,125,122
Combo4 : 116,192,118

[HitObjects]
67,315,20576,6,0,L|132:305,1,60,2|0,0:0|0:0,0:0:0:0:
193,354,20897,2,0,P|208:319|180:243,1,120,2|0,0:0|0:0,0:0:0:0:
102,224,21378,1,2,0:0:0:0:
102,224,21539,1,2,0:0:0:0:
258,69,21860,6,0,P|266:130|250:209,2,120,2|2|2,0:0|0:0|0:0,0:0:0:0:
257,187,22822,1,2,0:0:0:0:
445,315,23143,6,0,L|380:305,1,60,2|0,0:0|0:0,0:0:0:0:
319,354,23464,2,0,P|304:319|332:243,1,120,2|0,0:0|0:0,0:0:0:0:
410,224,23945,1,2,0:0:0:0:
410,224,24106,1,2,0:0:0:0:
254,69,24427,5,2,0:0:0:0:
254,69,24587,1,2,0:0:0:0:
254,69,24747,2,0,P|246:130|262:209,2,120,2|2|2,0:0|0:0|0:0,0:0:0:0:
45,20,25710,6,0,L|60:94,1,60,2|0,0:0|0:0,0:0:0:0:
17,145,26031,2,0,P|59:116|125:121,1,120,2|0,0:0|0:0,0:0:0:0:
88,197,26512,1,2,0:0:0:0:
88,197,26673,1,2,0:0:0:0:
258,315,26993,6,0,P|266:254|250:175,2,120,2|2|2,0:0|0:0|0:0,0:0:0:0:
257,197,27955,1,2,0:0:0:0:
467,20,28277,6,0,L|452:94,1,60,2|0,0:0|0:0,0:0:0:0:
495,145,28598,2,0,P|453:116|387:121,1,120,2|0,0:0|0:0,0:0:0:0:
424,197,29079,1,2,0:0:0:0:
424,197,29240,1,2,0:0:0:0:
258,315,29560,5,2,0:0:0:0:
258,315,29721,1,2,0:0:0:0:
258,315,29881,1,0,0:0:0:0:
258,315,30042,1,2,0:0:0:0:
258,315,30202,1,2,0:0:0:0:
258,315,30523,1,2,0:0:0:0:
32,193,30844,5,2,0:0:0:0:
32,193,31164,2,0,P|96:204|176:194,1,134.999995880127,2|0,0:0|0:0,0:0:0:0:
103,122,31646,1,2,0:0:0:0:
103,122,31806,1,2,0:0:0:0:
258,0,32127,6,0,P|259:32|256:72,1,67.4999979400635,2|0,0:0|0:0,0:0:0:0:
197,123,32448,1,2,0:0:0:0:
257,179,32608,2,0,P|249:243|259:335,1,134.999995880127
265,362,33090,2,0,P|266:327|259:277,1,67.4999979400635,2|0,0:0|0:0,0:0:0:0:
480,193,33410,5,2,0:0:0:0:
480,193,33730,2,0,P|416:204|336:194,1,134.999995880127,2|0,0:0|0:0,0:0:0:0:
412,122,34212,1,2,0:0:0:0:
412,122,34373,2,0,P|411:88|413:41,1,67.4999979400635,2|0,0:0|0:0,0:0:0:0:
319,0,34694,5,2,0:0:0:0:
299,74,34854,1,2,0:0:0:0:
193,0,35015,1,2,0:0:0:0:
213,74,35175,2,0,P|145:136|31:117,1,202.499993820191,2|2,0:0|0:0,0:0:0:0:
9,319,35977,5,2,0:0:0:0:
9,319,36297,2,0,P|73:308|153:318,1,134.999995880127,2|0,0:0|0:0,0:0:0:0:
72,227,36779,1,2,0:0:0:0:
72,227,36940,2,0,P|70:178|76:134,1,67.4999979400635,2|0,0:0|0:0,0:0:0:0:
163,198,37261,5,2,0:0:0:0:
252,343,37582,1,2,0:0:0:0:
349,198,37902,1,2,0:0:0:0:
252,41,38223,1,2,0:0:0:0:
500,325,38544,5,2,0:0:0:0:
500,325,38864,2,0,P|436:314|356:324,1,134.999995880127,2|0,0:0|0:0,0:0:0:0:
437,233,39346,1,2,0:0:0:0:
437,233,39507,1,2,0:0:0:0:
258,27,39828,5,2,0:0:0:0:
258,27,39988,1,2,0:0:0:0:
258,27,40148,1,0,0:0:0:0:
258,27,40309,1,2,0:0:0:0:
258,27,40469,2,0,L|254:233,1,179.999994506836,2|2,0:0|0:0,0:0:0:0:
65,351,41111,5,14,1:3:0:0:
169,288,41271,1,0,3:3:0:0:
55,227,41432,2,0,P|38:184|54:135,1,89.9999972534181,2|0,3:3|3:3,0:0:0:0:
48,142,41673,1,0,3:3:0:0:
48,142,41753,2,0,P|92:151|171:156,1,89.9999972534181,0|2,3:3|3:3,0:0:0:0:
255,24,42074,5,2,3:3:0:0:
224,17,42154,1,0,3:3:0:0:
193,23,42234,1,0,3:3:0:0:
168,41,42314,1,0,3:3:0:0:
152,68,42394,2,0,P|143:112|138:191,1,89.9999972534181,10|0,1:3|3:3,0:0:0:0:
360,316,42715,2,0,P|369:272|374:193,1,89.9999972534181,2|0,3:3|3:3,0:0:0:0:
373,227,42956,1,0,3:3:0:0:
373,227,43036,1,2,3:3:0:0:
255,192,43197,6,0,P|256:208|257:192,4,44.999998626709,0|0|2|0|0,3:3|3:3|3:3|3:3|3:3,0:0:0:0:
349,101,43678,5,10,1:3:0:0:
167,99,43838,1,0,3:3:0:0:
256,5,43999,2,0,P|261:58|259:98,1,89.9999972534181,2|0,3:3|3:3,0:0:0:0:
259,94,44240,1,0,3:3:0:0:
259,94,44320,2,0,P|254:147|256:187,1,89.9999972534181,0|2,3:3|3:3,0:0:0:0:
268,378,44640,6,0,P|269:333|264:288,1,89.9999972534181,2|0,3:3|3:3,0:0:0:0:
264,288,44881,1,0,3:3:0:0:
264,288,44961,1,10,1:3:0:0:
117,209,45122,1,0,3:3:0:0:
145,381,45282,2,0,P|143:336|148:291,1,89.9999972534181,2|0,3:3|3:3,0:0:0:0:
149,291,45523,1,0,3:3:0:0:
149,291,45603,1,2,3:3:0:0:
257,192,45763,6,0,P|256:208|255:192,4,44.999998626709,0|0|2|0|0,3:3|3:3|3:3|3:3|3:3,0:0:0:0:
320,299,46245,5,10,1:3:0:0:
348,310,46325,1,10,1:3:0:0:
378,307,46405,1,10,1:3:0:0:
403,290,46485,1,10,1:3:0:0:
417,262,46566,2,0,L|428:146,2,97.4999955368044,2|10|0,1:3|1:3|3:3,0:0:0:0:
345,83,47047,6,0,P|293:79|240:106,1,97.4999955368044,2|2,3:3|3:3,0:0:0:0:
252,96,47288,1,2,3:3:0:0:
252,96,47368,1,2,3:3:0:0:
192,299,47528,5,10,1:3:0:0:
164,310,47608,1,10,1:3:0:0:
134,307,47688,1,10,1:3:0:0:
109,290,47768,1,10,1:3:0:0:
95,262,47849,2,0,L|84:146,2,97.4999955368044,10|10|2,1:3|1:3|3:3,0:0:0:0:
257,192,48330,6,0,P|257:209|255:192,5,48.7499977684022,0|0|2|0|0|0,3:3|3:3|3:3|3:3|3:3|3:3,0:0:0:0:
255,186,48812,5,10,1:3:0:0:
415,203,48972,1,0,3:3:0:0:
354,41,49132,2,0,P|325:72|329:150,1,97.4999955368044,2|0,3:3|3:3,0:0:0:0:
318,125,49374,1,0,3:3:0:0:
318,125,49453,2,0,P|370:119|425:118,1,97.4999955368044,0|2,3:3|3:3,0:0:0:0:
188,254,49774,6,0,P|136:260|81:261,1,97.4999955368044,2|0,3:3|3:3,0:0:0:0:
90,261,50015,1,0,3:3:0:0:
90,261,50095,1,10,1:3:0:0:
22,98,50255,1,2,3:3:0:0:
180,172,50416,2,0,P|174:120|173:65,1,97.4999955368044,0|2,3:3|3:3,0:0:0:0:
331,0,50737,5,10,1:3:0:0:
335,33,50817,1,10,1:3:0:0:
338,67,50897,1,10,1:3:0:0:
339,101,50977,1,10,1:3:0:0:
339,136,51058,2,0,P|336:188|342:247,1,97.4999955368044,10|10,1:3|1:3,0:0:0:0:
168,358,51378,5,14,1:3:0:0:
255,271,51538,1,0,3:3:0:0:
348,357,51699,2,0,P|392:369|435:357,1,89.9999972534181,2|0,3:3|3:3,0:0:0:0:
433,357,51940,1,0,3:3:0:0:
433,357,52020,2,0,P|442:313|447:234,1,89.9999972534181,0|2,3:3|3:3,0:0:0:0:
467,107,52341,5,2,3:3:0:0:
436,100,52421,1,0,3:3:0:0:
405,106,52501,1,0,3:3:0:0:
380,124,52581,1,0,3:3:0:0:
364,151,52661,2,0,P|355:195|350:274,1,89.9999972534181,10|0,1:3|3:3,0:0:0:0:
148,233,52983,2,0,P|157:189|162:110,1,89.9999972534181,2|0,3:3|3:3,0:0:0:0:
161,144,53223,1,0,3:3:0:0:
161,144,53303,1,2,3:3:0:0:
257,192,53464,6,0,P|256:208|255:192,4,44.999998626709,0|0|2|0|0,3:3|3:3|3:3|3:3|3:3,0:0:0:0:
255,101,53945,5,10,1:3:0:0:
254,292,54105,1,0,3:3:0:0:
255,101,54266,2,0,P|253:56|258:11,1,89.9999972534181,2|0,3:3|3:3,0:0:0:0:
258,11,54507,1,0,3:3:0:0:
258,11,54587,2,0,P|305:1|355:20,1,89.9999972534181,0|2,3:3|3:3,0:0:0:0:
431,152,54908,6,0,P|388:163|344:153,1,89.9999972534181,2|0,3:3|3:3,0:0:0:0:
344,153,55148,1,0,3:3:0:0:
344,153,55228,1,10,1:3:0:0:
254,292,55389,1,0,3:3:0:0:
167,153,55550,2,0,P|123:163|81:152,1,89.9999972534181,2|0,3:3|3:3,0:0:0:0:
80,151,55790,1,0,3:3:0:0:
80,151,55870,1,2,3:3:0:0:
255,192,56030,6,0,P|256:208|257:192,4,44.999998626709,0|0|2|0|0,3:3|3:3|3:3|3:3|3:3,0:0:0:0:
320,299,56512,5,10,1:3:0:0:
348,310,56592,1,10,1:3:0:0:
378,307,56672,1,10,1:3:0:0:
403,290,56752,1,10,1:3:0:0:
417,262,56833,2,0,L|428:146,2,97.4999955368044,2|10|0,1:3|1:3|3:3,0:0:0:0:
345,83,57314,6,0,P|293:79|240:106,1,97.4999955368044,2|2,3:3|3:3,0:0:0:0:
252,96,57555,1,2,3:3:0:0:
252,96,57635,1,2,3:3:0:0:
192,299,57795,5,10,1:3:0:0:
164,310,57875,1,10,1:3:0:0:
134,307,57955,1,10,1:3:0:0:
109,290,58035,1,10,1:3:0:0:
95,262,58116,2,0,L|84:146,2,97.4999955368044,10|10|2,1:3|1:3|3:3,0:0:0:0:
257,192,58597,6,0,P|257:209|255:192,4,48.7499977684022,0|0|2|0|0,3:3|3:3|3:3|3:3|3:3,0:0:0:0:
127,60,59079,5,10,1:3:0:0:
256,101,59239,1,0,3:3:0:0:
368,65,59400,2,0,P|417:63|495:72,1,97.4999955368044,2|0,3:3|3:3,0:0:0:0:
465,66,59641,1,0,3:3:0:0:
465,66,59721,1,0,3:3:0:0:
418,167,59881,1,2,3:3:0:0:
470,273,60042,6,0,P|421:276|372:274,1,97.4999955368044,2|0,3:3|3:3,0:0:0:0:
372,274,60282,1,0,3:3:0:0:
372,274,60362,1,10,1:3:0:0:
256,363,60523,1,2,3:3:0:0:
139,274,60683,2,0,P|90:276|42:273,1,97.4999955368044,0|2,3:3|3:3,0:0:0:0:
307,136,61004,6,0,L|340:141,6,24.3749988842011,10|0|10|0|10|0|10,1:3|0:0|1:3|0:0|1:3|0:0|1:3,0:0:0:0:
277,264,61325,6,0,L|285:312,1,48.7499977684022,10|10,1:3|1:3,0:0:0:0:
180,175,61485,6,0,L|134:156,1,48.7499977684022,10|10,1:3|1:3,0:0:0:0:
254,193,61646,5,2,0:0:0:0:
256,192,61726,12,0,66779,0:0:0:0:
211,147,79935,6,0,L|77:111,1,131.25
105,169,80576,6,0,L|30:197,1,78.7499975967408
54,233,81218,6,0,L|31:262,1,37.5
