osu file format v14

[General]
AudioFilename: audio.mp3
AudioLeadIn: 0
PreviewTime: 61646
Countdown: 0
SampleSet: Soft
StackLeniency: 0.7
Mode: 0
LetterboxInBreaks: 0
WidescreenStoryboard: 0

[Editor]
Bookmarks: 20576,30844,41111,51378,61646,79935,82020
DistanceSpacing: 1.1
BeatDivisor: 4
GridSize: 4
TimelineZoom: 2.1

[Metadata]
Title:caring is punk
TitleUnicode:caring is punk
Artist:user-177606669
ArtistUnicode:user-177606669
Creator:Mimari
Version:am i doing the right thing?
Source:
Tags:english i love ganyu electronic hyperpop pop dnb drum and bass music collective
BeatmapID:3724667
BeatmapSetID:1815602

[Difficulty]
HPDrainRate:5.4
CircleSize:4.1
OverallDifficulty:9
ApproachRate:9.2
SliderMultiplier:1.7
SliderTickRate:1

[Events]
//Background and Video events
0,0,"by me.png",0,0
//Break Periods
2,66979,79365
//Storyboard Layer 0 (Background)
//Storyboard Layer 1 (Fail)
//Storyboard Layer 2 (Pass)
//Storyboard Layer 3 (Foreground)
//Storyboard Layer 4 (Overlay)
//Storyboard Sound Samples

[TimingPoints]
42,320.855614973263,4,2,1,45,1,0
20576,-100,4,2,1,45,0,0
20897,-125,4,2,1,45,0,0
21860,-166.666666666667,4,2,1,45,0,0
23143,-100,4,2,1,45,0,0
23464,-125,4,2,1,45,0,0
24747,-166.666666666667,4,2,1,45,0,0
25710,-100,4,2,1,45,0,0
26031,-125,4,2,1,45,0,0
26993,-166.666666666667,4,2,1,45,0,0
28277,-100,4,2,1,45,0,0
28598,-125,4,2,1,45,0,0
30844,-100,4,2,1,45,0,0
31164,-125,4,2,1,45,0,0
32608,-100,4,2,1,45,0,0
33090,-125,4,2,1,45,0,0
33892,-100,4,2,1,45,0,0
36298,-125,4,2,1,45,0,0
37261,-100,4,2,1,45,0,0
38865,-125,4,2,1,45,0,0
39988,-90.9090909090909,4,2,1,45,0,0
41111,-76.9230769230769,4,2,1,75,0,0
46245,-76.9230769230769,4,2,1,75,0,1
46566,-76.9230769230769,4,2,1,75,0,0
47528,-76.9230769230769,4,2,1,75,0,1
47849,-76.9230769230769,4,2,1,75,0,0
50737,-76.9230769230769,4,2,1,75,0,1
51058,-76.9230769230769,4,2,1,75,0,0
56512,-76.9230769230769,4,2,1,75,0,1
56833,-76.9230769230769,4,2,1,75,0,0
57796,-76.9230769230769,4,2,1,75,0,1
58116,-76.9230769230769,4,2,1,75,0,0
61004,-76.9230769230769,4,2,1,75,0,1
61646,-76.9230769230769,4,2,1,45,0,0
79935,-200,4,2,1,30,0,0
80496,-333.333333333333,4,2,1,5,0,0
80576,-333.333333333333,4,2,1,30,0,0
81138,-333.333333333333,4,2,1,5,0,0
81218,-500,4,2,1,30,0,0
82020,-333.333333333333,4,2,1,15,0,0

[Colours]
Combo1 : 213,206,164
Combo2 : 91,126,138
Combo3 : 188,125,122
Combo4 : 116,192,118

[HitObjects]
255,191,20576,6,0,P|276:229|254:280,1,85,2|0,0:0|0:0,0:0:0:0:
224,349,20897,2,0,P|168:311|88:306,1,136,2|0,0:0|0:0,0:0:0:0:
34,344,21378,5,2,0:0:0:0:
13,219,21539,1,2,0:0:0:0:
13,219,21860,6,0,L|21:151,1,50.9999984436036,2|0,0:0|0:0,0:0:0:0:
144,180,22181,2,0,L|81:207,1,50.9999984436036,2|0,0:0|0:0,0:0:0:0:
43,85,22501,2,0,L|97:125,1,50.9999984436036,2|0,0:0|0:0,0:0:0:0:
67,163,22822,5,2,0:0:0:0:
257,193,23143,6,0,P|236:155|258:104,1,85,2|0,0:0|0:0,0:0:0:0:
299,38,23464,2,0,B|404:6|377:128|500:95,1,204,2|2,0:0|0:0,0:0:0:0:
512,27,24106,5,2,0:0:0:0:
329,116,24427,5,2,0:0:0:0:
329,116,24587,1,2,0:0:0:0:
351,202,24747,6,0,L|361:152,1,50.9999984436036,2|2,0:0|0:0,0:0:0:0:
242,82,25068,2,0,L|280:115,1,50.9999984436036,2|0,0:0|0:0,0:0:0:0:
391,52,25389,1,2,0:0:0:0:
257,193,25710,6,0,P|219:172|168:194,1,85,2|0,0:0|0:0,0:0:0:0:
77,128,26031,2,0,P|60:80|84:9,1,102,2|0,0:0|0:0,0:0:0:0:
70,31,26352,1,0,0:0:0:0:
151,73,26512,5,2,0:0:0:0:
66,228,26673,1,2,0:0:0:0:
66,228,26994,6,0,L|74:296,1,50.9999984436036,2|0,0:0|0:0,0:0:0:0:
197,267,27315,2,0,L|134:239,1,50.9999984436036,2|0,0:0|0:0,0:0:0:0:
96,362,27635,2,0,L|150:321,1,50.9999984436036,2|0,0:0|0:0,0:0:0:0:
120,284,27956,5,2,0:0:0:0:
257,190,28277,6,0,P|297:180|333:201,1,85,2|0,0:0|0:0,0:0:0:0:
435,128,28598,2,0,P|452:80|428:9,1,102,2|0,0:0|0:0,0:0:0:0:
442,30,28919,1,0,0:0:0:0:
361,73,29079,5,2,0:0:0:0:
408,237,29240,1,2,0:0:0:0:
408,237,29560,5,2,0:0:0:0:
408,237,29721,1,2,0:0:0:0:
332,274,29881,5,0,0:0:0:0:
485,246,30042,5,2,0:0:0:0:
346,179,30202,5,2,0:0:0:0:
419,316,30522,5,2,0:0:0:0:
441,162,30844,6,0,P|444:123|416:86,1,85,2|0,0:0|0:0,0:0:0:0:
340,26,31164,2,0,P|280:61|195:63,1,136,2|0,0:0|0:0,0:0:0:0:
150,15,31646,5,2,0:0:0:0:
136,157,31806,1,2,0:0:0:0:
136,157,32127,6,0,L|145:241,1,68,2|0,0:0|0:0,0:0:0:0:
153,303,32448,1,2,0:0:0:0:
83,268,32608,2,0,B|170:242|157:321|247:305,1,170
311,378,33090,6,0,L|320:294,1,68,2|0,0:0|0:0,0:0:0:0:
430,197,33410,6,0,P|395:229|330:225,1,102,2|0,0:0|0:0,0:0:0:0:
342,230,33731,1,2,0:0:0:0:
223,191,33892,6,0,P|257:146|271:15,1,170,0|2,0:0|0:0,0:0:0:0:
209,0,34373,1,2,0:0:0:0:
209,0,34533,1,0,0:0:0:0:
145,53,34694,5,2,0:0:0:0:
282,37,34854,1,2,0:0:0:0:
371,127,35015,5,2,0:0:0:0:
223,97,35175,2,0,P|172:86|110:180,1,170,2|0,0:0|0:0,0:0:0:0:
154,235,35656,5,2,0:0:0:0:
154,235,35817,1,0,0:0:0:0:
20,322,35977,6,0,P|53:296|94:299,1,85,2|0,0:0|0:0,0:0:0:0:
196,366,36298,2,0,P|178:320|175:205,1,136,2|0,0:0|0:0,0:0:0:0:
224,173,36779,5,2,0:0:0:0:
279,329,36940,1,2,0:0:0:0:
325,262,37100,1,0,0:0:0:0:
137,309,37261,6,0,P|96:311|61:277,1,85,2|0,0:0|0:0,0:0:0:0:
115,97,37582,2,0,P|129:152|134:251,1,127.5,2|0,0:0|0:0,0:0:0:0:
136,222,37902,1,2,0:0:0:0:
254,2,38223,1,2,0:0:0:0:
359,230,38544,6,0,P|400:232|435:198,1,85,2|0,0:0|0:0,0:0:0:0:
451,97,38865,2,0,B|346:65|373:187|250:154,1,204,2|2,0:0|0:0,0:0:0:0:
220,96,39507,5,2,0:0:0:0:
428,178,39828,5,2,0:0:0:0:
428,178,39988,2,0,P|412:222|407:302,1,93.5000028533936,2|0,0:0|0:0,0:0:0:0:
337,314,40309,1,2,0:0:0:0:
184,191,40469,6,0,P|100:197|34:292,1,187.000005706787,2|2,0:0|0:0,0:0:0:0:
260,384,41111,5,14,1:3:0:0:
286,168,41271,1,0,3:3:0:0:
134,290,41432,6,0,P|183:279|264:279,1,110.499994941712,2|0,3:3|3:3,0:0:0:0:
243,276,41673,1,0,3:3:0:0:
243,276,41753,1,0,3:3:0:0:
408,201,41913,1,2,3:3:0:0:
240,70,42074,5,2,3:3:0:0:
192,59,42154,1,0,3:3:0:0:
145,73,42234,1,0,3:3:0:0:
111,110,42314,1,0,3:3:0:0:
101,158,42394,6,0,P|112:207|112:288,1,110.499994941712,10|0,1:3|3:3,0:0:0:0:
354,123,42715,2,0,P|343:74|343:-7,1,110.499994941712,2|0,3:3|3:3,0:0:0:0:
340,13,42956,1,0,3:3:0:0:
340,13,43036,1,2,3:3:0:0:
207,196,43197,5,0,3:3:0:0:
279,181,43277,5,0,3:3:0:0:
222,179,43357,5,2,3:3:0:0:
259,171,43437,5,0,3:3:0:0:
236,158,43517,5,0,3:3:0:0:
337,316,43678,5,10,1:3:0:0:
309,94,43838,1,0,3:3:0:0:
482,226,43999,6,0,P|433:215|352:215,1,110.499994941712,2|0,3:3|3:3,0:0:0:0:
372,212,44240,1,0,3:3:0:0:
372,212,44320,1,0,3:3:0:0:
239,343,44480,1,2,3:3:0:0:
427,370,44640,1,2,3:3:0:0:
270,138,44801,5,0,3:3:0:0:
270,138,44881,1,0,3:3:0:0:
270,138,44961,2,0,P|261:191|268:257,1,110.499994941712,10|0,1:3|3:3,0:0:0:0:
337,316,45282,1,2,3:3:0:0:
312,53,45443,5,0,3:3:0:0:
261,38,45523,1,0,3:3:0:0:
213,58,45603,1,2,3:3:0:0:
96,222,45763,5,0,3:3:0:0:
168,235,45843,5,0,3:3:0:0:
116,211,45923,5,2,3:3:0:0:
153,218,46003,5,0,3:3:0:0:
137,197,46083,5,0,3:3:0:0:
153,380,46245,5,10,1:3:0:0:
182,321,46325,1,10,1:3:0:0:
237,284,46405,1,10,1:3:0:0:
302,277,46485,1,10,1:3:0:0:
363,302,46565,1,2,1:3:0:0:
273,376,46726,5,10,1:3:0:0:
238,112,46886,1,0,3:3:0:0:
432,208,47047,6,0,P|383:197|302:197,1,110.499994941712,2|2,3:3|3:3,0:0:0:0:
322,194,47288,1,2,3:3:0:0:
322,194,47368,2,0,P|318:169|315:137,1,55.2499974708558,2|0,3:3|0:0,0:0:0:0:
506,78,47528,5,10,1:3:0:0:
445,103,47608,1,10,1:3:0:0:
380,96,47688,1,10,1:3:0:0:
325,59,47768,1,10,1:3:0:0:
296,0,47848,1,10,1:3:0:0:
415,8,48009,5,10,1:3:0:0:
396,281,48170,1,2,3:3:0:0:
174,133,48330,5,0,3:3:0:0:
246,120,48410,5,0,3:3:0:0:
194,144,48490,5,2,3:3:0:0:
231,137,48570,5,0,3:3:0:0:
214,156,48651,6,0,L|224:218,1,55.2499974708558,0|0,3:3|3:3,0:0:0:0:
80,384,48812,5,10,1:3:0:0:
54,168,48972,1,0,3:3:0:0:
206,290,49133,6,0,P|157:279|76:279,1,110.499994941712,2|0,3:3|3:3,0:0:0:0:
97,276,49374,1,0,3:3:0:0:
97,276,49454,1,0,3:3:0:0:
218,47,49614,1,2,3:3:0:0:
321,242,49774,6,0,P|370:253|451:253,1,110.499994941712,2|0,3:3|3:3,0:0:0:0:
430,256,50015,1,0,3:3:0:0:
430,256,50095,1,10,1:3:0:0:
259,358,50255,1,2,3:3:0:0:
262,151,50416,1,0,3:3:0:0:
326,246,50576,6,0,L|319:325,1,55.2499974708558,2|0,3:3|0:0,0:0:0:0:
51,367,50737,5,10,1:3:0:0:
63,302,50817,1,10,1:3:0:0:
104,251,50897,1,10,1:3:0:0:
165,225,50977,1,10,1:3:0:0:
230,233,51057,1,10,1:3:0:0:
161,336,51218,1,10,1:3:0:0:
104,67,51378,5,14,1:3:0:0:
365,163,51539,1,0,3:3:0:0:
228,231,51699,6,0,P|217:182|217:101,1,110.499994941712,2|0,3:3|3:3,0:0:0:0:
214,122,51940,1,0,3:3:0:0:
214,122,52020,1,0,3:3:0:0:
324,0,52181,1,2,3:3:0:0:
367,165,52342,5,2,3:3:0:0:
378,213,52422,1,0,3:3:0:0:
364,260,52502,1,0,3:3:0:0:
327,294,52582,1,0,3:3:0:0:
279,304,52662,6,0,P|230:293|149:293,1,110.499994941712,10|0,1:3|3:3,0:0:0:0:
99,33,52983,2,0,P|148:44|229:44,1,110.499994941712,2|0,3:3|3:3,0:0:0:0:
208,46,53224,1,0,3:3:0:0:
208,46,53304,1,2,3:3:0:0:
94,218,53465,5,0,3:3:0:0:
79,146,53545,5,0,3:3:0:0:
77,203,53625,5,2,3:3:0:0:
69,166,53705,5,0,3:3:0:0:
56,189,53785,5,0,3:3:0:0:
247,171,53946,5,10,1:3:0:0:
24,286,54106,1,0,3:3:0:0:
150,380,54267,6,0,P|161:331|161:250,1,110.499994941712,2|0,3:3|3:3,0:0:0:0:
164,270,54508,1,0,3:3:0:0:
164,270,54588,1,0,3:3:0:0:
183,65,54748,1,2,3:3:0:0:
366,192,54908,6,0,P|355:143|355:62,1,110.499994941712,2|0,3:3|3:3,0:0:0:0:
352,82,55148,1,0,3:3:0:0:
352,82,55229,1,10,1:3:0:0:
277,290,55389,5,0,3:3:0:0:
485,258,55550,1,2,3:3:0:0:
356,96,55711,1,0,3:3:0:0:
355,44,55791,1,0,3:3:0:0:
388,2,55871,1,2,3:3:0:0:
407,215,56031,5,0,3:3:0:0:
335,228,56111,5,0,3:3:0:0:
387,204,56191,5,2,3:3:0:0:
350,211,56271,5,0,3:3:0:0:
366,190,56351,5,0,3:3:0:0:
359,380,56513,5,10,1:3:0:0:
330,321,56593,1,10,1:3:0:0:
275,284,56673,1,10,1:3:0:0:
210,277,56753,1,10,1:3:0:0:
149,302,56833,1,2,1:3:0:0:
239,376,56994,5,10,1:3:0:0:
274,112,57154,1,0,3:3:0:0:
80,208,57315,6,0,P|129:197|210:197,1,110.499994941712,2|2,3:3|3:3,0:0:0:0:
190,194,57556,1,2,3:3:0:0:
190,194,57636,2,0,P|194:169|197:137,1,55.2499974708558,2|0,3:3|0:0,0:0:0:0:
6,78,57796,5,10,1:3:0:0:
67,103,57876,1,10,1:3:0:0:
132,96,57956,1,10,1:3:0:0:
187,59,58036,1,10,1:3:0:0:
216,0,58116,1,10,1:3:0:0:
97,8,58277,5,10,1:3:0:0:
116,281,58438,1,2,3:3:0:0:
338,133,58598,5,0,3:3:0:0:
266,120,58678,5,0,3:3:0:0:
318,144,58758,5,2,3:3:0:0:
281,137,58838,5,0,3:3:0:0:
298,156,58919,6,0,L|288:218,1,55.2499974708558,0|0,3:3|3:3,0:0:0:0:
432,384,59080,5,10,1:3:0:0:
458,168,59240,1,0,3:3:0:0:
306,290,59401,6,0,P|355:279|436:279,1,110.499994941712,2|0,3:3|3:3,0:0:0:0:
415,276,59640,1,0,3:3:0:0:
415,276,59721,1,0,3:3:0:0:
294,47,59882,1,2,3:3:0:0:
191,242,60042,6,0,P|142:253|61:253,1,110.499994941712,2|0,3:3|3:3,0:0:0:0:
82,256,60283,1,0,3:3:0:0:
82,256,60363,1,10,1:3:0:0:
255,363,60523,1,2,3:3:0:0:
268,159,60683,5,0,3:3:0:0:
143,366,60843,1,2,3:3:0:0:
34,153,61004,6,0,L|23:113,1,27.6249987354279,10|0,1:3|0:0,0:0:0:0:
52,107,61084,6,0,L|47:55,1,27.6249987354279,10|0,1:3|0:0,0:0:0:0:
88,73,61164,6,0,L|88:30,1,27.6249987354279,10|0,1:3|0:0,0:0:0:0:
135,59,61245,6,0,L|144:18,1,27.6249987354279,10|0,1:3|0:0,0:0:0:0:
184,67,61325,6,0,L|205:-7,1,55.2499974708558,10|10,1:3|1:3,0:0:0:0:
327,316,61485,6,0,L|307:391,1,55.2499974708558,10|10,1:3|1:3,0:0:0:0:
257,188,61646,5,2,0:0:0:0:
256,192,61726,12,0,66779,0:0:0:0:
138,359,79935,6,0,P|172:293|217:234,1,148.75
204,54,80576,6,0,P|223:94|239:135,1,89.2499972763062
397,216,81218,6,0,P|352:212|310:205,1,85
