osu file format v14

[General]
AudioFilename: audio.mp3
AudioLeadIn: 0
PreviewTime: 25251
Countdown: 0
SampleSet: Soft
StackLeniency: 0.7
Mode: 3
LetterboxInBreaks: 0
SpecialStyle: 0
WidescreenStoryboard: 1

[Editor]
DistanceSpacing: 1
BeatDivisor: 4
GridSize: 32
TimelineZoom: 1.299999

[Metadata]
Title:n'aie crainte, a present tout est fini
TitleUnicode:n'aie crainte, a present tout est fini
Artist:uselet
ArtistUnicode:uselet
Creator:Flade
Version:normal
Source:
Tags:breakcore instrumental underground don’t worry, now it’s all over keksikosu famoss
BeatmapID:3404869
BeatmapSetID:1667457

[Difficulty]
HPDrainRate:7
CircleSize:4
OverallDifficulty:7
ApproachRate:5
SliderMultiplier:1.6
SliderTickRate:1

[Events]
//Background and Video events
0,0,"bg.jpg",0,0
//Break Periods
//Storyboard Layer 0 (Background)
//Storyboard Layer 1 (Fail)
//Storyboard Layer 2 (Pass)
//Storyboard Layer 3 (Foreground)
//Storyboard Layer 4 (Overlay)
//Storyboard Sound Samples
Sample,31083,0,"soft-hitwhistle.wav",0
Sample,33533,0,"soft-hitwhistle.wav",0
Sample,39733,0,"soft-hitwhistle.wav",0
Sample,45133,0,"soft-hitwhistle.wav",0

[TimingPoints]
51,400,4,2,1,10,1,0
6451,-100,4,2,1,15,0,0
12851,-100,4,2,1,20,0,0
19251,-100,4,2,1,25,0,0
22451,-100,4,2,1,30,0,0
25651,-100,4,2,1,40,0,0
51251,-100,4,2,1,30,0,0
54451,-100,4,2,1,20,0,0
57651,-100,4,2,1,10,0,0

[HitObjects]
320,192,51,128,8,6451:0:0:0:0:
64,192,1651,1,8,0:0:0:0:
448,192,3251,1,8,0:0:0:0:
192,192,4851,1,8,0:0:0:0:
64,192,6451,128,8,12851:0:0:0:0:
448,192,8051,1,8,0:0:0:0:
320,192,9651,1,8,0:0:0:0:
192,192,11251,1,8,0:0:0:0:
448,192,12851,128,8,25051:0:0:0:0:
64,192,14451,1,8,0:0:0:0:
320,192,16051,1,8,0:0:0:0:
192,192,17651,1,8,0:0:0:0:
64,192,19251,1,8,0:0:0:0:
320,192,20851,1,8,0:0:0:0:
192,192,22451,1,8,0:0:0:0:
320,192,24051,1,8,0:0:0:0:
192,192,25051,128,0,25651:0:0:0:0:
320,192,25651,1,2,0:0:0:0:
448,192,25651,1,8,0:0:0:0:
64,192,25851,1,0,0:0:0:0:
320,192,26051,1,0,0:0:0:0:
192,192,26251,128,0,26451:0:0:0:0:
448,192,26451,1,0,0:0:0:0:
64,192,26651,1,0,0:0:0:0:
320,192,26851,1,0,0:0:0:0:
64,192,27051,1,2,0:0:0:0:
192,192,27051,1,0,0:0:0:0:
320,192,27251,1,2,0:0:0:0:
448,192,27251,1,8,0:0:0:0:
192,192,27451,1,0,0:0:0:0:
64,192,27651,1,2,0:0:0:0:
448,192,27651,1,0,0:0:0:0:
320,192,27851,1,0,0:0:0:0:
192,192,28051,1,0,0:0:0:0:
64,192,28251,1,2,0:0:0:0:
448,192,28251,1,0,0:0:0:0:
320,192,28451,128,2,28851:0:0:0:0:
192,192,28451,1,0,0:0:0:0:
64,192,28851,1,2,0:0:0:0:
448,192,28851,1,0,0:0:0:0:
192,192,29051,1,0,0:0:0:0:
448,192,29251,1,0,0:0:0:0:
64,192,29451,1,2,0:0:0:0:
320,192,29451,1,8,0:0:0:0:
192,192,29651,128,0,29851:0:0:0:0:
448,192,29851,128,2,30051:0:0:0:0:
64,192,30051,1,2,0:0:0:0:
320,192,30251,1,2,0:0:0:0:
192,192,30451,1,2,0:0:0:0:
448,192,30451,1,8,0:0:0:0:
64,192,30651,1,0,0:0:0:0:
192,192,31051,1,2,0:0:0:0:
320,192,31051,1,0,0:0:0:0:
448,192,31251,1,0,0:0:0:0:
192,192,31451,1,0,0:0:0:0:
320,192,31651,128,0,31851:0:0:0:0:
64,192,31851,128,0,32051:0:0:0:0:
192,192,32051,1,2,0:0:0:0:
448,192,32051,1,8,0:0:0:0:
64,192,32251,1,2,0:0:0:0:
320,192,32251,1,8,0:0:0:0:
448,192,32451,1,8,0:0:0:0:
192,192,32651,128,2,32851:0:0:0:0:
320,192,32851,1,0,0:0:0:0:
192,192,33051,1,8,0:0:0:0:
64,192,33251,128,0,33451:0:0:0:0:
448,192,33451,128,0,33651:0:0:0:0:
192,192,33651,1,2,0:0:0:0:
320,192,33651,1,8,0:0:0:0:
64,192,33851,1,2,0:0:0:0:
320,192,33951,1,2,0:0:0:0:
448,192,34151,1,0,0:0:0:0:
192,192,34251,1,2,0:0:0:0:
448,192,34451,128,0,34851:0:0:0:0:
64,192,34851,1,0,0:0:0:0:
320,192,35051,1,0,0:0:0:0:
192,192,35251,1,2,0:0:0:0:
448,192,35251,1,0,0:0:0:0:
64,192,35451,1,0,0:0:0:0:
320,192,35651,1,2,0:0:0:0:
448,192,35651,1,0,0:0:0:0:
64,192,35851,1,2,0:0:0:0:
192,192,35851,1,0,0:0:0:0:
320,192,36051,1,2,0:0:0:0:
192,192,36251,1,0,0:0:0:0:
448,192,36451,1,2,0:0:0:0:
64,192,36451,1,8,0:0:0:0:
320,192,36851,128,2,37251:0:0:0:0:
448,192,36851,1,0,0:0:0:0:
64,192,37251,1,2,0:0:0:0:
192,192,37251,1,0,0:0:0:0:
448,192,37451,1,0,0:0:0:0:
192,192,37651,1,0,0:0:0:0:
192,192,38051,1,0,0:0:0:0:
448,192,38251,1,0,0:0:0:0:
320,192,38451,1,8,0:0:0:0:
64,192,38451,1,2,0:0:0:0:
192,192,38651,1,0,0:0:0:0:
320,192,38851,1,0,0:0:0:0:
192,192,39051,128,0,39251:0:0:0:0:
64,192,39251,1,0,0:0:0:0:
448,192,39251,1,0,0:0:0:0:
320,192,39451,1,0,0:0:0:0:
64,192,39651,128,0,39851:0:0:0:0:
192,192,39851,1,2,0:0:0:0:
448,192,39851,1,0,0:0:0:0:
64,192,40051,1,2,0:0:0:0:
320,192,40051,1,8,0:0:0:0:
64,192,40451,1,2,0:0:0:0:
192,192,40451,1,0,0:0:0:0:
320,192,40651,1,0,0:0:0:0:
64,192,40851,1,0,0:0:0:0:
192,192,41051,1,2,0:0:0:0:
448,192,41051,1,0,0:0:0:0:
320,192,41251,128,0,41651:0:0:0:0:
64,192,41651,1,2,0:0:0:0:
192,192,41651,1,0,0:0:0:0:
448,192,41851,1,0,0:0:0:0:
192,192,42051,1,2,0:0:0:0:
320,192,42051,1,0,0:0:0:0:
64,192,42251,1,8,0:0:0:0:
448,192,42451,1,0,0:0:0:0:
320,192,42651,1,0,0:0:0:0:
64,192,42851,1,0,0:0:0:0:
192,192,43051,1,2,0:0:0:0:
320,192,43051,1,0,0:0:0:0:
64,192,43251,1,2,0:0:0:0:
448,192,43251,1,8,0:0:0:0:
320,192,43451,1,0,0:0:0:0:
64,192,43651,1,0,0:0:0:0:
192,192,43851,1,2,0:0:0:0:
448,192,43851,1,0,0:0:0:0:
320,192,44051,128,0,44451:0:0:0:0:
64,192,44451,1,0,0:0:0:0:
192,192,44651,1,0,0:0:0:0:
64,192,44851,1,2,0:0:0:0:
320,192,44851,1,8,0:0:0:0:
448,192,45051,1,8,0:0:0:0:
192,192,45251,1,8,0:0:0:0:
320,192,45251,1,0,0:0:0:0:
64,192,45451,1,2,0:0:0:0:
448,192,45651,1,0,0:0:0:0:
192,192,45851,1,8,0:0:0:0:
320,192,46051,128,0,46251:0:0:0:0:
64,192,46251,128,0,46451:0:0:0:0:
192,192,46451,1,2,0:0:0:0:
448,192,46451,1,8,0:0:0:0:
320,192,46651,1,2,0:0:0:0:
64,192,46851,1,0,0:0:0:0:
192,192,47051,1,2,0:0:0:0:
320,192,47051,1,0,0:0:0:0:
448,192,47251,1,0,0:0:0:0:
64,192,47451,1,0,0:0:0:0:
320,192,47651,1,0,0:0:0:0:
64,192,47851,1,0,0:0:0:0:
192,192,48051,1,2,0:0:0:0:
448,192,48051,1,0,0:0:0:0:
320,192,48251,1,0,0:0:0:0:
64,192,48451,1,0,0:0:0:0:
192,192,48451,1,0,0:0:0:0:
448,192,48651,1,2,0:0:0:0:
320,192,48651,1,0,0:0:0:0:
64,192,48851,1,0,0:0:0:0:
192,192,49051,1,0,0:0:0:0:
448,192,49251,128,0,49651:0:0:0:0:
64,192,49651,128,2,50051:0:0:0:0:
192,192,49651,1,0,0:0:0:0:
320,192,50051,1,2,0:0:0:0:
448,192,50051,1,0,0:0:0:0:
192,192,50251,1,0,0:0:0:0:
448,192,50451,128,0,50851:0:0:0:0:
192,192,50851,128,0,51251:0:0:0:0:
320,192,51251,128,8,52851:0:0:0:0:
64,192,52851,128,8,54451:0:0:0:0:
192,192,54451,128,8,56051:0:0:0:0:
448,192,56051,128,8,57651:0:0:0:0:
64,192,57651,128,8,59251:0:0:0:0:
320,192,59251,128,8,60851:0:0:0:0:
192,192,60851,128,8,62451:0:0:0:0:
448,192,62451,128,8,64051:0:0:0:0:
