osu file format v14

[General]
AudioFilename: audio.mp3
AudioLeadIn: 0
PreviewTime: 25251
Countdown: 0
SampleSet: Soft
StackLeniency: 0.7
Mode: 3
LetterboxInBreaks: 0
SpecialStyle: 0
WidescreenStoryboard: 1

[Editor]
DistanceSpacing: 1
BeatDivisor: 12
GridSize: 32
TimelineZoom: 2.499999

[Metadata]
Title:n'aie crainte, a present tout est fini
TitleUnicode:n'aie crainte, a present tout est fini
Artist:uselet
ArtistUnicode:uselet
Creator:Flade
Version:keksik's insane
Source:
Tags:breakcore instrumental underground don’t worry, now it’s all over keksikosu famoss
BeatmapID:3405111
BeatmapSetID:1667457

[Difficulty]
HPDrainRate:8
CircleSize:4
OverallDifficulty:8
ApproachRate:5
SliderMultiplier:1.6
SliderTickRate:1

[Events]
//Background and Video events
0,0,"bg.jpg",0,0
//Break Periods
//Storyboard Layer 0 (Background)
//Storyboard Layer 1 (Fail)
//Storyboard Layer 2 (Pass)
//Storyboard Layer 3 (Foreground)
//Storyboard Layer 4 (Overlay)
//Storyboard Sound Samples

[TimingPoints]
51,400,4,2,1,27,1,0
6451,-100,4,2,1,27,0,0
12851,-100,4,2,1,27,0,0
19251,-100,4,2,1,27,0,0
22451,-100,4,2,1,27,0,0
25651,-100,4,2,1,27,0,0
51251,-100,4,2,1,27,0,0
54451,-100,4,2,1,27,0,0
57651,-100,4,2,1,27,0,0

[HitObjects]
64,192,51,128,8,6451:0:0:0:0:
320,192,1651,1,8,0:0:0:0:
192,192,3251,1,8,0:0:0:0:
448,192,4851,1,8,0:0:0:0:
192,192,6451,1,8,0:0:0:0:
320,192,6451,128,0,12851:0:0:0:0:
64,192,8051,1,8,0:0:0:0:
448,192,9651,1,8,0:0:0:0:
64,192,11251,1,8,0:0:0:0:
64,192,12851,128,8,25051:0:0:0:0:
192,192,12851,1,0,0:0:0:0:
320,192,14451,1,8,0:0:0:0:
448,192,14451,1,0,0:0:0:0:
192,192,16051,1,8,0:0:0:0:
320,192,17651,1,0,0:0:0:0:
448,192,17651,1,8,0:0:0:0:
192,192,19251,1,8,0:0:0:0:
320,192,19251,1,0,0:0:0:0:
320,192,20851,1,8,0:0:0:0:
448,192,20851,1,0,0:0:0:0:
192,192,22451,1,8,0:0:0:0:
192,192,24051,1,8,0:0:0:0:
448,192,24051,1,0,0:0:0:0:
448,192,25051,128,0,25651:0:0:0:0:
64,192,25651,1,2,0:0:0:0:
192,192,25651,1,8,0:0:0:0:
448,192,25851,1,0,0:0:0:0:
320,192,25951,1,0,0:0:0:0:
192,192,26001,1,0,0:0:0:0:
64,192,26051,1,0,0:0:0:0:
320,192,26151,1,0,0:0:0:0:
448,192,26201,1,0,0:0:0:0:
64,192,26251,1,0,0:0:0:0:
192,192,26301,1,0,0:0:0:0:
448,192,26351,1,0,0:0:0:0:
320,192,26401,1,0,0:0:0:0:
64,192,26451,1,0,0:0:0:0:
320,192,26651,1,0,0:0:0:0:
192,192,26751,1,0,0:0:0:0:
64,192,26801,1,0,0:0:0:0:
448,192,26851,1,0,0:0:0:0:
320,192,26901,1,0,0:0:0:0:
64,192,26951,1,0,0:0:0:0:
192,192,27001,1,0,0:0:0:0:
320,192,27051,1,2,0:0:0:0:
448,192,27051,1,0,0:0:0:0:
64,192,27151,1,0,0:0:0:0:
192,192,27251,1,2,0:0:0:0:
320,192,27251,1,8,0:0:0:0:
448,192,27351,1,0,0:0:0:0:
320,192,27401,1,0,0:0:0:0:
192,192,27451,1,0,0:0:0:0:
448,192,27551,1,0,0:0:0:0:
64,192,27651,1,2,0:0:0:0:
192,192,27651,1,0,0:0:0:0:
448,192,27751,1,0,0:0:0:0:
192,192,27801,1,0,0:0:0:0:
320,192,27851,1,0,0:0:0:0:
448,192,27951,1,0,0:0:0:0:
64,192,28051,1,0,0:0:0:0:
64,192,28251,1,2,0:0:0:0:
448,192,28251,1,0,0:0:0:0:
192,192,28351,1,0,0:0:0:0:
320,192,28451,1,2,0:0:0:0:
448,192,28451,1,0,0:0:0:0:
192,192,28551,1,0,0:0:0:0:
64,192,28601,1,0,0:0:0:0:
320,192,28651,1,0,0:0:0:0:
448,192,28701,1,0,0:0:0:0:
192,192,28751,1,0,0:0:0:0:
64,192,28801,1,0,0:0:0:0:
320,192,28851,1,2,0:0:0:0:
448,192,28851,1,0,0:0:0:0:
64,192,28951,1,0,0:0:0:0:
192,192,29051,1,0,0:0:0:0:
320,192,29101,1,0,0:0:0:0:
448,192,29151,1,0,0:0:0:0:
64,192,29251,1,0,0:0:0:0:
320,192,29351,1,0,0:0:0:0:
192,192,29401,1,0,0:0:0:0:
64,192,29451,1,2,0:0:0:0:
448,192,29451,1,8,0:0:0:0:
192,192,29551,1,0,0:0:0:0:
320,192,29601,1,0,0:0:0:0:
448,192,29651,1,0,0:0:0:0:
64,192,29751,1,0,0:0:0:0:
192,192,29851,1,2,0:0:0:0:
320,192,29851,1,0,0:0:0:0:
64,192,29951,1,0,0:0:0:0:
192,192,30051,1,2,0:0:0:0:
320,192,30051,1,0,0:0:0:0:
448,192,30151,1,0,0:0:0:0:
192,192,30251,1,2,0:0:0:0:
320,192,30251,1,0,0:0:0:0:
64,192,30351,1,0,0:0:0:0:
192,192,30451,1,2,0:0:0:0:
448,192,30451,1,8,0:0:0:0:
320,192,30551,1,0,0:0:0:0:
64,192,30651,1,0,0:0:0:0:
192,192,30701,1,0,0:0:0:0:
320,192,30751,1,0,0:0:0:0:
64,192,30851,1,0,0:0:0:0:
448,192,30951,1,0,0:0:0:0:
64,192,31051,1,2,0:0:0:0:
192,192,31051,1,0,0:0:0:0:
320,192,31101,1,2,0:0:0:0:
448,192,31151,1,0,0:0:0:0:
192,192,31251,1,0,0:0:0:0:
64,192,31301,1,0,0:0:0:0:
448,192,31451,1,0,0:0:0:0:
320,192,31551,1,0,0:0:0:0:
64,192,31651,1,0,0:0:0:0:
192,192,31701,1,0,0:0:0:0:
448,192,31751,1,0,0:0:0:0:
320,192,31801,1,0,0:0:0:0:
192,192,31851,1,0,0:0:0:0:
64,192,31901,1,0,0:0:0:0:
320,192,31951,1,0,0:0:0:0:
448,192,32001,1,0,0:0:0:0:
64,192,32051,1,2,0:0:0:0:
192,192,32051,1,8,0:0:0:0:
320,192,32151,1,0,0:0:0:0:
448,192,32201,1,0,0:0:0:0:
64,192,32251,1,2,0:0:0:0:
192,192,32251,1,8,0:0:0:0:
320,192,32351,1,0,0:0:0:0:
64,192,32451,1,8,0:0:0:0:
448,192,32451,1,0,0:0:0:0:
192,192,32551,1,0,0:0:0:0:
320,192,32651,1,2,0:0:0:0:
448,192,32651,1,0,0:0:0:0:
64,192,32701,1,0,0:0:0:0:
192,192,32751,1,0,0:0:0:0:
64,192,32801,1,0,0:0:0:0:
448,192,32851,1,0,0:0:0:0:
320,192,33051,128,8,33151:0:0:0:0:
192,192,33151,1,0,0:0:0:0:
448,192,33251,128,0,33351:0:0:0:0:
64,192,33351,1,0,0:0:0:0:
448,192,33451,128,0,33551:0:0:0:0:
64,192,33551,1,2,0:0:0:0:
192,192,33551,1,0,0:0:0:0:
320,192,33651,1,2,0:0:0:0:
448,192,33651,1,8,0:0:0:0:
192,192,33751,1,0,0:0:0:0:
448,192,33851,1,2,0:0:0:0:
64,192,33851,1,0,0:0:0:0:
64,192,33951,1,2,0:0:0:0:
192,192,33951,1,0,0:0:0:0:
320,192,34051,1,0,0:0:0:0:
64,192,34151,1,0,0:0:0:0:
448,192,34151,1,0,0:0:0:0:
192,192,34251,1,2,0:0:0:0:
64,192,34251,1,0,0:0:0:0:
320,192,34351,1,0,0:0:0:0:
192,192,34451,1,0,0:0:0:0:
448,192,34551,128,0,34851:0:0:0:0:
320,192,34651,1,0,0:0:0:0:
64,192,34751,1,0,0:0:0:0:
320,192,34851,1,0,0:0:0:0:
192,192,34951,1,0,0:0:0:0:
448,192,35051,1,0,0:0:0:0:
192,192,35151,1,0,0:0:0:0:
64,192,35201,1,0,0:0:0:0:
320,192,35251,1,2,0:0:0:0:
448,192,35251,1,0,0:0:0:0:
192,192,35351,1,0,0:0:0:0:
448,192,35451,128,0,35551:0:0:0:0:
64,192,35551,1,0,0:0:0:0:
320,192,35651,1,2,0:0:0:0:
448,192,35651,1,0,0:0:0:0:
192,192,35751,1,0,0:0:0:0:
64,192,35851,1,2,0:0:0:0:
448,192,35851,1,0,0:0:0:0:
320,192,35951,1,0,0:0:0:0:
192,192,36001,1,0,0:0:0:0:
64,192,36051,1,2,0:0:0:0:
448,192,36051,1,0,0:0:0:0:
64,192,36251,1,0,0:0:0:0:
192,192,36351,1,0,0:0:0:0:
320,192,36351,1,0,0:0:0:0:
64,192,36451,1,2,0:0:0:0:
448,192,36451,1,8,0:0:0:0:
320,192,36551,1,0,0:0:0:0:
448,192,36651,1,0,0:0:0:0:
192,192,36701,1,0,0:0:0:0:
64,192,36751,1,0,0:0:0:0:
320,192,36851,1,2,0:0:0:0:
448,192,36851,1,0,0:0:0:0:
192,192,36901,1,0,0:0:0:0:
320,192,36951,1,0,0:0:0:0:
64,192,37001,1,0,0:0:0:0:
448,192,37051,1,0,0:0:0:0:
192,192,37101,1,0,0:0:0:0:
448,192,37151,1,0,0:0:0:0:
64,192,37201,1,0,0:0:0:0:
192,192,37251,1,2,0:0:0:0:
320,192,37251,1,0,0:0:0:0:
64,192,37351,1,0,0:0:0:0:
448,192,37451,1,0,0:0:0:0:
192,192,37551,1,0,0:0:0:0:
64,192,37651,1,0,0:0:0:0:
448,192,37851,1,0,0:0:0:0:
320,192,37951,1,0,0:0:0:0:
64,192,38051,1,0,0:0:0:0:
320,192,38251,1,0,0:0:0:0:
320,192,38351,1,0,0:0:0:0:
64,192,38451,1,2,0:0:0:0:
192,192,38451,1,8,0:0:0:0:
448,192,38651,1,0,0:0:0:0:
192,192,38751,1,0,0:0:0:0:
64,192,38801,1,0,0:0:0:0:
320,192,38851,1,0,0:0:0:0:
192,192,39051,1,0,0:0:0:0:
64,192,39101,1,0,0:0:0:0:
448,192,39151,1,0,0:0:0:0:
320,192,39201,1,0,0:0:0:0:
64,192,39251,1,0,0:0:0:0:
192,192,39251,1,0,0:0:0:0:
64,192,39451,1,0,0:0:0:0:
192,192,39501,1,0,0:0:0:0:
448,192,39551,1,0,0:0:0:0:
320,192,39651,1,0,0:0:0:0:
64,192,39751,1,2,0:0:0:0:
192,192,39751,1,0,0:0:0:0:
320,192,39851,1,2,0:0:0:0:
448,192,39851,1,0,0:0:0:0:
192,192,39951,1,0,0:0:0:0:
64,192,40051,1,2,0:0:0:0:
448,192,40051,1,8,0:0:0:0:
320,192,40151,1,0,0:0:0:0:
192,192,40251,1,0,0:0:0:0:
320,192,40451,1,2,0:0:0:0:
448,192,40451,1,0,0:0:0:0:
192,192,40651,1,0,0:0:0:0:
64,192,40751,1,0,0:0:0:0:
320,192,40801,1,0,0:0:0:0:
448,192,40851,1,0,0:0:0:0:
192,192,40951,1,0,0:0:0:0:
64,192,41051,1,2,0:0:0:0:
448,192,41051,1,0,0:0:0:0:
320,192,41151,1,0,0:0:0:0:
64,192,41251,1,0,0:0:0:0:
192,192,41301,1,0,0:0:0:0:
448,192,41351,1,0,0:0:0:0:
320,192,41401,1,0,0:0:0:0:
64,192,41451,1,0,0:0:0:0:
192,192,41501,1,0,0:0:0:0:
448,192,41551,1,0,0:0:0:0:
320,192,41601,1,0,0:0:0:0:
64,192,41651,1,2,0:0:0:0:
192,192,41651,1,0,0:0:0:0:
448,192,41751,1,0,0:0:0:0:
320,192,41851,1,0,0:0:0:0:
192,192,41901,1,0,0:0:0:0:
64,192,41951,1,0,0:0:0:0:
320,192,42051,1,2,0:0:0:0:
448,192,42051,1,0,0:0:0:0:
64,192,42251,1,8,0:0:0:0:
448,192,42251,1,0,0:0:0:0:
192,192,42351,1,0,0:0:0:0:
320,192,42451,1,0,0:0:0:0:
448,192,42651,1,0,0:0:0:0:
64,192,42701,1,0,0:0:0:0:
320,192,42751,1,0,0:0:0:0:
192,192,42851,1,0,0:0:0:0:
448,192,42951,1,0,0:0:0:0:
64,192,43051,1,2,0:0:0:0:
192,192,43051,1,0,0:0:0:0:
320,192,43151,1,0,0:0:0:0:
64,192,43251,1,2,0:0:0:0:
448,192,43251,1,8,0:0:0:0:
192,192,43351,1,0,0:0:0:0:
448,192,43451,1,0,0:0:0:0:
64,192,43501,1,0,0:0:0:0:
192,192,43551,1,0,0:0:0:0:
448,192,43651,1,0,0:0:0:0:
320,192,43701,1,0,0:0:0:0:
64,192,43751,1,0,0:0:0:0:
192,192,43851,1,2,0:0:0:0:
448,192,43851,1,0,0:0:0:0:
320,192,43951,1,0,0:0:0:0:
192,192,44051,1,0,0:0:0:0:
64,192,44101,1,0,0:0:0:0:
320,192,44151,1,0,0:0:0:0:
448,192,44201,1,0,0:0:0:0:
192,192,44251,1,0,0:0:0:0:
64,192,44301,1,0,0:0:0:0:
320,192,44351,1,0,0:0:0:0:
448,192,44401,1,0,0:0:0:0:
320,192,44501,1,0,0:0:0:0:
64,192,44551,1,0,0:0:0:0:
192,192,44651,1,0,0:0:0:0:
448,192,44701,1,0,0:0:0:0:
320,192,44751,1,0,0:0:0:0:
64,192,44851,1,2,0:0:0:0:
192,192,44851,1,8,0:0:0:0:
320,192,44951,1,0,0:0:0:0:
448,192,45001,1,0,0:0:0:0:
64,192,45051,1,8,0:0:0:0:
192,192,45151,1,2,0:0:0:0:
320,192,45151,1,0,0:0:0:0:
64,192,45251,1,8,0:0:0:0:
448,192,45251,1,0,0:0:0:0:
192,192,45351,1,0,0:0:0:0:
320,192,45451,1,2,0:0:0:0:
448,192,45451,1,0,0:0:0:0:
64,192,45651,1,0,0:0:0:0:
448,192,45851,1,8,0:0:0:0:
192,192,45901,1,0,0:0:0:0:
320,192,45951,1,0,0:0:0:0:
64,192,46051,1,0,0:0:0:0:
192,192,46101,1,0,0:0:0:0:
448,192,46151,1,0,0:0:0:0:
320,192,46251,1,0,0:0:0:0:
64,192,46301,1,0,0:0:0:0:
192,192,46351,1,0,0:0:0:0:
320,192,46451,1,2,0:0:0:0:
448,192,46451,1,8,0:0:0:0:
64,192,46551,1,0,0:0:0:0:
192,192,46651,1,2,0:0:0:0:
448,192,46701,1,0,0:0:0:0:
320,192,46751,1,0,0:0:0:0:
64,192,46851,1,0,0:0:0:0:
448,192,46951,1,0,0:0:0:0:
320,192,47001,1,0,0:0:0:0:
64,192,47051,1,2,0:0:0:0:
192,192,47051,1,0,0:0:0:0:
448,192,47151,1,0,0:0:0:0:
320,192,47251,1,0,0:0:0:0:
64,192,47451,1,0,0:0:0:0:
448,192,47551,1,0,0:0:0:0:
320,192,47601,1,0,0:0:0:0:
192,192,47651,1,0,0:0:0:0:
448,192,47751,1,0,0:0:0:0:
64,192,47851,1,0,0:0:0:0:
448,192,47951,1,0,0:0:0:0:
320,192,48001,1,0,0:0:0:0:
64,192,48051,1,2,0:0:0:0:
192,192,48051,1,0,0:0:0:0:
320,192,48151,1,0,0:0:0:0:
448,192,48251,128,0,48351:0:0:0:0:
64,192,48351,1,0,0:0:0:0:
192,192,48451,1,0,0:0:0:0:
320,192,48501,1,0,0:0:0:0:
448,192,48551,1,0,0:0:0:0:
64,192,48651,128,2,48751:0:0:0:0:
192,192,48651,1,0,0:0:0:0:
448,192,48751,1,0,0:0:0:0:
192,192,48801,1,0,0:0:0:0:
320,192,48851,1,0,0:0:0:0:
64,192,49051,1,0,0:0:0:0:
448,192,49151,1,0,0:0:0:0:
320,192,49201,1,0,0:0:0:0:
192,192,49251,1,0,0:0:0:0:
64,192,49301,1,0,0:0:0:0:
320,192,49351,1,0,0:0:0:0:
448,192,49401,1,0,0:0:0:0:
192,192,49451,1,0,0:0:0:0:
64,192,49501,1,0,0:0:0:0:
320,192,49551,1,0,0:0:0:0:
448,192,49601,1,0,0:0:0:0:
64,192,49651,1,2,0:0:0:0:
192,192,49651,1,0,0:0:0:0:
320,192,49751,1,0,0:0:0:0:
64,192,49851,1,0,0:0:0:0:
192,192,49901,1,0,0:0:0:0:
448,192,49951,1,0,0:0:0:0:
320,192,50001,1,0,0:0:0:0:
64,192,50051,1,2,0:0:0:0:
192,192,50051,1,0,0:0:0:0:
448,192,50151,1,0,0:0:0:0:
192,192,50251,1,0,0:0:0:0:
448,192,50351,1,0,0:0:0:0:
64,192,50451,1,0,0:0:0:0:
64,192,50584,1,0,0:0:0:0:
64,192,50717,1,0,0:0:0:0:
320,192,50851,1,0,0:0:0:0:
192,192,50901,1,0,0:0:0:0:
320,192,50984,1,0,0:0:0:0:
320,192,51117,1,0,0:0:0:0:
64,192,51251,128,8,52851:0:0:0:0:
448,192,51251,1,0,0:0:0:0:
192,192,52851,1,8,0:0:0:0:
320,192,52851,128,0,54451:0:0:0:0:
192,192,54451,128,8,56051:0:0:0:0:
64,192,56051,128,8,57651:0:0:0:0:
448,192,57651,128,8,59251:0:0:0:0:
192,192,59251,128,8,60851:0:0:0:0:
320,192,60851,128,8,62451:0:0:0:0:
64,192,62451,128,8,64051:0:0:0:0:
