osu file format v14

[General]
AudioFilename: audio.mp3
AudioLeadIn: 0
PreviewTime: 90227
Countdown: 0
SampleSet: Soft
StackLeniency: 0.7
Mode: 0
LetterboxInBreaks: 0
WidescreenStoryboard: 0

[Editor]
Bookmarks: 22639,35344,45227,67815,90403,107168,107609,108050,120050,120403,120756,124286,135580
DistanceSpacing: 1.3
BeatDivisor: 4
GridSize: 32
TimelineZoom: 1

[Metadata]
Title:idk
TitleUnicode:idk
Artist:uselet
ArtistUnicode:uselet
Creator:fergas
Version:Hard
Source:
Tags:breakcore downtempo russian break beat
BeatmapID:1794313
BeatmapSetID:858566

[Difficulty]
HPDrainRate:5
CircleSize:4.7
OverallDifficulty:6
ApproachRate:7.5
SliderMultiplier:1.8
SliderTickRate:1

[Events]
//Background and Video events
0,0,"mami.jpg",0,0
//Break Periods
2,67815,88166
//Storyboard Layer 0 (Background)
//Storyboard Layer 1 (Fail)
//Storyboard Layer 2 (Pass)
//Storyboard Layer 3 (Foreground)
//Storyboard Layer 4 (Overlay)
//Storyboard Sound Samples

[TimingPoints]
22639,705.882352941176,4,2,0,60,1,0
45227,-117.647058823529,4,2,0,60,0,0
88991,-117.647058823529,4,2,0,20,0,0
89168,-117.647058823529,4,2,0,25,0,0
89344,-117.647058823529,4,2,0,30,0,0
89521,-117.647058823529,4,2,0,35,0,0
89697,-117.647058823529,4,2,0,40,0,0
89874,-117.647058823529,4,2,0,45,0,0
90050,-117.647058823529,4,2,0,50,0,0
90227,-100,4,2,0,5,0,0
90403,-100,4,2,0,60,0,0
124286,-117.647058823529,4,2,0,60,0,0

[Colours]
Combo1 : 149,149,149
Combo2 : 58,58,58
Combo3 : 46,85,133

[HitObjects]
76,260,22639,5,2,0:2:0:0:
90,279,23168,2,0,P|90:301|87:323,1,45,8|0,0:3|0:0,0:0:0:0:
173,244,23697,1,8,0:3:0:0:
257,326,24050,2,0,B|358:315|358:315|447:280,1,180,4|0,1:2|0:0,0:0:0:0:
375,166,25109,1,8,0:3:0:0:
415,40,25462,5,4,0:3:0:0:
415,40,26168,1,0,0:0:0:0:
464,180,26521,1,8,0:3:0:0:
341,96,26874,2,0,B|278:118|278:118|236:109,1,90,0|0,1:0|0:0,0:0:0:0:
125,59,27580,1,0,1:0:0:0:
80,97,27756,1,0,1:0:0:0:
52,148,27933,1,0,1:0:0:0:
46,206,28109,1,0,1:0:0:0:
54,264,28286,6,0,P|93:282|141:322,1,90,2|0,0:2|0:0,0:0:0:0:
166,240,28815,1,8,0:3:0:0:
234,277,28991,2,0,P|269:241|302:187,1,90,8|8,0:3|0:3,0:0:0:0:
174,82,29697,2,0,P|194:122|207:166,1,90,0|0,1:0|0:0,0:0:0:0:
273,98,30227,2,0,P|295:86|326:78,1,45,0|0,1:0|0:0,0:0:0:0:
271,132,30756,1,0,1:0:0:0:
373,183,31109,6,0,B|386:235|386:235|379:301,1,90,4|0,0:3|0:0,0:0:0:0:
397,155,31815,1,8,0:3:0:0:
512,327,32521,2,0,L|412:360,1,90,8|0,0:3|0:0,0:0:0:0:
299,290,33227,1,0,1:0:0:0:
210,342,33580,1,0,1:0:0:0:
176,209,33933,5,2,2:0:0:0:
145,229,34462,2,0,P|156:259|161:290,1,45,8|0,0:3|0:0,0:0:0:0:
203,152,34991,1,8,0:3:0:0:
290,233,35344,2,0,B|214:292|214:292|108:323,1,180,4|0,1:2|0:0,0:0:0:0:
46,228,36403,1,8,0:3:0:0:
86,111,36756,5,4,0:3:0:0:
86,111,37462,1,0,0:0:0:0:
156,180,37815,1,8,0:3:0:0:
169,64,38168,2,0,B|214:43|214:43|273:40,1,90,0|0,1:0|0:0,0:0:0:0:
253,168,38874,1,0,1:0:0:0:
315,213,39050,2,0,P|318:239|316:258,1,45,0|0,1:0|0:0,0:0:0:0:
375,168,39403,1,0,1:0:0:0:
402,237,39580,6,0,P|394:286|373:331,1,90,2|0,0:2|0:0,0:0:0:0:
315,200,40109,1,8,0:3:0:0:
394,150,40286,1,8,0:3:0:0:
211,132,40639,1,8,0:3:0:0:
211,132,40991,2,0,P|226:189|225:242,1,90,0|0,1:0|0:0,0:0:0:0:
123,293,41521,2,0,P|136:274|143:253,1,45,0|0,1:0|0:0,0:0:0:0:
56,156,42050,1,0,1:0:0:0:
56,156,42403,6,0,P|114:178|159:178,1,90,4|0,0:3|0:0,0:0:0:0:
50,131,43109,1,8,0:3:0:0:
89,147,43815,2,0,P|150:137|189:114,1,90,8|0,0:3|0:0,0:0:0:0:
258,29,44521,1,0,1:0:0:0:
258,29,44874,1,0,1:0:0:0:
354,52,45227,6,0,P|387:68|453:161,1,153.000002918243,2|0,0:2|0:0,0:0:0:0:
307,211,46638,2,0,P|314:286|353:351,1,153.000002918243,4|0,1:1|0:0,0:0:0:0:
189,340,48050,2,0,P|123:346|41:315,2,153.000002918243,8|0|0,0:3|0:0|0:0,0:0:0:0:
181,243,49815,1,8,0:3:0:0:
288,182,50168,1,4,1:2:0:0:
177,37,50874,5,2,0:2:0:0:
97,125,51403,2,0,L|99:163,1,38.2500007295609,8|0,0:3|0:0,0:0:0:0:
26,82,51933,1,8,0:3:0:0:
112,133,52286,2,0,L|124:289,1,153.000002918243,0|0,1:0|0:0,0:0:0:0:
368,274,53697,1,0,0:0:0:0:
368,274,54403,1,0,0:0:0:0:
289,221,54756,1,8,0:3:0:0:
415,160,55109,2,0,P|445:91|452:12,1,153.000002918243,4|0,1:2|0:0,0:0:0:0:
307,96,56521,6,0,P|336:149|340:248,1,153.000002918243,2|0,0:2|0:0,0:0:0:0:
372,376,57933,2,0,P|437:336|511:320,1,153.000002918243,4|0,1:1|0:0,0:0:0:0:
382,226,59344,2,0,P|391:150|424:81,2,153.000002918243,4|0|0,0:3|0:0|0:0,0:0:0:0:
307,279,61109,1,8,0:3:0:0:
307,279,61462,1,4,1:2:0:0:
141,212,62168,5,2,0:2:0:0:
51,291,62697,2,0,L|60:328,1,38.2500007295609,8|0,0:3|0:0,0:0:0:0:
65,212,63227,1,8,0:3:0:0:
28,138,63580,2,0,B|108:98|108:98|162:40,2,153.000002918243,0|0|0,1:0|0:0|0:0,0:0:0:0:
51,291,65697,1,0,0:0:0:0:
96,194,66050,1,8,0:3:0:0:
235,209,66403,2,0,P|298:239|371:303,1,153.000002918243,4|0,1:2|0:0,0:0:0:0:
256,192,88991,12,0,90227,0:0:0:0:
238,233,90403,6,0,P|190:254|153:290,1,90,2|0,0:2|0:0,0:0:0:0:
44,330,91109,2,0,P|70:294|81:251,1,90,8|0,0:3|0:0,0:0:0:0:
119,178,91638,1,8,0:3:0:0:
92,99,91815,2,0,B|47:124|47:124|3:131,2,90,4|0|0,1:2|0:0|0:0,0:0:0:0:
182,36,92874,1,8,0:3:0:0:
182,36,93227,6,0,P|227:60|264:94,1,90,4|0,0:3|0:0,0:0:0:0:
326,129,93756,2,0,P|336:106|342:81,2,45,8|0|0,0:3|0:0|0:0,0:0:0:0:
321,213,94286,1,8,0:3:0:0:
248,107,94638,1,0,1:0:0:0:
219,238,94991,1,0,1:0:0:0:
49,186,95344,1,0,1:0:0:0:
49,244,95521,1,0,1:0:0:0:
70,298,95697,1,0,1:0:0:0:
116,334,95874,1,0,1:0:0:0:
172,347,96050,6,0,B|217:328|217:328|273:321,1,90,2|0,0:2|0:0,0:0:0:0:
388,319,96756,2,0,B|422:335|422:335|472:323,2,90
450,220,97815,1,8,0:3:0:0:
336,193,98168,2,0,L|239:219,1,90,4|0,1:2|0:0,0:0:0:0:
163,297,98874,6,0,P|132:335|77:367,2,90,4|0|0,0:3|0:0|0:0,0:0:0:0:
105,206,99933,1,0,0:0:0:0:
188,96,100286,1,0,1:0:0:0:
188,96,100638,1,0,1:0:0:0:
188,96,100991,1,0,1:0:0:0:
244,113,101168,1,0,1:0:0:0:
302,110,101344,1,0,1:0:0:0:
354,82,101521,1,0,1:0:0:0:
387,34,101697,5,2,0:2:0:0:
382,175,102227,2,0,P|385:198|391:220,1,45,8|0,0:3|0:0,0:0:0:0:
436,120,102756,1,8,0:3:0:0:
311,200,103109,2,0,P|226:174|174:102,1,180,4|0,1:2|0:0,0:0:0:0:
83,143,104168,1,8,0:3:0:0:
55,47,104521,5,4,0:3:0:0:
55,47,105227,1,0,0:0:0:0:
83,143,105580,1,8,0:3:0:0:
40,233,105933,2,0,B|52:281|52:281|43:320,1,90,0|0,1:0|0:0,0:0:0:0:
164,257,106638,1,0,1:0:0:0:
229,291,106815,2,0,L|220:335,1,45,0|0,1:0|0:0,0:0:0:0:
299,264,107168,1,0,1:0:0:0:
363,302,107344,6,0,B|426:298|426:298|450:285,1,90,2|0,0:2|0:0,0:0:0:0:
432,210,107874,1,8,0:3:0:0:
474,117,108050,1,8,0:3:0:0:
474,117,108403,1,8,0:3:0:0:
362,156,108756,2,0,L|274:133,1,90,0|0,1:0|0:0,0:0:0:0:
239,65,109286,2,0,L|174:48,1,45,0|0,1:0|0:0,0:0:0:0:
77,53,109815,1,0,1:0:0:0:
108,166,110168,6,0,P|86:210|56:248,1,90,4|0,0:3|0:0,0:0:0:0:
110,138,110874,1,8,0:3:0:0:
96,158,111580,2,0,P|60:191|15:206,1,90,8|0,0:3|0:0,0:0:0:0:
139,241,112286,1,0,1:0:0:0:
45,308,112638,1,0,1:0:0:0:
181,328,112991,6,0,B|230:308|230:308|249:276,1,90,2|0,0:2|0:0,0:0:0:0:
357,250,113697,2,0,B|410:257|410:257|439:277,1,90,8|0,0:3|0:0,3:0:0:0:
483,213,114227,1,8,0:3:0:0:
476,136,114403,2,0,B|445:162|406:183|372:186|372:186|296:175,1,180,4|0,1:2|0:0,0:0:0:0:
265,75,115462,1,8,0:3:0:0:
265,75,115815,6,0,P|223:54|168:43,1,90,4|0,0:3|0:0,0:0:0:0:
118,124,116344,2,0,P|111:152|103:185,2,45,8|0|0,0:3|0:0|0:0,0:0:0:0:
67,77,116874,1,8,0:3:0:0:
58,269,117227,1,0,1:0:0:0:
36,162,117580,1,0,1:0:0:0:
168,250,117933,1,0,1:0:0:0:
222,229,118109,1,0,1:0:0:0:
280,237,118286,1,0,1:0:0:0:
334,257,118462,1,0,1:0:0:0:
385,284,118638,6,0,P|434:266|478:245,1,90,2|0,0:2|0:0,0:0:0:0:
374,182,119344,2,0,P|321:171|281:157,1,90
273,66,120050,1,0,0:0:0:0:
185,188,120403,1,8,0:3:0:0:
164,54,120756,2,0,P|140:81|105:140,1,90,4|0,1:2|0:0,0:0:0:0:
30,211,121462,6,0,P|50:250|62:295,1,90,4|0,0:3|0:0,0:0:0:0:
156,361,122168,2,0,P|182:325|202:283,1,90
192,154,122874,1,0,1:0:0:0:
302,256,123227,1,0,1:0:0:0:
295,142,123580,1,0,1:0:0:0:
328,94,123756,1,0,1:0:0:0:
377,61,123933,1,0,1:0:0:0:
435,59,124109,1,0,1:0:0:0:
481,76,124286,6,0,B|449:137|449:137|438:245,1,153.000002918243,2|0,0:2|0:0,0:0:0:0:
383,320,125697,2,0,B|304:362|304:362|241:368,1,153.000002918243,4|0,1:1|0:0,0:0:0:0:
155,289,127109,2,0,P|86:271|-2:274,2,153.000002918243,4|0|0,0:3|0:0|0:0,0:0:0:0:
250,264,128874,1,8,0:3:0:0:
292,157,129227,1,4,1:2:0:0:
190,31,129933,5,2,0:2:0:0:
303,119,130462,2,0,L|341:116,1,38.2500007295609,8|0,0:3|0:0,0:0:0:0:
225,175,130992,1,8,0:3:0:0:
114,126,131345,2,0,B|73:144|73:144|4:246,1,153.000002918243,0|0,1:0|0:0,0:0:0:0:
146,345,132756,1,0,0:0:0:0:
321,329,133462,1,0,0:0:0:0:
398,279,133815,1,8,0:3:0:0:
273,236,134168,2,0,P|236:171|221:93,1,153.000002918243,4|0,1:2|0:0,0:0:0:0:
