osu file format v14

[General]
AudioFilename: audio.mp3
AudioLeadIn: 0
PreviewTime: 47981
Countdown: 0
SampleSet: Normal
StackLeniency: 0.7
Mode: 1
LetterboxInBreaks: 0
WidescreenStoryboard: 1

[Editor]
Bookmarks: 47981,95981
DistanceSpacing: 1.1
BeatDivisor: 4
GridSize: 32
TimelineZoom: 1.7

[Metadata]
Title:cxvbiopxvcbn
TitleUnicode:cxvbiopxvcbn
Artist:uselet
ArtistUnicode:uselet
Creator:op45667
Version:muzukashii
Source:
Tags:breakcore depressive melancholy instrumental electronic ambient liku
BeatmapID:3565379
BeatmapSetID:1742153

[Difficulty]
HPDrainRate:6
CircleSize:5
OverallDifficulty:5
ApproachRate:5
SliderMultiplier:1.4
SliderTickRate:1

[Events]
//Background and Video events
0,0,"1371432.jpg",0,-70
//Break Periods
//Storyboard Layer 0 (Background)
//Storyboard Layer 1 (Fail)
//Storyboard Layer 2 (Pass)
//Storyboard Layer 3 (Foreground)
//Storyboard Layer 4 (Overlay)
//Storyboard Sound Samples

[TimingPoints]
0,375,8,1,0,40,1,0
0,-100,8,1,0,40,0,0
23981,375,4,1,0,80,1,0
23981,-105.263157894737,4,1,0,80,0,0
47981,-90.9090909090909,4,1,0,100,0,1
71418,-90.9090909090909,4,1,0,100,0,1
71481,-93.4579439252336,4,1,0,100,0,1
71606,-96.1538461538461,4,1,0,100,0,1
71668,-99.009900990099,4,1,0,100,0,1
71793,-102.040816326531,4,1,0,100,0,1
71981,-105.263157894737,4,1,0,80,0,0
95231,-104.166666666667,4,1,0,80,0,0
95324,-103.092783505155,4,1,0,80,0,0
95418,-102.040816326531,4,1,0,80,0,0
95606,-100,4,1,0,80,0,0
95699,-97.0873786407767,4,1,0,80,0,0
95793,-94.3396226415094,4,1,0,80,0,0
95856,-91.743119266055,4,1,0,80,0,0
95918,-89.2857142857143,4,1,0,80,0,0
95981,-86.9565217391304,4,1,0,100,0,1
119324,-86.9565217391304,4,1,0,100,0,1
119418,-88.8888888888889,4,1,0,100,0,1
119512,-90.9090909090909,4,1,0,100,0,1
119606,-93.4579439252336,4,1,0,100,0,1
119699,-96.1538461538461,4,1,0,100,0,1
119793,-99.009900990099,4,1,0,100,0,1
119887,-102.040816326531,4,1,0,100,0,1
119981,-105.263157894737,4,1,0,80,0,0
121481,-117.647058823529,4,1,0,70,0,0
122981,-133.333333333333,4,1,0,60,0,0
124481,-181.818181818182,4,1,0,50,0,0
125981,-222.222222222222,4,1,0,40,0,0

[HitObjects]
355,250,23981,5,4,0:0:0:0:
231,64,24168,1,8,0:0:0:0:
214,97,24262,1,8,0:0:0:0:
214,97,24543,1,8,0:0:0:0:
214,97,24731,1,0,0:0:0:0:
207,56,24918,1,8,0:0:0:0:
207,56,25106,1,0,0:0:0:0:
207,56,25481,1,0,0:0:0:0:
172,79,25762,1,8,0:0:0:0:
194,49,25949,1,8,0:0:0:0:
194,49,26043,1,8,0:0:0:0:
354,243,26231,1,0,0:0:0:0:
345,96,26418,1,8,0:0:0:0:
351,257,26512,1,8,0:0:0:0:
254,94,26606,1,8,0:0:0:0:
204,56,26793,1,8,0:0:0:0:
402,317,26981,1,0,0:0:0:0:
278,226,27168,1,8,0:0:0:0:
288,271,27262,1,8,0:0:0:0:
169,95,27543,1,8,0:0:0:0:
438,323,27918,1,8,0:0:0:0:
438,323,28106,1,0,0:0:0:0:
279,228,28293,1,0,0:0:0:0:
410,246,28387,1,0,0:0:0:0:
179,135,28481,1,0,0:0:0:0:
295,280,28668,1,8,0:0:0:0:
271,142,28856,1,8,0:0:0:0:
295,259,29043,1,8,0:0:0:0:
295,259,29231,1,0,0:0:0:0:
220,177,29793,1,0,0:0:0:0:
423,207,29981,1,0,0:0:0:0:
302,235,30168,1,8,0:0:0:0:
302,235,30262,1,8,0:0:0:0:
327,215,30543,1,8,0:0:0:0:
327,215,30824,1,8,0:0:0:0:
327,215,30918,1,8,0:0:0:0:
126,86,31106,1,0,0:0:0:0:
306,174,31293,1,8,0:0:0:0:
306,174,31481,1,0,0:0:0:0:
175,68,31762,1,0,0:0:0:0:
235,135,32043,1,0,0:0:0:0:
226,129,32324,1,0,0:0:0:0:
226,129,32606,1,0,0:0:0:0:
296,202,32699,1,0,0:0:0:0:
252,149,32793,1,0,0:0:0:0:
270,114,32981,1,0,0:0:0:0:
270,114,33168,1,8,0:0:0:0:
270,114,33356,1,0,0:0:0:0:
270,114,33543,1,0,0:0:0:0:
210,95,34106,1,0,0:0:0:0:
210,95,34293,1,8,0:0:0:0:
143,85,34481,1,0,0:0:0:0:
143,85,34668,1,8,0:0:0:0:
143,85,34856,1,8,0:0:0:0:
211,222,35043,1,0,0:0:0:0:
211,222,35231,1,8,0:0:0:0:
143,85,35324,1,8,0:0:0:0:
143,85,35512,1,0,0:0:0:0:
143,85,35606,1,0,0:0:0:0:
143,85,35793,1,8,0:0:0:0:
143,85,35981,1,0,0:0:0:0:
511,259,36262,1,0,0:0:0:0:
209,122,36449,1,8,0:0:0:0:
209,122,36543,1,8,0:0:0:0:
261,124,36918,1,8,0:0:0:0:
155,54,37106,1,0,0:0:0:0:
155,54,37293,1,8,0:0:0:0:
155,54,37481,1,0,0:0:0:0:
149,100,37668,1,0,0:0:0:0:
149,100,37762,1,0,0:0:0:0:
149,100,37949,1,8,0:0:0:0:
306,212,38043,1,8,0:0:0:0:
262,128,38606,1,8,0:0:0:0:
172,149,38699,1,8,0:0:0:0:
206,41,38793,1,8,0:0:0:0:
302,257,38981,1,0,0:0:0:0:
269,169,39168,1,0,0:0:0:0:
269,169,39262,1,0,0:0:0:0:
269,97,39449,1,8,0:0:0:0:
269,97,39543,1,8,0:0:0:0:
272,198,39918,1,8,0:0:0:0:
272,198,40106,1,0,0:0:0:0:
272,198,40293,1,0,0:0:0:0:
272,198,40481,1,8,0:0:0:0:
383,257,40668,1,0,0:0:0:0:
383,257,40762,1,0,0:0:0:0:
159,122,40949,1,8,0:0:0:0:
159,122,41043,1,8,0:0:0:0:
383,257,41231,1,8,0:0:0:0:
383,257,41418,1,0,0:0:0:0:
383,257,41606,1,8,0:0:0:0:
296,202,41699,1,8,0:0:0:0:
305,191,41793,1,8,0:0:0:0:
305,191,41981,1,0,0:0:0:0:
305,191,42168,1,0,0:0:0:0:
305,191,42262,1,0,0:0:0:0:
305,191,42449,1,8,0:0:0:0:
305,191,42543,1,8,0:0:0:0:
270,191,43106,1,0,0:0:0:0:
276,117,43293,1,8,0:0:0:0:
270,191,43481,1,0,0:0:0:0:
270,191,43668,1,0,0:0:0:0:
163,97,43762,1,0,0:0:0:0:
270,191,43949,1,8,0:0:0:0:
270,191,44043,1,8,0:0:0:0:
255,256,44418,1,0,0:0:0:0:
212,294,44606,1,8,0:0:0:0:
384,93,44699,1,8,0:0:0:0:
166,138,44793,1,8,0:0:0:0:
207,125,44981,1,0,0:0:0:0:
225,144,45168,1,0,0:0:0:0:
225,144,45262,1,0,0:0:0:0:
225,144,45449,1,8,0:0:0:0:
225,144,45543,1,8,0:0:0:0:
225,144,46106,1,0,0:0:0:0:
225,144,46293,1,0,0:0:0:0:
225,144,46481,1,0,0:0:0:0:
471,329,46668,1,8,0:0:0:0:
143,160,46856,1,0,0:0:0:0:
471,329,47043,1,8,0:0:0:0:
471,329,47231,1,0,0:0:0:0:
345,262,47324,1,0,0:0:0:0:
471,329,47418,1,0,0:0:0:0:
345,262,47606,1,8,0:0:0:0:
286,129,47981,1,4,0:0:0:0:
464,203,48168,1,8,0:0:0:0:
464,203,48262,1,8,0:0:0:0:
464,203,48356,1,8,0:0:0:0:
402,186,48543,1,8,0:0:0:0:
402,186,48731,1,0,0:0:0:0:
293,135,48918,1,8,0:0:0:0:
283,133,49106,1,0,0:0:0:0:
165,135,49481,1,0,0:0:0:0:
165,135,49668,1,8,0:0:0:0:
165,135,49856,1,8,0:0:0:0:
209,124,50043,1,8,0:0:0:0:
334,155,50231,1,0,0:0:0:0:
334,155,50418,1,8,0:0:0:0:
334,155,50512,1,8,0:0:0:0:
275,201,50606,1,8,0:0:0:0:
401,168,50793,1,8,0:0:0:0:
330,103,50981,1,4,0:0:0:0:
203,84,51543,1,8,0:0:0:0:
149,74,51731,1,0,0:0:0:0:
238,146,51918,1,8,0:0:0:0:
239,98,52012,1,8,0:0:0:0:
135,123,52106,1,8,0:0:0:0:
218,137,52293,1,8,0:0:0:0:
201,109,52481,1,4,0:0:0:0:
164,75,52668,1,8,0:0:0:0:
164,75,52856,1,12,0:0:0:0:
164,75,53231,1,0,0:0:0:0:
164,75,53418,1,8,0:0:0:0:
164,75,53606,1,8,0:0:0:0:
164,75,53793,1,8,0:0:0:0:
164,75,53981,1,0,0:0:0:0:
172,145,54543,1,8,0:0:0:0:
326,240,54637,1,8,0:0:0:0:
326,240,54731,1,8,0:0:0:0:
172,145,54918,1,8,0:0:0:0:
172,145,55106,1,0,0:0:0:0:
151,126,55481,1,0,0:0:0:0:
252,162,55668,1,0,0:0:0:0:
151,126,55856,1,8,0:0:0:0:
121,95,56043,1,8,0:0:0:0:
121,95,56231,1,0,0:0:0:0:
215,150,56418,1,8,0:0:0:0:
215,150,56512,1,8,0:0:0:0:
430,311,56606,1,8,0:0:0:0:
265,218,56793,1,8,0:0:0:0:
237,168,56981,1,4,0:0:0:0:
242,104,57543,1,8,0:0:0:0:
312,180,57731,1,0,0:0:0:0:
312,180,57918,1,8,0:0:0:0:
312,180,58106,1,0,0:0:0:0:
288,275,58199,1,0,0:0:0:0:
312,180,58293,1,0,0:0:0:0:
356,207,58481,1,4,0:0:0:0:
312,180,58668,1,8,0:0:0:0:
356,207,58856,1,12,0:0:0:0:
250,131,59231,1,0,0:0:0:0:
250,131,59418,1,8,0:0:0:0:
250,131,59606,1,8,0:0:0:0:
250,131,59793,1,0,0:0:0:0:
250,131,59981,1,0,0:0:0:0:
212,89,60543,1,8,0:0:0:0:
212,89,60731,1,8,0:0:0:0:
212,89,60918,1,8,0:0:0:0:
212,89,61106,1,0,0:0:0:0:
212,89,61481,1,0,0:0:0:0:
191,98,61668,1,8,0:0:0:0:
386,263,61856,1,8,0:0:0:0:
182,111,62043,1,0,0:0:0:0:
182,111,62231,1,8,0:0:0:0:
216,51,62418,1,8,0:0:0:0:
216,51,62512,1,8,0:0:0:0:
164,142,62606,1,8,0:0:0:0:
306,105,62793,1,8,0:0:0:0:
177,235,62981,1,4,0:0:0:0:
241,173,63543,1,8,0:0:0:0:
239,100,63731,1,8,0:0:0:0:
241,173,63918,1,8,0:0:0:0:
241,173,64106,1,0,0:0:0:0:
196,114,64199,1,0,0:0:0:0:
196,114,64293,1,0,0:0:0:0:
208,302,64481,1,4,0:0:0:0:
205,57,64668,1,8,0:0:0:0:
208,302,64856,1,12,0:0:0:0:
265,171,65231,1,0,0:0:0:0:
265,171,65418,1,0,0:0:0:0:
265,171,65606,1,8,0:0:0:0:
166,129,65793,1,8,0:0:0:0:
187,112,65981,1,0,0:0:0:0:
187,112,66543,1,8,0:0:0:0:
202,74,66731,1,8,0:0:0:0:
202,74,66918,1,0,0:0:0:0:
202,74,67106,1,0,0:0:0:0:
213,115,67481,1,8,0:0:0:0:
199,109,67668,1,8,0:0:0:0:
226,62,67856,1,0,0:0:0:0:
226,62,68043,1,8,0:0:0:0:
226,62,68231,1,0,0:0:0:0:
394,290,68418,1,8,0:0:0:0:
181,84,68512,1,8,0:0:0:0:
394,290,68606,1,8,0:0:0:0:
331,123,68793,1,8,0:0:0:0:
330,103,68981,1,4,0:0:0:0:
334,176,69356,1,8,0:0:0:0:
255,146,69449,1,8,0:0:0:0:
203,84,69543,1,8,0:0:0:0:
149,74,69731,1,0,0:0:0:0:
479,248,69918,1,8,0:0:0:0:
135,123,70106,1,0,0:0:0:0:
132,89,70199,1,0,0:0:0:0:
143,157,70293,1,0,0:0:0:0:
201,109,70481,1,4,0:0:0:0:
164,75,70668,1,8,0:0:0:0:
164,75,70856,1,12,0:0:0:0:
164,75,71231,1,0,0:0:0:0:
164,75,71418,1,8,0:0:0:0:
164,75,71512,1,8,0:0:0:0:
164,75,71606,1,8,0:0:0:0:
164,75,71793,1,8,0:0:0:0:
382,169,71981,1,0,0:0:0:0:
246,93,72168,1,8,0:0:0:0:
246,93,72262,1,8,0:0:0:0:
246,93,72356,1,8,0:0:0:0:
246,93,72543,1,0,0:0:0:0:
445,142,72731,1,8,0:0:0:0:
321,137,72824,1,8,0:0:0:0:
321,137,72918,1,8,0:0:0:0:
415,278,73481,1,0,0:0:0:0:
405,223,73668,1,8,0:0:0:0:
166,30,73762,1,8,0:0:0:0:
395,217,73856,1,8,0:0:0:0:
395,217,74043,1,0,0:0:0:0:
372,217,74324,1,0,0:0:0:0:
372,217,74418,1,0,0:0:0:0:
328,162,74606,1,8,0:0:0:0:
328,162,74699,1,8,0:0:0:0:
328,162,74793,1,8,0:0:0:0:
328,162,74981,1,0,0:0:0:0:
328,162,75168,1,8,0:0:0:0:
328,162,75449,1,0,0:0:0:0:
328,162,75543,1,0,0:0:0:0:
328,162,75731,1,8,0:0:0:0:
328,162,75918,1,8,0:0:0:0:
328,162,76106,1,0,0:0:0:0:
293,146,76668,1,8,0:0:0:0:
181,215,76856,1,8,0:0:0:0:
181,215,76949,1,8,0:0:0:0:
181,215,77043,1,8,0:0:0:0:
347,176,77231,1,0,0:0:0:0:
359,140,77418,1,8,0:0:0:0:
265,139,77512,1,8,0:0:0:0:
159,38,77699,1,8,0:0:0:0:
265,139,77793,1,8,0:0:0:0:
265,139,77981,1,0,0:0:0:0:
292,233,78168,1,8,0:0:0:0:
292,233,78262,1,8,0:0:0:0:
292,233,78543,1,0,0:0:0:0:
292,233,78731,1,8,0:0:0:0:
323,108,78918,1,8,0:0:0:0:
320,251,79012,1,8,0:0:0:0:
320,251,79106,1,8,0:0:0:0:
266,119,79293,1,8,0:0:0:0:
232,142,79481,1,0,0:0:0:0:
311,62,79856,1,8,0:0:0:0:
341,49,80043,1,8,0:0:0:0:
230,164,80137,1,8,0:0:0:0:
253,190,80324,1,0,0:0:0:0:
253,190,80418,1,0,0:0:0:0:
510,150,80606,1,8,0:0:0:0:
296,153,80793,1,8,0:0:0:0:
296,153,80981,1,0,0:0:0:0:
280,130,81168,1,8,0:0:0:0:
280,130,81262,1,8,0:0:0:0:
280,130,81449,1,0,0:0:0:0:
280,130,81543,1,0,0:0:0:0:
400,27,81731,1,8,0:0:0:0:
313,155,82106,1,8,0:0:0:0:
313,155,82199,1,8,0:0:0:0:
313,155,82293,1,8,0:0:0:0:
313,155,82481,1,0,0:0:0:0:
221,123,82668,1,0,0:0:0:0:
221,123,82856,1,8,0:0:0:0:
177,313,83043,1,0,0:0:0:0:
310,269,83231,1,8,0:0:0:0:
310,269,83418,1,0,0:0:0:0:
335,206,83981,1,0,0:0:0:0:
357,130,84168,1,8,0:0:0:0:
357,130,84262,1,8,0:0:0:0:
284,100,84356,1,8,0:0:0:0:
270,171,84543,1,0,0:0:0:0:
262,157,84731,1,8,0:0:0:0:
262,157,84824,1,8,0:0:0:0:
262,157,84918,1,8,0:0:0:0:
262,157,85106,1,8,0:0:0:0:
262,157,85293,1,8,0:0:0:0:
262,157,85481,1,0,0:0:0:0:
234,148,85668,1,0,0:0:0:0:
205,88,85856,1,8,0:0:0:0:
205,88,86043,1,0,0:0:0:0:
227,88,86324,1,0,0:0:0:0:
227,88,86418,1,0,0:0:0:0:
399,210,86606,1,0,0:0:0:0:
250,127,86793,1,8,0:0:0:0:
250,127,86981,1,0,0:0:0:0:
250,127,87543,1,0,0:0:0:0:
399,210,87731,1,8,0:0:0:0:
268,197,87824,1,8,0:0:0:0:
248,84,87918,1,8,0:0:0:0:
248,84,88106,1,0,0:0:0:0:
191,86,88481,1,0,0:0:0:0:
191,86,88668,1,8,0:0:0:0:
191,86,88856,1,8,0:0:0:0:
191,86,88949,1,8,0:0:0:0:
233,191,89043,1,8,0:0:0:0:
246,127,89231,1,0,0:0:0:0:
207,78,89418,1,0,0:0:0:0:
207,78,89512,1,0,0:0:0:0:
207,78,89699,1,8,0:0:0:0:
207,78,89793,1,8,0:0:0:0:
246,127,89981,1,0,0:0:0:0:
246,127,90168,1,8,0:0:0:0:
246,127,90356,1,0,0:0:0:0:
246,127,90543,1,8,0:0:0:0:
246,127,90731,1,8,0:0:0:0:
246,230,91293,1,8,0:0:0:0:
228,158,91481,1,0,0:0:0:0:
314,149,91668,1,8,0:0:0:0:
377,122,91856,1,8,0:0:0:0:
311,157,92043,1,8,0:0:0:0:
311,157,92137,1,8,0:0:0:0:
311,157,92231,1,8,0:0:0:0:
311,157,92418,1,0,0:0:0:0:
362,279,92606,1,8,0:0:0:0:
188,97,92699,1,8,0:0:0:0:
237,71,92793,1,8,0:0:0:0:
252,73,92981,1,0,0:0:0:0:
241,162,93262,1,8,0:0:0:0:
241,162,93356,1,8,0:0:0:0:
197,79,93543,1,8,0:0:0:0:
177,142,93731,1,8,0:0:0:0:
266,231,94106,1,8,0:0:0:0:
235,77,94199,1,8,0:0:0:0:
235,77,94387,1,0,0:0:0:0:
297,146,94481,1,0,0:0:0:0:
297,146,94668,1,0,0:0:0:0:
297,146,94856,1,8,0:0:0:0:
297,146,95043,1,0,0:0:0:0:
297,146,95231,1,8,0:0:0:0:
217,68,95324,1,8,0:0:0:0:
217,68,95418,1,8,0:0:0:0:
297,146,95606,1,8,0:0:0:0:
286,129,95981,1,4,0:0:0:0:
464,203,96168,1,8,0:0:0:0:
464,203,96262,1,8,0:0:0:0:
464,203,96356,1,8,0:0:0:0:
402,186,96543,1,8,0:0:0:0:
402,186,96731,1,0,0:0:0:0:
293,135,96918,1,8,0:0:0:0:
283,133,97106,1,0,0:0:0:0:
165,135,97481,1,0,0:0:0:0:
165,135,97668,1,8,0:0:0:0:
480,189,97762,1,8,0:0:0:0:
165,135,97856,1,8,0:0:0:0:
209,124,98043,1,8,0:0:0:0:
334,155,98231,1,0,0:0:0:0:
334,155,98418,1,8,0:0:0:0:
334,155,98512,1,8,0:0:0:0:
275,201,98606,1,8,0:0:0:0:
401,168,98793,1,8,0:0:0:0:
330,103,98981,1,4,0:0:0:0:
203,84,99543,1,8,0:0:0:0:
149,74,99731,1,0,0:0:0:0:
238,146,99918,1,8,0:0:0:0:
239,98,100012,1,8,0:0:0:0:
135,123,100106,1,8,0:0:0:0:
218,137,100293,1,8,0:0:0:0:
201,109,100481,1,4,0:0:0:0:
164,75,100668,1,8,0:0:0:0:
164,75,100856,1,12,0:0:0:0:
164,75,101043,1,0,0:0:0:0:
164,75,101231,1,0,0:0:0:0:
164,75,101418,1,8,0:0:0:0:
164,75,101512,1,8,0:0:0:0:
164,75,101606,1,8,0:0:0:0:
164,75,101793,1,8,0:0:0:0:
164,75,101981,1,0,0:0:0:0:
172,145,102543,1,8,0:0:0:0:
326,240,102637,1,8,0:0:0:0:
326,240,102731,1,8,0:0:0:0:
172,145,102918,1,8,0:0:0:0:
172,145,103106,1,0,0:0:0:0:
314,212,103293,1,0,0:0:0:0:
314,212,103387,1,0,0:0:0:0:
151,126,103481,1,0,0:0:0:0:
314,212,103668,1,8,0:0:0:0:
151,126,103856,1,8,0:0:0:0:
188,78,103949,1,8,0:0:0:0:
121,95,104043,1,8,0:0:0:0:
121,95,104231,1,0,0:0:0:0:
226,212,104418,1,0,0:0:0:0:
215,150,104512,1,0,0:0:0:0:
164,112,104699,1,8,0:0:0:0:
226,212,104793,1,8,0:0:0:0:
237,168,104981,1,4,0:0:0:0:
428,289,105543,1,0,0:0:0:0:
312,180,105731,1,0,0:0:0:0:
312,180,105918,1,8,0:0:0:0:
312,180,106106,1,0,0:0:0:0:
288,275,106199,1,0,0:0:0:0:
312,180,106293,1,0,0:0:0:0:
356,207,106481,1,4,0:0:0:0:
312,180,106668,1,8,0:0:0:0:
356,207,106856,1,12,0:0:0:0:
266,215,107043,1,0,0:0:0:0:
288,200,107231,1,8,0:0:0:0:
288,200,107418,1,0,0:0:0:0:
250,131,107606,1,8,0:0:0:0:
250,131,107699,1,8,0:0:0:0:
250,131,107793,1,8,0:0:0:0:
250,131,107981,1,0,0:0:0:0:
212,89,108543,1,8,0:0:0:0:
212,89,108731,1,0,0:0:0:0:
212,89,108918,1,0,0:0:0:0:
212,89,109106,1,8,0:0:0:0:
212,89,109481,1,0,0:0:0:0:
191,98,109668,1,8,0:0:0:0:
386,263,109856,1,8,0:0:0:0:
192,126,109949,1,8,0:0:0:0:
182,111,110043,1,8,0:0:0:0:
182,111,110231,1,0,0:0:0:0:
216,51,110418,1,8,0:0:0:0:
216,51,110512,1,8,0:0:0:0:
164,142,110606,1,8,0:0:0:0:
306,105,110793,1,8,0:0:0:0:
177,235,110981,1,4,0:0:0:0:
241,173,111543,1,8,0:0:0:0:
239,100,111731,1,8,0:0:0:0:
241,173,111918,1,8,0:0:0:0:
241,173,112106,1,0,0:0:0:0:
196,114,112199,1,0,0:0:0:0:
196,114,112293,1,0,0:0:0:0:
208,302,112481,1,4,0:0:0:0:
205,57,112668,1,8,0:0:0:0:
208,302,112856,1,12,0:0:0:0:
238,49,113043,1,0,0:0:0:0:
301,146,113137,1,0,0:0:0:0:
265,171,113231,1,0,0:0:0:0:
265,171,113418,1,8,0:0:0:0:
265,171,113606,1,8,0:0:0:0:
214,149,113699,1,8,0:0:0:0:
166,129,113793,1,8,0:0:0:0:
187,112,113981,1,0,0:0:0:0:
187,112,114356,1,0,0:0:0:0:
187,112,114543,1,0,0:0:0:0:
202,74,114731,1,8,0:0:0:0:
202,74,114918,1,8,0:0:0:0:
202,74,115106,1,0,0:0:0:0:
213,115,115481,1,0,0:0:0:0:
199,109,115668,1,8,0:0:0:0:
226,62,115856,1,8,0:0:0:0:
199,109,115949,1,8,0:0:0:0:
226,62,116043,1,8,0:0:0:0:
226,62,116231,1,0,0:0:0:0:
394,290,116418,1,8,0:0:0:0:
181,84,116512,1,8,0:0:0:0:
394,290,116606,1,8,0:0:0:0:
331,123,116793,1,8,0:0:0:0:
330,103,116981,1,4,0:0:0:0:
334,176,117356,1,8,0:0:0:0:
255,146,117449,1,8,0:0:0:0:
203,84,117543,1,8,0:0:0:0:
149,74,117731,1,0,0:0:0:0:
479,248,117918,1,8,0:0:0:0:
135,123,118106,1,0,0:0:0:0:
132,89,118199,1,0,0:0:0:0:
143,157,118293,1,0,0:0:0:0:
201,109,118481,1,4,0:0:0:0:
164,75,118668,1,8,0:0:0:0:
164,75,118856,1,12,0:0:0:0:
164,75,119043,1,0,0:0:0:0:
164,75,119231,1,0,0:0:0:0:
194,126,119324,1,0,0:0:0:0:
164,75,119418,1,0,0:0:0:0:
164,75,119606,1,8,0:0:0:0:
323,178,119699,1,8,0:0:0:0:
164,75,119793,1,8,0:0:0:0:
256,192,119981,12,0,125981,0:0:0:0:
