osu file format v14

[General]
AudioFilename: audio.mp3
AudioLeadIn: 0
PreviewTime: 47981
Countdown: 0
SampleSet: Normal
StackLeniency: 0.7
Mode: 1
LetterboxInBreaks: 0
WidescreenStoryboard: 1

[Editor]
Bookmarks: 47981,95981
DistanceSpacing: 1
BeatDivisor: 8
GridSize: 32
TimelineZoom: 2.799999

[Metadata]
Title:cxvbiopxvcbn
TitleUnicode:cxvbiopxvcbn
Artist:uselet
ArtistUnicode:uselet
Creator:op45667
Version:liku's inner oni
Source:
Tags:breakcore depressive melancholy instrumental electronic ambient liku
BeatmapID:3575980
BeatmapSetID:1742153

[Difficulty]
HPDrainRate:6
CircleSize:5
OverallDifficulty:6.5
ApproachRate:5
SliderMultiplier:1.4
SliderTickRate:1

[Events]
//Background and Video events
0,0,"1371432.jpg",0,-70
//Break Periods
//Storyboard Layer 0 (Background)
//Storyboard Layer 1 (Fail)
//Storyboard Layer 2 (Pass)
//Storyboard Layer 3 (Foreground)
//Storyboard Layer 4 (Overlay)
//Storyboard Sound Samples

[TimingPoints]
0,375,8,1,0,40,1,0
0,-133.333333333333,4,1,0,40,0,8
23981,375,4,1,0,75,1,0
23981,-99.9999999999999,4,1,0,75,0,8
47981,-80,4,1,0,85,0,1
70946,-81.3449023861171,4,1,0,85,0,1
71040,-82.7510114012505,4,1,0,85,0,1
71134,-84.2065868263473,4,1,0,85,0,1
71228,-85.7142857142857,4,1,0,85,0,1
71321,-87.260034904014,4,1,0,85,0,1
71415,-88.8801106063599,4,1,0,85,0,1
71509,-90.5614811833367,4,1,0,85,0,1
71603,-92.3076923076923,4,1,0,85,0,1
71790,-95.9897610921502,4,1,0,85,0,1
71981,-100,4,1,0,75,0,0
94759,-98.2416760194538,4,1,0,75,0,0
94806,-97.3854997218617,4,1,0,75,0,0
94853,-96.5441176470588,4,1,0,75,0,0
94946,-94.9213808060727,4,1,0,75,0,0
95040,-93.3357028612049,4,1,0,75,0,0
95228,-90.3181427343078,4,1,0,75,0,0
95321,-88.8964116452268,4,1,0,75,0,0
95415,-87.5041652782406,4,1,0,75,0,0
95603,-84.8465266558966,4,1,0,75,0,0
95790,-82.3584757723067,4,1,0,75,0,0
95884,-81.1621078658631,4,1,0,75,0,0
95981,-80,4,1,0,85,0,1
118946,-81.3449023861171,4,1,0,85,0,1
119040,-82.7510114012505,4,1,0,85,0,1
119134,-84.2065868263473,4,1,0,85,0,1
119228,-85.7142857142857,4,1,0,85,0,1
119321,-87.260034904014,4,1,0,85,0,1
119415,-88.8801106063599,4,1,0,85,0,1
119603,-92.3076923076923,4,1,0,85,0,1
119790,-95.9897610921502,4,1,0,85,0,1
119884,-97.9538528515455,4,1,0,85,0,1
119981,-100,4,1,0,80,0,0

[HitObjects]
355,250,23981,5,0,0:0:0:0:
214,97,24168,1,0,0:0:0:0:
214,97,24262,1,0,0:0:0:0:
214,97,24449,1,0,0:0:0:0:
214,97,24543,1,8,0:0:0:0:
214,97,24731,1,0,0:0:0:0:
207,56,24824,1,0,0:0:0:0:
184,118,24918,1,8,0:0:0:0:
207,56,25012,1,8,0:0:0:0:
207,56,25106,1,0,0:0:0:0:
207,56,25481,1,0,0:0:0:0:
207,56,25668,1,0,0:0:0:0:
172,79,25762,1,8,0:0:0:0:
172,79,25856,1,0,0:0:0:0:
194,49,25949,1,0,0:0:0:0:
194,49,26043,1,8,0:0:0:0:
354,243,26231,1,0,0:0:0:0:
254,94,26324,1,0,0:0:0:0:
345,96,26418,1,8,0:0:0:0:
231,23,26465,1,8,0:0:0:0:
254,94,26606,1,0,0:0:0:0:
254,94,26668,1,0,0:0:0:0:
207,56,26731,1,0,0:0:0:0:
204,56,26793,1,8,0:0:0:0:
402,317,26981,1,0,0:0:0:0:
288,271,27168,1,0,0:0:0:0:
288,271,27262,1,0,0:0:0:0:
172,132,27449,1,0,0:0:0:0:
172,132,27543,1,8,0:0:0:0:
161,136,27731,1,0,0:0:0:0:
160,151,27824,1,8,0:0:0:0:
161,136,27918,1,8,0:0:0:0:
161,136,28012,1,8,0:0:0:0:
161,136,28106,1,0,0:0:0:0:
161,136,28293,1,0,0:0:0:0:
161,136,28481,1,0,0:0:0:0:
161,136,28668,1,8,0:0:0:0:
161,136,28856,1,8,0:0:0:0:
161,136,28949,1,0,0:0:0:0:
161,136,29043,1,8,0:0:0:0:
161,136,29137,1,0,0:0:0:0:
161,136,29231,1,0,0:0:0:0:
161,136,29418,1,0,0:0:0:0:
161,136,29512,1,0,0:0:0:0:
149,146,29606,1,8,0:0:0:0:
149,144,29793,1,8,0:0:0:0:
138,115,29887,1,8,0:0:0:0:
149,144,29981,1,0,0:0:0:0:
149,144,30168,1,0,0:0:0:0:
237,163,30262,1,0,0:0:0:0:
149,144,30449,1,0,0:0:0:0:
149,144,30543,1,8,0:0:0:0:
234,169,30731,1,0,0:0:0:0:
234,169,30918,1,8,0:0:0:0:
234,169,31106,1,8,0:0:0:0:
182,169,31199,1,8,0:0:0:0:
235,169,31293,1,0,0:0:0:0:
186,167,31481,1,0,0:0:0:0:
186,167,31668,1,0,0:0:0:0:
186,167,31762,1,0,0:0:0:0:
182,169,31949,1,0,0:0:0:0:
182,169,32043,1,0,0:0:0:0:
182,169,32231,1,0,0:0:0:0:
186,167,32324,1,0,0:0:0:0:
186,167,32512,1,0,0:0:0:0:
186,167,32606,1,0,0:0:0:0:
186,167,32793,1,0,0:0:0:0:
182,169,32887,1,8,0:0:0:0:
152,184,32981,1,0,0:0:0:0:
180,180,33168,1,8,0:0:0:0:
175,200,33262,1,0,0:0:0:0:
175,200,33356,1,8,0:0:0:0:
169,160,33543,1,8,0:0:0:0:
152,189,33731,1,0,0:0:0:0:
160,160,33824,1,0,0:0:0:0:
152,184,33918,1,8,0:0:0:0:
152,184,34012,1,8,0:0:0:0:
224,256,34106,1,8,0:0:0:0:
288,96,34293,1,0,0:0:0:0:
224,256,34481,1,0,0:0:0:0:
160,128,34668,1,8,0:0:0:0:
160,128,34762,1,0,0:0:0:0:
160,128,34856,1,8,0:0:0:0:
96,160,34949,1,0,0:0:0:0:
96,160,35043,1,8,0:0:0:0:
96,160,35137,1,8,0:0:0:0:
224,256,35231,1,0,0:0:0:0:
128,160,35324,1,8,0:0:0:0:
128,160,35418,1,8,0:0:0:0:
128,160,35512,1,8,0:0:0:0:
224,256,35606,1,0,0:0:0:0:
137,148,35793,1,8,0:0:0:0:
138,148,35887,1,8,0:0:0:0:
224,256,35981,1,0,0:0:0:0:
224,256,36168,1,0,0:0:0:0:
219,122,36262,1,0,0:0:0:0:
192,126,36449,1,0,0:0:0:0:
192,126,36543,1,8,0:0:0:0:
190,115,36731,1,0,0:0:0:0:
193,110,36824,1,0,0:0:0:0:
193,110,36918,1,8,0:0:0:0:
193,110,37012,1,8,0:0:0:0:
224,256,37106,1,0,0:0:0:0:
224,256,37481,1,0,0:0:0:0:
181,115,37668,1,0,0:0:0:0:
181,115,37762,1,8,0:0:0:0:
224,256,37856,1,0,0:0:0:0:
181,115,37949,1,0,0:0:0:0:
181,115,38043,1,8,0:0:0:0:
182,115,38231,1,0,0:0:0:0:
183,115,38324,1,0,0:0:0:0:
150,76,38418,1,8,0:0:0:0:
145,91,38465,1,8,0:0:0:0:
195,143,38606,1,0,0:0:0:0:
195,143,38668,1,0,0:0:0:0:
195,143,38731,1,0,0:0:0:0:
195,143,38793,1,8,0:0:0:0:
224,256,38981,1,0,0:0:0:0:
142,139,39168,1,0,0:0:0:0:
224,256,39262,1,0,0:0:0:0:
163,138,39449,1,0,0:0:0:0:
163,138,39543,1,8,0:0:0:0:
224,256,39731,1,0,0:0:0:0:
177,112,39824,1,0,0:0:0:0:
177,112,39918,1,8,0:0:0:0:
177,112,40012,1,8,0:0:0:0:
224,256,40106,1,0,0:0:0:0:
177,112,40293,1,0,0:0:0:0:
224,256,40481,1,0,0:0:0:0:
177,112,40668,1,8,0:0:0:0:
177,112,40762,1,0,0:0:0:0:
224,256,40856,1,8,0:0:0:0:
185,117,40949,1,8,0:0:0:0:
185,117,41043,1,8,0:0:0:0:
184,115,41137,1,0,0:0:0:0:
184,115,41231,1,8,0:0:0:0:
186,117,41324,1,8,0:0:0:0:
186,118,41418,1,0,0:0:0:0:
187,118,41606,1,8,0:0:0:0:
129,168,41793,1,8,0:0:0:0:
123,171,41887,1,8,0:0:0:0:
224,256,41981,1,0,0:0:0:0:
162,189,42168,1,0,0:0:0:0:
224,256,42262,1,0,0:0:0:0:
186,118,42449,1,0,0:0:0:0:
187,118,42543,1,8,0:0:0:0:
224,256,42731,1,0,0:0:0:0:
193,88,42824,1,0,0:0:0:0:
193,88,42918,1,8,0:0:0:0:
193,88,43012,1,8,0:0:0:0:
224,256,43106,1,0,0:0:0:0:
224,256,43481,1,0,0:0:0:0:
185,88,43668,1,0,0:0:0:0:
185,88,43762,1,8,0:0:0:0:
224,256,43856,1,0,0:0:0:0:
185,87,43949,1,8,0:0:0:0:
185,87,44043,1,8,0:0:0:0:
224,256,44231,1,0,0:0:0:0:
185,96,44324,1,0,0:0:0:0:
185,79,44418,1,8,0:0:0:0:
185,79,44465,1,8,0:0:0:0:
200,136,44606,1,0,0:0:0:0:
200,136,44668,1,0,0:0:0:0:
200,136,44731,1,0,0:0:0:0:
200,136,44793,1,8,0:0:0:0:
224,256,44981,1,0,0:0:0:0:
171,123,45168,1,0,0:0:0:0:
171,123,45262,1,0,0:0:0:0:
224,256,45449,1,0,0:0:0:0:
190,144,45543,1,8,0:0:0:0:
224,256,45731,1,0,0:0:0:0:
211,178,45824,1,0,0:0:0:0:
205,176,45918,1,8,0:0:0:0:
201,176,46012,1,8,0:0:0:0:
224,256,46106,1,0,0:0:0:0:
185,167,46293,1,0,0:0:0:0:
224,256,46481,1,0,0:0:0:0:
179,157,46668,1,8,0:0:0:0:
224,256,46856,1,8,0:0:0:0:
178,158,46949,1,0,0:0:0:0:
178,158,47043,1,8,0:0:0:0:
178,158,47137,1,8,0:0:0:0:
224,256,47231,1,0,0:0:0:0:
179,157,47418,1,0,0:0:0:0:
179,157,47512,1,0,0:0:0:0:
179,157,47606,1,8,0:0:0:0:
224,256,47981,1,0,0:0:0:0:
192,160,48168,1,0,0:0:0:0:
192,160,48262,1,0,0:0:0:0:
224,256,48356,1,8,0:0:0:0:
160,128,48449,1,0,0:0:0:0:
160,160,48543,1,8,0:0:0:0:
224,256,48731,1,0,0:0:0:0:
92,113,48824,1,0,0:0:0:0:
128,96,48918,1,8,0:0:0:0:
128,96,49012,1,8,0:0:0:0:
224,256,49106,1,0,0:0:0:0:
224,256,49481,1,0,0:0:0:0:
128,128,49668,1,0,0:0:0:0:
128,128,49762,1,0,0:0:0:0:
128,128,49856,1,8,0:0:0:0:
128,128,49949,1,8,0:0:0:0:
128,128,50043,1,8,0:0:0:0:
224,256,50231,1,0,0:0:0:0:
128,128,50324,1,0,0:0:0:0:
192,96,50418,1,8,0:0:0:0:
192,96,50465,1,8,0:0:0:0:
224,256,50606,1,0,0:0:0:0:
192,160,50668,1,0,0:0:0:0:
192,160,50731,1,0,0:0:0:0:
192,160,50793,1,8,0:0:0:0:
224,256,50981,1,0,0:0:0:0:
160,128,51168,1,0,0:0:0:0:
160,128,51262,1,0,0:0:0:0:
160,128,51356,1,8,0:0:0:0:
160,128,51449,1,0,0:0:0:0:
160,128,51543,1,8,0:0:0:0:
224,256,51731,1,0,0:0:0:0:
96,96,51918,1,8,0:0:0:0:
88,163,52012,1,8,0:0:0:0:
224,256,52106,1,0,0:0:0:0:
96,128,52293,1,0,0:0:0:0:
224,256,52481,1,0,0:0:0:0:
128,96,52668,1,8,0:0:0:0:
224,256,52856,1,8,0:0:0:0:
96,96,52949,1,8,0:0:0:0:
96,96,53043,1,0,0:0:0:0:
128,96,53137,1,8,0:0:0:0:
224,256,53231,1,0,0:0:0:0:
160,128,53324,1,0,0:0:0:0:
160,128,53418,1,8,0:0:0:0:
203,180,53512,1,0,0:0:0:0:
128,128,53606,1,8,0:0:0:0:
128,128,53793,1,8,0:0:0:0:
128,128,53887,1,8,0:0:0:0:
224,256,53981,1,0,0:0:0:0:
192,160,54168,1,0,0:0:0:0:
133,112,54262,1,0,0:0:0:0:
224,256,54356,1,8,0:0:0:0:
160,128,54449,1,0,0:0:0:0:
160,160,54543,1,8,0:0:0:0:
224,256,54731,1,0,0:0:0:0:
180,80,54824,1,0,0:0:0:0:
128,96,54918,1,8,0:0:0:0:
128,96,55012,1,8,0:0:0:0:
224,256,55106,1,0,0:0:0:0:
224,256,55481,1,0,0:0:0:0:
128,128,55668,1,0,0:0:0:0:
128,128,55762,1,0,0:0:0:0:
128,128,55856,1,8,0:0:0:0:
128,128,55949,1,8,0:0:0:0:
128,128,56043,1,8,0:0:0:0:
224,256,56231,1,0,0:0:0:0:
128,128,56324,1,0,0:0:0:0:
192,96,56418,1,8,0:0:0:0:
192,96,56465,1,8,0:0:0:0:
224,256,56606,1,0,0:0:0:0:
192,160,56668,1,0,0:0:0:0:
192,160,56731,1,0,0:0:0:0:
192,160,56793,1,8,0:0:0:0:
224,256,56981,1,0,0:0:0:0:
160,128,57168,1,0,0:0:0:0:
160,128,57262,1,0,0:0:0:0:
160,128,57356,1,8,0:0:0:0:
160,128,57449,1,0,0:0:0:0:
160,128,57543,1,8,0:0:0:0:
224,256,57731,1,0,0:0:0:0:
96,96,57918,1,8,0:0:0:0:
96,128,58012,1,8,0:0:0:0:
224,256,58106,1,0,0:0:0:0:
96,128,58293,1,0,0:0:0:0:
224,256,58481,1,0,0:0:0:0:
128,96,58668,1,8,0:0:0:0:
133,128,58856,1,8,0:0:0:0:
96,96,58949,1,8,0:0:0:0:
96,96,59043,1,0,0:0:0:0:
128,96,59137,1,8,0:0:0:0:
224,256,59231,1,0,0:0:0:0:
160,128,59324,1,0,0:0:0:0:
160,128,59418,1,8,0:0:0:0:
128,128,59606,1,8,0:0:0:0:
128,128,59793,1,0,0:0:0:0:
128,128,59887,1,8,0:0:0:0:
224,256,59981,1,0,0:0:0:0:
192,160,60168,1,0,0:0:0:0:
192,160,60262,1,0,0:0:0:0:
224,256,60356,1,8,0:0:0:0:
160,128,60449,1,0,0:0:0:0:
160,160,60543,1,8,0:0:0:0:
224,256,60731,1,0,0:0:0:0:
159,79,60824,1,8,0:0:0:0:
128,96,60918,1,8,0:0:0:0:
128,96,61012,1,8,0:0:0:0:
224,256,61106,1,0,0:0:0:0:
224,256,61481,1,0,0:0:0:0:
128,128,61668,1,0,0:0:0:0:
128,128,61762,1,0,0:0:0:0:
128,128,61856,1,8,0:0:0:0:
128,128,61949,1,8,0:0:0:0:
128,128,62043,1,8,0:0:0:0:
224,256,62231,1,0,0:0:0:0:
128,128,62324,1,0,0:0:0:0:
192,96,62418,1,8,0:0:0:0:
192,96,62465,1,8,0:0:0:0:
224,256,62606,1,0,0:0:0:0:
192,160,62668,1,0,0:0:0:0:
192,160,62731,1,0,0:0:0:0:
192,160,62793,1,8,0:0:0:0:
224,256,62981,1,0,0:0:0:0:
160,128,63168,1,8,0:0:0:0:
160,128,63262,1,0,0:0:0:0:
160,128,63356,1,8,0:0:0:0:
160,128,63449,1,0,0:0:0:0:
160,128,63543,1,8,0:0:0:0:
224,256,63731,1,0,0:0:0:0:
96,96,63918,1,8,0:0:0:0:
96,128,64012,1,0,0:0:0:0:
224,256,64106,1,0,0:0:0:0:
96,128,64293,1,0,0:0:0:0:
224,256,64481,1,0,0:0:0:0:
128,96,64668,1,8,0:0:0:0:
224,256,64856,1,8,0:0:0:0:
96,96,64949,1,8,0:0:0:0:
96,96,65043,1,0,0:0:0:0:
128,96,65137,1,8,0:0:0:0:
224,256,65231,1,0,0:0:0:0:
160,128,65324,1,0,0:0:0:0:
160,128,65418,1,8,0:0:0:0:
117,126,65512,1,0,0:0:0:0:
128,128,65606,1,8,0:0:0:0:
128,128,65793,1,0,0:0:0:0:
128,128,65887,1,8,0:0:0:0:
224,256,65981,1,0,0:0:0:0:
192,160,66168,1,0,0:0:0:0:
152,125,66262,1,0,0:0:0:0:
224,256,66356,1,8,0:0:0:0:
160,128,66449,1,0,0:0:0:0:
160,160,66543,1,8,0:0:0:0:
224,256,66731,1,0,0:0:0:0:
162,122,66824,1,8,0:0:0:0:
128,96,66918,1,8,0:0:0:0:
128,96,67012,1,8,0:0:0:0:
224,256,67106,1,0,0:0:0:0:
224,256,67481,1,0,0:0:0:0:
128,128,67668,1,0,0:0:0:0:
128,128,67762,1,0,0:0:0:0:
128,128,67856,1,8,0:0:0:0:
128,128,67949,1,8,0:0:0:0:
128,128,68043,1,8,0:0:0:0:
224,256,68231,1,0,0:0:0:0:
128,128,68324,1,0,0:0:0:0:
192,96,68418,1,8,0:0:0:0:
192,96,68465,1,8,0:0:0:0:
224,256,68606,1,0,0:0:0:0:
192,160,68668,1,0,0:0:0:0:
192,160,68731,1,0,0:0:0:0:
192,160,68793,1,8,0:0:0:0:
224,256,68981,1,0,0:0:0:0:
160,128,69168,1,0,0:0:0:0:
160,128,69262,1,0,0:0:0:0:
160,128,69356,1,8,0:0:0:0:
160,128,69449,1,8,0:0:0:0:
160,128,69543,1,8,0:0:0:0:
224,256,69731,1,0,0:0:0:0:
96,96,69918,1,8,0:0:0:0:
96,128,70012,1,0,0:0:0:0:
224,256,70106,1,0,0:0:0:0:
96,128,70293,1,0,0:0:0:0:
224,256,70481,1,8,0:0:0:0:
128,96,70668,1,0,0:0:0:0:
224,256,70856,1,8,0:0:0:0:
96,96,70949,1,8,0:0:0:0:
96,96,71043,1,0,0:0:0:0:
128,96,71137,1,0,0:0:0:0:
224,256,71231,1,8,0:0:0:0:
160,128,71324,1,0,0:0:0:0:
160,128,71418,1,8,0:0:0:0:
128,128,71512,1,8,0:0:0:0:
128,128,71606,1,0,0:0:0:0:
128,128,71793,1,8,0:0:0:0:
160,128,71981,1,0,0:0:0:0:
137,132,72168,1,0,0:0:0:0:
137,132,72262,1,8,0:0:0:0:
196,130,72309,1,0,0:0:0:0:
157,71,72356,1,8,0:0:0:0:
128,137,72543,1,0,0:0:0:0:
140,133,72731,1,8,0:0:0:0:
140,133,72824,1,8,0:0:0:0:
140,133,72918,1,8,0:0:0:0:
123,142,73481,1,0,0:0:0:0:
200,126,73668,1,0,0:0:0:0:
200,126,73731,1,0,0:0:0:0:
200,126,73793,1,8,0:0:0:0:
119,137,73856,1,0,0:0:0:0:
119,137,74043,1,0,0:0:0:0:
154,68,74324,1,8,0:0:0:0:
156,74,74371,1,8,0:0:0:0:
119,136,74418,1,0,0:0:0:0:
119,138,74606,1,0,0:0:0:0:
121,81,74668,1,0,0:0:0:0:
128,81,74731,1,0,0:0:0:0:
129,85,74793,1,8,0:0:0:0:
119,137,74981,1,0,0:0:0:0:
173,80,75168,1,8,0:0:0:0:
119,136,75356,1,0,0:0:0:0:
173,80,75449,1,8,0:0:0:0:
119,138,75543,1,0,0:0:0:0:
119,137,75731,1,0,0:0:0:0:
132,157,75824,1,0,0:0:0:0:
132,157,75918,1,8,0:0:0:0:
130,156,76012,1,8,0:0:0:0:
119,136,76106,1,0,0:0:0:0:
119,138,76481,1,0,0:0:0:0:
158,114,76668,1,8,0:0:0:0:
119,137,76856,1,0,0:0:0:0:
179,130,76949,1,0,0:0:0:0:
171,147,76996,1,0,0:0:0:0:
119,136,77043,1,8,0:0:0:0:
119,136,77231,1,0,0:0:0:0:
119,138,77418,1,0,0:0:0:0:
166,152,77512,1,8,0:0:0:0:
119,137,77606,1,0,0:0:0:0:
166,152,77699,1,8,0:0:0:0:
119,137,77793,1,8,0:0:0:0:
119,136,77981,1,0,0:0:0:0:
125,129,78168,1,8,0:0:0:0:
119,137,78543,1,0,0:0:0:0:
119,137,78731,1,0,0:0:0:0:
119,137,78918,1,0,0:0:0:0:
173,92,78965,1,0,0:0:0:0:
172,102,79012,1,8,0:0:0:0:
146,133,79106,1,8,0:0:0:0:
171,81,79199,1,8,0:0:0:0:
119,137,79293,1,8,0:0:0:0:
119,137,79481,1,0,0:0:0:0:
119,137,79668,1,0,0:0:0:0:
173,92,79715,1,0,0:0:0:0:
119,136,79856,1,8,0:0:0:0:
161,139,80043,1,8,0:0:0:0:
119,138,80231,1,0,0:0:0:0:
171,240,80277,1,0,0:0:0:0:
161,139,80324,1,8,0:0:0:0:
171,240,80371,1,8,0:0:0:0:
119,137,80418,1,0,0:0:0:0:
119,137,80606,1,0,0:0:0:0:
161,144,80699,1,8,0:0:0:0:
174,244,80746,1,0,0:0:0:0:
161,144,80793,1,8,0:0:0:0:
119,136,80981,1,0,0:0:0:0:
119,138,81168,1,0,0:0:0:0:
159,148,81262,1,0,0:0:0:0:
159,148,81356,1,8,0:0:0:0:
119,137,81543,1,0,0:0:0:0:
166,149,81590,1,0,0:0:0:0:
114,141,81731,1,8,0:0:0:0:
119,138,82106,1,0,0:0:0:0:
149,245,82152,1,0,0:0:0:0:
149,180,82199,1,0,0:0:0:0:
119,137,82293,1,8,0:0:0:0:
176,140,82387,1,0,0:0:0:0:
176,140,82434,1,0,0:0:0:0:
119,137,82481,1,0,0:0:0:0:
119,136,82668,1,0,0:0:0:0:
176,140,82762,1,0,0:0:0:0:
176,140,82856,1,8,0:0:0:0:
176,140,82949,1,8,0:0:0:0:
119,138,83043,1,0,0:0:0:0:
162,140,83231,1,8,0:0:0:0:
162,140,83324,1,0,0:0:0:0:
119,137,83418,1,0,0:0:0:0:
144,114,83606,1,8,0:0:0:0:
145,102,83793,1,8,0:0:0:0:
144,103,83840,1,8,0:0:0:0:
144,103,83887,1,8,0:0:0:0:
119,138,83981,1,0,0:0:0:0:
137,132,84168,1,0,0:0:0:0:
137,132,84262,1,8,0:0:0:0:
196,130,84309,1,0,0:0:0:0:
157,71,84356,1,8,0:0:0:0:
128,137,84543,1,0,0:0:0:0:
140,133,84731,1,8,0:0:0:0:
140,133,84824,1,8,0:0:0:0:
140,133,84918,1,8,0:0:0:0:
148,136,85231,1,8,0:0:0:0:
152,85,85293,1,0,0:0:0:0:
152,85,85356,1,8,0:0:0:0:
175,135,85418,1,8,0:0:0:0:
123,142,85481,1,0,0:0:0:0:
200,126,85668,1,0,0:0:0:0:
200,126,85715,1,0,0:0:0:0:
200,126,85762,1,0,0:0:0:0:
119,137,85856,1,8,0:0:0:0:
119,137,86043,1,0,0:0:0:0:
154,68,86324,1,8,0:0:0:0:
156,74,86371,1,8,0:0:0:0:
119,136,86418,1,0,0:0:0:0:
119,138,86606,1,0,0:0:0:0:
129,85,86793,1,8,0:0:0:0:
154,159,86887,1,0,0:0:0:0:
119,137,86981,1,0,0:0:0:0:
173,80,87168,1,8,0:0:0:0:
119,136,87356,1,0,0:0:0:0:
173,80,87449,1,8,0:0:0:0:
119,138,87543,1,0,0:0:0:0:
119,137,87731,1,0,0:0:0:0:
132,157,87824,1,0,0:0:0:0:
132,157,87918,1,8,0:0:0:0:
130,156,88012,1,8,0:0:0:0:
119,136,88106,1,0,0:0:0:0:
119,138,88481,1,0,0:0:0:0:
158,114,88668,1,8,0:0:0:0:
119,137,88856,1,0,0:0:0:0:
179,130,88949,1,8,0:0:0:0:
171,147,88996,1,0,0:0:0:0:
119,136,89043,1,8,0:0:0:0:
119,136,89231,1,0,0:0:0:0:
119,138,89418,1,0,0:0:0:0:
166,152,89512,1,8,0:0:0:0:
119,137,89606,1,0,0:0:0:0:
166,152,89699,1,8,0:0:0:0:
119,137,89793,1,8,0:0:0:0:
119,136,89981,1,0,0:0:0:0:
125,129,90168,1,8,0:0:0:0:
114,94,90262,1,0,0:0:0:0:
114,94,90356,1,0,0:0:0:0:
106,94,90543,1,8,0:0:0:0:
119,137,90731,1,0,0:0:0:0:
119,137,90918,1,0,0:0:0:0:
173,92,90965,1,0,0:0:0:0:
172,102,91012,1,0,0:0:0:0:
146,133,91106,1,8,0:0:0:0:
144,136,91199,1,8,0:0:0:0:
119,137,91293,1,8,0:0:0:0:
119,137,91481,1,0,0:0:0:0:
119,137,91668,1,0,0:0:0:0:
173,92,91715,1,0,0:0:0:0:
119,136,91856,1,8,0:0:0:0:
161,139,92043,1,8,0:0:0:0:
119,138,92231,1,0,0:0:0:0:
171,240,92277,1,0,0:0:0:0:
161,139,92324,1,8,0:0:0:0:
171,240,92371,1,8,0:0:0:0:
119,137,92418,1,0,0:0:0:0:
119,137,92606,1,0,0:0:0:0:
161,144,92699,1,8,0:0:0:0:
174,244,92746,1,0,0:0:0:0:
161,144,92793,1,8,0:0:0:0:
119,136,92981,1,0,0:0:0:0:
119,138,93168,1,0,0:0:0:0:
159,148,93262,1,0,0:0:0:0:
159,148,93356,1,8,0:0:0:0:
119,137,93543,1,0,0:0:0:0:
166,149,93590,1,0,0:0:0:0:
114,141,93731,1,8,0:0:0:0:
119,138,94106,1,0,0:0:0:0:
149,245,94152,1,0,0:0:0:0:
149,180,94199,1,0,0:0:0:0:
119,137,94293,1,8,0:0:0:0:
176,140,94387,1,0,0:0:0:0:
176,140,94434,1,0,0:0:0:0:
119,137,94481,1,0,0:0:0:0:
119,136,94668,1,0,0:0:0:0:
176,140,94762,1,8,0:0:0:0:
163,94,94809,1,0,0:0:0:0:
176,140,94856,5,8,0:0:0:0:
176,140,94949,1,8,0:0:0:0:
119,138,95043,1,0,0:0:0:0:
162,140,95231,1,8,0:0:0:0:
162,140,95324,1,0,0:0:0:0:
119,137,95418,1,0,0:0:0:0:
144,114,95606,1,8,0:0:0:0:
145,102,95793,1,8,0:0:0:0:
153,153,95887,1,8,0:0:0:0:
119,138,95981,1,0,0:0:0:0:
192,160,96168,1,0,0:0:0:0:
192,160,96262,1,0,0:0:0:0:
224,256,96356,1,8,0:0:0:0:
160,128,96449,1,0,0:0:0:0:
160,160,96543,1,8,0:0:0:0:
224,256,96731,1,0,0:0:0:0:
139,177,96824,1,0,0:0:0:0:
128,96,96918,1,8,0:0:0:0:
128,96,97012,1,8,0:0:0:0:
224,256,97106,1,0,0:0:0:0:
224,256,97481,1,0,0:0:0:0:
128,128,97668,1,0,0:0:0:0:
128,128,97762,1,0,0:0:0:0:
128,128,97856,1,8,0:0:0:0:
128,128,97949,1,8,0:0:0:0:
128,128,98043,1,8,0:0:0:0:
224,256,98231,1,0,0:0:0:0:
128,128,98324,1,0,0:0:0:0:
192,96,98418,1,8,0:0:0:0:
192,96,98465,1,8,0:0:0:0:
224,256,98606,1,0,0:0:0:0:
192,160,98668,1,0,0:0:0:0:
192,160,98731,1,0,0:0:0:0:
192,160,98793,1,8,0:0:0:0:
224,256,98981,1,0,0:0:0:0:
160,128,99168,1,0,0:0:0:0:
160,128,99262,1,0,0:0:0:0:
160,128,99356,1,8,0:0:0:0:
160,128,99449,1,0,0:0:0:0:
160,128,99543,1,8,0:0:0:0:
224,256,99731,1,0,0:0:0:0:
96,96,99918,1,8,0:0:0:0:
96,128,100012,1,8,0:0:0:0:
224,256,100106,1,0,0:0:0:0:
96,128,100293,1,0,0:0:0:0:
224,256,100481,1,0,0:0:0:0:
128,96,100668,1,8,0:0:0:0:
224,256,100856,1,8,0:0:0:0:
96,96,100949,1,8,0:0:0:0:
96,96,101043,1,0,0:0:0:0:
128,96,101137,1,8,0:0:0:0:
224,256,101231,1,0,0:0:0:0:
160,128,101324,1,0,0:0:0:0:
160,128,101418,1,8,0:0:0:0:
128,128,101606,1,8,0:0:0:0:
128,128,101793,1,0,0:0:0:0:
128,128,101887,1,8,0:0:0:0:
224,256,101981,1,0,0:0:0:0:
192,160,102168,1,0,0:0:0:0:
166,165,102262,1,0,0:0:0:0:
224,256,102356,1,8,0:0:0:0:
160,128,102449,1,0,0:0:0:0:
160,160,102543,1,8,0:0:0:0:
224,256,102731,1,0,0:0:0:0:
160,128,102824,1,0,0:0:0:0:
128,96,102918,1,8,0:0:0:0:
128,96,103012,1,8,0:0:0:0:
224,256,103106,1,0,0:0:0:0:
160,128,103293,1,0,0:0:0:0:
160,128,103387,1,0,0:0:0:0:
160,128,103481,1,0,0:0:0:0:
128,128,103668,1,0,0:0:0:0:
128,128,103762,1,0,0:0:0:0:
128,128,103856,1,8,0:0:0:0:
128,128,103949,1,8,0:0:0:0:
128,128,104043,1,8,0:0:0:0:
224,256,104231,1,0,0:0:0:0:
192,96,104418,1,8,0:0:0:0:
224,160,104512,1,0,0:0:0:0:
224,256,104699,1,0,0:0:0:0:
160,64,104793,1,0,0:0:0:0:
224,256,104981,1,0,0:0:0:0:
160,128,105168,1,0,0:0:0:0:
160,128,105262,1,0,0:0:0:0:
160,128,105356,1,8,0:0:0:0:
192,192,105543,1,0,0:0:0:0:
129,168,105731,1,0,0:0:0:0:
129,169,105824,1,0,0:0:0:0:
96,96,105918,1,8,0:0:0:0:
224,256,106106,1,0,0:0:0:0:
96,128,106293,1,0,0:0:0:0:
224,256,106481,1,0,0:0:0:0:
128,96,106668,1,8,0:0:0:0:
224,256,106856,1,8,0:0:0:0:
96,96,106949,1,8,0:0:0:0:
96,96,107043,1,0,0:0:0:0:
128,96,107137,1,0,0:0:0:0:
224,256,107231,1,8,0:0:0:0:
160,128,107324,1,0,0:0:0:0:
160,128,107418,1,8,0:0:0:0:
128,128,107606,1,8,0:0:0:0:
128,128,107793,1,0,0:0:0:0:
128,128,107887,1,8,0:0:0:0:
224,256,107981,1,0,0:0:0:0:
192,160,108168,1,0,0:0:0:0:
192,160,108262,1,0,0:0:0:0:
224,256,108356,1,8,0:0:0:0:
160,128,108449,1,0,0:0:0:0:
160,160,108543,1,8,0:0:0:0:
224,256,108731,1,0,0:0:0:0:
136,167,108824,1,8,0:0:0:0:
128,96,108918,1,8,0:0:0:0:
128,96,109012,1,8,0:0:0:0:
224,256,109106,1,0,0:0:0:0:
224,256,109481,1,0,0:0:0:0:
128,128,109668,1,0,0:0:0:0:
128,128,109762,1,0,0:0:0:0:
128,128,109856,1,8,0:0:0:0:
128,128,109949,1,8,0:0:0:0:
128,128,110043,1,8,0:0:0:0:
224,256,110231,1,0,0:0:0:0:
128,128,110324,1,0,0:0:0:0:
192,96,110418,1,8,0:0:0:0:
192,96,110465,1,8,0:0:0:0:
224,256,110606,1,0,0:0:0:0:
192,160,110668,1,0,0:0:0:0:
192,160,110731,1,0,0:0:0:0:
192,160,110793,1,8,0:0:0:0:
224,256,110981,1,0,0:0:0:0:
160,128,111168,1,0,0:0:0:0:
160,128,111262,1,0,0:0:0:0:
160,128,111356,1,8,0:0:0:0:
160,128,111449,1,0,0:0:0:0:
160,128,111543,1,8,0:0:0:0:
224,256,111731,1,0,0:0:0:0:
96,96,111918,1,8,0:0:0:0:
96,128,112012,1,0,0:0:0:0:
224,256,112106,1,0,0:0:0:0:
96,128,112293,1,0,0:0:0:0:
224,256,112481,1,0,0:0:0:0:
128,96,112668,1,8,0:0:0:0:
224,256,112856,1,8,0:0:0:0:
96,96,112949,1,8,0:0:0:0:
96,96,113043,1,0,0:0:0:0:
128,96,113137,1,8,0:0:0:0:
224,256,113231,1,0,0:0:0:0:
160,128,113324,1,0,0:0:0:0:
160,128,113418,1,8,0:0:0:0:
165,189,113512,1,0,0:0:0:0:
128,128,113606,1,8,0:0:0:0:
128,128,113793,1,8,0:0:0:0:
128,128,113887,1,8,0:0:0:0:
224,256,113981,1,0,0:0:0:0:
192,160,114168,1,0,0:0:0:0:
117,153,114262,1,0,0:0:0:0:
224,256,114356,1,8,0:0:0:0:
160,128,114449,1,0,0:0:0:0:
160,160,114543,1,8,0:0:0:0:
224,256,114731,1,0,0:0:0:0:
140,160,114824,1,8,0:0:0:0:
128,96,114918,1,8,0:0:0:0:
128,96,115012,1,8,0:0:0:0:
224,256,115106,1,0,0:0:0:0:
224,256,115481,1,0,0:0:0:0:
128,128,115668,1,0,0:0:0:0:
128,128,115762,1,0,0:0:0:0:
128,128,115856,1,8,0:0:0:0:
128,128,115949,1,8,0:0:0:0:
128,128,116043,1,8,0:0:0:0:
224,256,116231,1,0,0:0:0:0:
128,128,116324,1,0,0:0:0:0:
192,96,116418,1,8,0:0:0:0:
192,96,116465,1,8,0:0:0:0:
224,256,116606,1,0,0:0:0:0:
192,160,116668,1,0,0:0:0:0:
192,160,116731,1,0,0:0:0:0:
192,160,116793,1,8,0:0:0:0:
224,256,116981,1,0,0:0:0:0:
160,128,117168,1,0,0:0:0:0:
160,128,117262,1,0,0:0:0:0:
160,128,117356,1,8,0:0:0:0:
160,128,117449,1,8,0:0:0:0:
160,128,117543,1,8,0:0:0:0:
224,256,117731,1,0,0:0:0:0:
128,160,117824,1,0,0:0:0:0:
96,96,117918,1,8,0:0:0:0:
224,256,118106,1,0,0:0:0:0:
160,128,118199,1,8,0:0:0:0:
128,128,118387,1,8,0:0:0:0:
224,256,118481,1,0,0:0:0:0:
128,96,118668,1,8,0:0:0:0:
133,128,118856,1,8,0:0:0:0:
96,96,118949,1,0,0:0:0:0:
96,96,119043,1,8,0:0:0:0:
128,96,119137,1,8,0:0:0:0:
224,256,119231,1,0,0:0:0:0:
160,128,119324,1,8,0:0:0:0:
160,128,119418,1,0,0:0:0:0:
128,128,119606,1,8,0:0:0:0:
128,128,119793,1,8,0:0:0:0:
192,128,119887,1,8,0:0:0:0:
173,111,119981,1,4,0:0:0:0:
