osu file format v14

[General]
AudioFilename: audio.mp3
AudioLeadIn: 0
PreviewTime: 47981
Countdown: 0
SampleSet: Normal
StackLeniency: 0.7
Mode: 1
LetterboxInBreaks: 0
WidescreenStoryboard: 1

[Editor]
Bookmarks: 47981,95981
DistanceSpacing: 1.1
BeatDivisor: 4
GridSize: 32
TimelineZoom: 1.2

[Metadata]
Title:cxvbiopxvcbn
TitleUnicode:cxvbiopxvcbn
Artist:uselet
ArtistUnicode:uselet
Creator:op45667
Version:kantan
Source:
Tags:breakcore depressive melancholy instrumental electronic ambient liku
BeatmapID:3568775
BeatmapSetID:1742153

[Difficulty]
HPDrainRate:8
CircleSize:5
OverallDifficulty:3
ApproachRate:5
SliderMultiplier:1.4
SliderTickRate:1

[Events]
//Background and Video events
0,0,"1371432.jpg",0,-70
//Break Periods
//Storyboard Layer 0 (Background)
//Storyboard Layer 1 (Fail)
//Storyboard Layer 2 (Pass)
//Storyboard Layer 3 (Foreground)
//Storyboard Layer 4 (Overlay)
//Storyboard Sound Samples

[TimingPoints]
0,375,8,1,0,40,1,0
0,-100,4,1,0,40,0,0
23981,375,4,1,0,80,1,0
23981,-100,4,1,0,80,0,0
47981,-100,4,1,0,100,0,1
71981,-100,4,1,0,80,0,0
95981,-100,4,1,0,100,0,1
119981,-100,4,1,0,70,0,0

[HitObjects]
355,250,23981,5,4,0:0:0:0:
214,97,24543,1,8,0:0:0:0:
207,56,25106,1,0,0:0:0:0:
207,56,25481,1,0,0:0:0:0:
194,49,26043,1,8,0:0:0:0:
345,96,26606,1,8,0:0:0:0:
402,317,26981,1,0,0:0:0:0:
169,95,27543,1,8,0:0:0:0:
438,323,28106,1,0,0:0:0:0:
192,163,28481,1,0,0:0:0:0:
286,97,29606,1,8,0:0:0:0:
423,207,29981,1,0,0:0:0:0:
186,80,30543,1,8,0:0:0:0:
306,174,30918,1,8,0:0:0:0:
306,174,31481,1,0,0:0:0:0:
235,135,32043,1,0,0:0:0:0:
226,129,32606,1,0,0:0:0:0:
270,114,32981,1,0,0:0:0:0:
270,114,33356,1,0,0:0:0:0:
210,95,34481,1,0,0:0:0:0:
211,222,35231,1,8,0:0:0:0:
180,134,35606,1,0,0:0:0:0:
143,85,35981,1,0,0:0:0:0:
209,122,36543,1,8,0:0:0:0:
261,124,37106,1,0,0:0:0:0:
155,54,37481,1,0,0:0:0:0:
306,212,38043,1,8,0:0:0:0:
279,215,38606,1,8,0:0:0:0:
302,257,38981,1,0,0:0:0:0:
269,97,39543,1,8,0:0:0:0:
279,215,39918,1,0,0:0:0:0:
272,198,40481,1,0,0:0:0:0:
159,122,40856,1,8,0:0:0:0:
217,164,41981,1,0,0:0:0:0:
305,191,42543,1,8,0:0:0:0:
370,284,43106,1,8,0:0:0:0:
270,191,43481,1,0,0:0:0:0:
270,191,44043,1,8,0:0:0:0:
255,256,44606,1,8,0:0:0:0:
207,125,44981,1,0,0:0:0:0:
225,144,45543,1,8,0:0:0:0:
226,26,46106,1,0,0:0:0:0:
225,144,46481,1,0,0:0:0:0:
143,160,46856,1,8,0:0:0:0:
286,129,47981,1,4,0:0:0:0:
464,203,48543,1,8,0:0:0:0:
283,133,49106,1,0,0:0:0:0:
165,135,49481,1,0,0:0:0:0:
185,171,50043,1,8,0:0:0:0:
334,155,50606,1,8,0:0:0:0:
330,103,50981,1,4,0:0:0:0:
366,94,51543,1,8,0:0:0:0:
135,123,52106,1,0,0:0:0:0:
201,109,52481,1,4,0:0:0:0:
164,75,52856,1,12,0:0:0:0:
164,75,53981,1,0,0:0:0:0:
326,240,54543,1,8,0:0:0:0:
172,145,55106,1,0,0:0:0:0:
222,43,55481,1,8,0:0:0:0:
430,311,56043,1,8,0:0:0:0:
222,43,56606,1,0,0:0:0:0:
237,168,56981,1,4,0:0:0:0:
328,141,57543,1,8,0:0:0:0:
312,180,58106,1,0,0:0:0:0:
356,207,58481,1,4,0:0:0:0:
356,207,58856,1,12,0:0:0:0:
250,131,59981,1,0,0:0:0:0:
225,50,60543,1,8,0:0:0:0:
222,43,61106,1,8,0:0:0:0:
212,89,61481,1,0,0:0:0:0:
386,263,62043,1,8,0:0:0:0:
164,142,62606,1,8,0:0:0:0:
177,235,62981,1,4,0:0:0:0:
222,43,63543,1,8,0:0:0:0:
241,173,64106,1,8,0:0:0:0:
208,302,64481,1,4,0:0:0:0:
208,302,64856,1,12,0:0:0:0:
187,112,65981,1,0,0:0:0:0:
234,35,66543,1,8,0:0:0:0:
202,74,67106,1,8,0:0:0:0:
213,115,67481,1,0,0:0:0:0:
296,81,68043,1,8,0:0:0:0:
394,290,68606,1,0,0:0:0:0:
330,103,68981,1,4,0:0:0:0:
286,80,69543,1,8,0:0:0:0:
135,123,70106,1,0,0:0:0:0:
201,109,70481,1,4,0:0:0:0:
164,75,70856,1,12,0:0:0:0:
164,75,71418,1,8,0:0:0:0:
382,169,71981,1,0,0:0:0:0:
415,278,73481,1,8,0:0:0:0:
395,217,74043,1,0,0:0:0:0:
372,217,74418,1,0,0:0:0:0:
328,162,74981,1,8,0:0:0:0:
328,162,75543,1,8,0:0:0:0:
328,162,76106,1,0,0:0:0:0:
310,62,76481,1,0,0:0:0:0:
347,176,77231,1,8,0:0:0:0:
265,139,77981,1,0,0:0:0:0:
292,233,78543,1,0,0:0:0:0:
323,108,78918,1,8,0:0:0:0:
232,142,79481,1,0,0:0:0:0:
311,62,79856,1,8,0:0:0:0:
230,164,80418,1,0,0:0:0:0:
296,153,80981,1,0,0:0:0:0:
215,46,81356,1,8,0:0:0:0:
313,155,82481,1,0,0:0:0:0:
242,105,83043,1,0,0:0:0:0:
310,269,83418,1,8,0:0:0:0:
216,27,83981,1,0,0:0:0:0:
284,100,84543,1,0,0:0:0:0:
262,157,85481,1,0,0:0:0:0:
375,226,86043,1,8,0:0:0:0:
227,88,86418,1,0,0:0:0:0:
250,127,86981,1,0,0:0:0:0:
479,228,87543,1,8,0:0:0:0:
248,84,88106,1,0,0:0:0:0:
191,86,88481,1,0,0:0:0:0:
191,86,88856,1,8,0:0:0:0:
246,127,89231,1,0,0:0:0:0:
331,202,89981,1,0,0:0:0:0:
246,127,90356,1,0,0:0:0:0:
183,189,91106,1,8,0:0:0:0:
228,158,91481,1,0,0:0:0:0:
350,237,92043,1,8,0:0:0:0:
311,157,92418,1,0,0:0:0:0:
237,71,92981,1,0,0:0:0:0:
241,162,93356,1,8,0:0:0:0:
177,142,93731,1,8,0:0:0:0:
266,231,94106,1,8,0:0:0:0:
235,77,94481,1,0,0:0:0:0:
286,129,95981,1,4,0:0:0:0:
464,203,96543,1,8,0:0:0:0:
283,133,97106,1,0,0:0:0:0:
165,135,97481,1,0,0:0:0:0:
185,171,98043,1,8,0:0:0:0:
334,155,98606,1,8,0:0:0:0:
330,103,98981,1,4,0:0:0:0:
270,186,99543,1,8,0:0:0:0:
135,123,100106,1,0,0:0:0:0:
201,109,100481,1,4,0:0:0:0:
164,75,100856,1,12,0:0:0:0:
164,75,101981,1,0,0:0:0:0:
326,240,102543,1,8,0:0:0:0:
172,145,103106,1,0,0:0:0:0:
121,95,103481,1,0,0:0:0:0:
430,311,104043,1,8,0:0:0:0:
195,45,104418,1,8,0:0:0:0:
237,168,104981,1,4,0:0:0:0:
195,45,105543,1,0,0:0:0:0:
255,97,106106,1,8,0:0:0:0:
356,207,106481,1,4,0:0:0:0:
356,207,106856,1,12,0:0:0:0:
250,131,107981,1,0,0:0:0:0:
352,194,108543,1,8,0:0:0:0:
219,26,109106,1,8,0:0:0:0:
212,89,109481,1,0,0:0:0:0:
219,26,110043,1,8,0:0:0:0:
164,142,110606,1,0,0:0:0:0:
177,235,110981,1,4,0:0:0:0:
239,100,111543,1,8,0:0:0:0:
241,173,112106,1,0,0:0:0:0:
208,302,112481,1,4,0:0:0:0:
208,302,112856,1,12,0:0:0:0:
187,112,113981,1,0,0:0:0:0:
202,74,114543,1,0,0:0:0:0:
202,74,115106,1,8,0:0:0:0:
213,115,115481,1,0,0:0:0:0:
226,62,116043,1,8,0:0:0:0:
394,290,116606,1,8,0:0:0:0:
330,103,116981,1,4,0:0:0:0:
149,74,117543,1,8,0:0:0:0:
135,123,118106,1,0,0:0:0:0:
201,109,118481,1,4,0:0:0:0:
164,75,118856,1,12,0:0:0:0:
164,75,119418,1,8,0:0:0:0:
416,212,119793,1,8,0:0:0:0:
256,192,119981,12,0,125981,0:0:0:0:
