osu file format v14

[General]
AudioFilename: audio.mp3
AudioLeadIn: 0
PreviewTime: 47981
Countdown: 0
SampleSet: Normal
StackLeniency: 0.7
Mode: 1
LetterboxInBreaks: 0
WidescreenStoryboard: 0

[Editor]
Bookmarks: 47981,95981
DistanceSpacing: 1.1
BeatDivisor: 4
GridSize: 32
TimelineZoom: 1.7

[Metadata]
Title:cxvbiopxvcbn
TitleUnicode:cxvbiopxvcbn
Artist:uselet
ArtistUnicode:uselet
Creator:op45667
Version:despair
Source:
Tags:breakcore depressive melancholy instrumental electronic ambient liku
BeatmapID:3561522
BeatmapSetID:1742153

[Difficulty]
HPDrainRate:6
CircleSize:5
OverallDifficulty:7
ApproachRate:5
SliderMultiplier:1.4
SliderTickRate:1

[Events]
//Background and Video events
0,0,"1371432.jpg",0,-70
//Break Periods
//Storyboard Layer 0 (Background)
//Storyboard Layer 1 (Fail)
//Storyboard Layer 2 (Pass)
//Storyboard Layer 3 (Foreground)
//Storyboard Layer 4 (Overlay)
//Storyboard Sound Samples

[TimingPoints]
0,375,8,1,0,40,1,0
0,-100,8,1,0,40,0,0
23981,375,4,1,0,80,1,0
23981,-95.2380952380953,4,1,0,80,0,0
47981,-83.3333333333333,4,1,0,100,0,1
71418,-83.3333333333333,4,1,0,100,0,1
71481,-85.4700854700855,4,1,0,100,0,1
71606,-87.719298245614,4,1,0,100,0,1
71668,-90.0900900900901,4,1,0,100,0,1
71793,-92.5925925925926,4,1,0,100,0,1
71981,-95.2380952380953,4,1,0,80,0,0
95231,-94.3396226415095,4,1,0,80,0,0
95324,-93.4579439252337,4,1,0,80,0,0
95418,-92.5925925925926,4,1,0,80,0,0
95606,-90.9090909090909,4,1,0,80,0,0
95699,-88.495575221239,4,1,0,80,0,0
95793,-86.2068965517241,4,1,0,80,0,0
95856,-84.0336134453782,4,1,0,80,0,0
95918,-81.9672131147541,4,1,0,80,0,0
95981,-80,4,1,0,100,0,1
119324,-80,4,1,0,100,0,1
119418,-81.6326530612245,4,1,0,100,0,1
119512,-83.3333333333333,4,1,0,100,0,1
119606,-85.4700854700855,4,1,0,100,0,1
119699,-87.719298245614,4,1,0,100,0,1
119793,-90.0900900900901,4,1,0,100,0,1
119887,-92.5925925925926,4,1,0,100,0,1
119981,-95.2380952380953,4,1,0,80,0,0
121481,-105.263157894737,4,1,0,70,0,0
122981,-133.333333333333,4,1,0,60,0,0
124481,-181.818181818182,4,1,0,50,0,0
125981,-222.222222222222,4,1,0,40,0,0

[HitObjects]
355,250,23981,5,4,0:0:0:0:
214,97,24168,1,8,0:0:0:0:
214,97,24262,1,0,0:0:0:0:
214,97,24449,1,0,0:0:0:0:
214,97,24543,1,8,0:0:0:0:
214,97,24637,1,0,0:0:0:0:
214,97,24731,1,8,0:0:0:0:
207,56,24824,1,8,0:0:0:0:
207,56,25012,1,8,0:0:0:0:
207,56,25106,1,0,0:0:0:0:
207,56,25293,1,8,0:0:0:0:
207,56,25481,1,0,0:0:0:0:
207,56,25668,1,8,0:0:0:0:
172,79,25762,1,8,0:0:0:0:
172,79,25856,1,0,0:0:0:0:
194,49,25949,1,0,0:0:0:0:
194,49,26043,1,8,0:0:0:0:
354,243,26231,1,0,0:0:0:0:
254,94,26324,1,0,0:0:0:0:
345,96,26418,1,8,0:0:0:0:
454,266,26465,1,0,0:0:0:0:
231,23,26512,1,8,0:0:0:0:
254,94,26606,1,0,0:0:0:0:
254,94,26668,1,0,0:0:0:0:
207,56,26731,1,0,0:0:0:0:
204,56,26793,1,8,0:0:0:0:
402,317,26981,1,0,0:0:0:0:
288,271,27168,1,8,0:0:0:0:
288,271,27262,1,0,0:0:0:0:
283,261,27449,1,0,0:0:0:0:
283,261,27543,1,8,0:0:0:0:
438,323,27637,1,8,0:0:0:0:
438,323,27731,1,0,0:0:0:0:
275,288,27824,1,0,0:0:0:0:
438,323,27918,1,8,0:0:0:0:
438,323,28012,1,8,0:0:0:0:
438,323,28106,1,0,0:0:0:0:
192,241,28293,1,0,0:0:0:0:
192,241,28481,1,0,0:0:0:0:
295,280,28668,1,8,0:0:0:0:
295,280,28762,1,8,0:0:0:0:
295,280,28856,1,0,0:0:0:0:
295,280,28949,1,0,0:0:0:0:
295,259,29043,1,8,0:0:0:0:
237,68,29137,1,0,0:0:0:0:
295,259,29231,1,0,0:0:0:0:
220,177,29418,1,0,0:0:0:0:
220,177,29512,1,8,0:0:0:0:
220,177,29606,1,8,0:0:0:0:
423,207,29699,1,0,0:0:0:0:
220,177,29793,1,8,0:0:0:0:
423,207,29887,1,8,0:0:0:0:
423,207,29981,1,0,0:0:0:0:
365,228,30168,1,8,0:0:0:0:
365,228,30262,1,0,0:0:0:0:
294,166,30356,1,8,0:0:0:0:
365,228,30449,1,0,0:0:0:0:
327,215,30543,1,8,0:0:0:0:
327,215,30824,1,0,0:0:0:0:
327,215,30918,1,8,0:0:0:0:
327,215,31106,1,8,0:0:0:0:
327,215,31199,1,0,0:0:0:0:
306,174,31293,1,8,0:0:0:0:
306,174,31481,1,0,0:0:0:0:
306,174,31668,1,8,0:0:0:0:
306,174,31762,1,0,0:0:0:0:
235,135,31949,1,8,0:0:0:0:
235,135,32043,1,0,0:0:0:0:
226,129,32231,1,8,0:0:0:0:
226,129,32324,1,0,0:0:0:0:
226,129,32512,1,8,0:0:0:0:
226,129,32606,1,0,0:0:0:0:
226,129,32793,1,0,0:0:0:0:
226,129,32887,1,8,0:0:0:0:
270,114,32981,1,0,0:0:0:0:
270,114,33168,1,8,0:0:0:0:
270,114,33262,1,0,0:0:0:0:
270,114,33356,1,0,0:0:0:0:
270,114,33543,1,0,0:0:0:0:
270,114,33731,1,8,0:0:0:0:
270,114,33824,1,0,0:0:0:0:
270,114,33918,1,8,0:0:0:0:
270,114,34012,1,8,0:0:0:0:
270,114,34106,1,0,0:0:0:0:
210,95,34199,1,8,0:0:0:0:
210,95,34293,1,0,0:0:0:0:
143,85,34481,1,0,0:0:0:0:
143,85,34668,1,8,0:0:0:0:
143,85,34762,1,0,0:0:0:0:
143,85,34856,1,8,0:0:0:0:
143,85,34949,1,0,0:0:0:0:
143,85,35043,1,8,0:0:0:0:
143,85,35137,1,0,0:0:0:0:
143,85,35231,1,0,0:0:0:0:
143,85,35324,1,8,0:0:0:0:
257,218,35418,1,8,0:0:0:0:
223,144,35512,1,0,0:0:0:0:
143,85,35606,1,0,0:0:0:0:
143,85,35793,1,8,0:0:0:0:
143,85,35887,1,8,0:0:0:0:
143,85,35981,1,0,0:0:0:0:
511,259,36168,1,8,0:0:0:0:
511,259,36262,1,0,0:0:0:0:
209,122,36449,1,0,0:0:0:0:
209,122,36543,1,8,0:0:0:0:
209,122,36637,1,8,0:0:0:0:
209,122,36731,1,0,0:0:0:0:
209,122,36824,1,8,0:0:0:0:
209,122,36918,1,0,0:0:0:0:
155,54,37012,1,8,0:0:0:0:
155,54,37106,1,0,0:0:0:0:
155,54,37293,1,8,0:0:0:0:
155,54,37481,1,0,0:0:0:0:
315,266,37668,1,8,0:0:0:0:
315,266,37762,1,8,0:0:0:0:
315,266,37856,1,0,0:0:0:0:
306,212,37949,1,8,0:0:0:0:
306,212,38043,1,8,0:0:0:0:
189,158,38137,1,0,0:0:0:0:
306,212,38231,1,8,0:0:0:0:
224,203,38324,1,0,0:0:0:0:
203,113,38418,1,8,0:0:0:0:
203,113,38465,1,8,0:0:0:0:
203,113,38512,1,0,0:0:0:0:
262,128,38606,1,8,0:0:0:0:
206,41,38668,1,8,0:0:0:0:
262,128,38731,1,0,0:0:0:0:
206,41,38793,1,8,0:0:0:0:
302,257,38981,1,0,0:0:0:0:
269,169,39168,1,8,0:0:0:0:
269,169,39262,1,0,0:0:0:0:
269,97,39449,1,0,0:0:0:0:
269,97,39543,1,8,0:0:0:0:
269,97,39637,1,8,0:0:0:0:
269,97,39731,1,0,0:0:0:0:
269,97,39824,1,0,0:0:0:0:
272,198,39918,1,8,0:0:0:0:
272,198,40012,1,8,0:0:0:0:
272,198,40106,1,0,0:0:0:0:
272,198,40293,1,0,0:0:0:0:
272,198,40481,1,0,0:0:0:0:
383,257,40668,1,8,0:0:0:0:
383,257,40762,1,0,0:0:0:0:
383,257,40856,1,8,0:0:0:0:
383,257,40949,1,8,0:0:0:0:
383,257,41043,1,8,0:0:0:0:
383,257,41137,1,0,0:0:0:0:
383,257,41231,1,8,0:0:0:0:
383,257,41324,1,0,0:0:0:0:
383,257,41418,1,0,0:0:0:0:
383,257,41606,1,8,0:0:0:0:
305,191,41699,1,0,0:0:0:0:
305,191,41793,1,8,0:0:0:0:
305,191,41887,1,8,0:0:0:0:
305,191,41981,1,0,0:0:0:0:
305,191,42168,1,8,0:0:0:0:
305,191,42262,1,0,0:0:0:0:
305,191,42449,1,0,0:0:0:0:
305,191,42543,1,8,0:0:0:0:
305,191,42637,1,8,0:0:0:0:
305,191,42731,1,0,0:0:0:0:
305,191,42824,1,8,0:0:0:0:
305,191,42918,1,0,0:0:0:0:
270,191,43012,1,0,0:0:0:0:
270,191,43106,1,0,0:0:0:0:
270,191,43293,1,8,0:0:0:0:
270,191,43481,1,0,0:0:0:0:
270,191,43668,1,0,0:0:0:0:
270,191,43762,1,8,0:0:0:0:
270,191,43856,1,8,0:0:0:0:
270,191,43949,1,0,0:0:0:0:
270,191,44043,1,8,0:0:0:0:
270,191,44231,1,8,0:0:0:0:
255,256,44324,1,8,0:0:0:0:
255,256,44418,1,0,0:0:0:0:
255,256,44465,1,0,0:0:0:0:
255,256,44512,1,8,0:0:0:0:
212,294,44606,1,8,0:0:0:0:
212,294,44668,1,0,0:0:0:0:
212,294,44731,1,0,0:0:0:0:
212,294,44793,1,8,0:0:0:0:
207,125,44981,1,0,0:0:0:0:
225,144,45168,1,8,0:0:0:0:
225,144,45262,1,0,0:0:0:0:
225,144,45449,1,0,0:0:0:0:
225,144,45543,1,8,0:0:0:0:
225,144,45637,1,8,0:0:0:0:
225,144,45731,1,0,0:0:0:0:
225,144,45824,1,8,0:0:0:0:
225,144,45918,1,8,0:0:0:0:
225,144,46012,1,8,0:0:0:0:
225,144,46106,1,0,0:0:0:0:
225,144,46293,1,0,0:0:0:0:
225,144,46481,1,0,0:0:0:0:
471,329,46668,1,8,0:0:0:0:
471,329,46762,1,8,0:0:0:0:
143,160,46856,1,0,0:0:0:0:
471,329,46949,1,8,0:0:0:0:
471,329,47043,1,8,0:0:0:0:
471,329,47137,1,0,0:0:0:0:
471,329,47231,1,0,0:0:0:0:
471,329,47418,1,0,0:0:0:0:
345,262,47512,1,8,0:0:0:0:
345,262,47606,1,8,0:0:0:0:
286,129,47981,1,4,0:0:0:0:
464,203,48168,1,8,0:0:0:0:
464,203,48262,1,0,0:0:0:0:
464,203,48356,1,8,0:0:0:0:
402,186,48449,1,0,0:0:0:0:
402,186,48543,1,8,0:0:0:0:
402,186,48637,1,8,0:0:0:0:
402,186,48731,1,8,0:0:0:0:
293,135,48824,1,0,0:0:0:0:
293,135,48918,1,8,0:0:0:0:
390,186,49012,1,0,0:0:0:0:
283,133,49106,1,0,0:0:0:0:
165,135,49293,1,8,0:0:0:0:
165,135,49387,1,8,0:0:0:0:
165,135,49481,1,0,0:0:0:0:
165,135,49668,1,8,0:0:0:0:
165,135,49762,1,0,0:0:0:0:
165,135,49856,1,8,0:0:0:0:
209,124,49949,1,0,0:0:0:0:
209,124,50043,1,8,0:0:0:0:
334,155,50231,1,8,0:0:0:0:
209,93,50324,1,0,0:0:0:0:
334,155,50418,1,8,0:0:0:0:
207,130,50465,1,8,0:0:0:0:
334,155,50512,1,0,0:0:0:0:
401,168,50606,1,8,0:0:0:0:
401,168,50668,1,8,0:0:0:0:
401,168,50731,1,8,0:0:0:0:
401,168,50793,1,8,0:0:0:0:
330,103,50981,1,4,0:0:0:0:
279,197,51168,1,8,0:0:0:0:
279,197,51262,1,0,0:0:0:0:
334,176,51356,1,8,0:0:0:0:
203,84,51449,1,0,0:0:0:0:
203,84,51543,1,8,0:0:0:0:
149,74,51731,1,0,0:0:0:0:
149,74,51824,1,0,0:0:0:0:
238,146,51918,1,8,0:0:0:0:
239,98,52012,1,8,0:0:0:0:
135,123,52106,1,0,0:0:0:0:
218,137,52199,1,8,0:0:0:0:
218,137,52293,1,0,0:0:0:0:
201,109,52387,1,8,0:0:0:0:
201,109,52481,1,4,0:0:0:0:
164,75,52668,1,8,0:0:0:0:
334,190,52762,1,0,0:0:0:0:
164,75,52856,1,12,0:0:0:0:
164,75,53043,1,0,0:0:0:0:
164,75,53137,1,8,0:0:0:0:
164,75,53231,1,0,0:0:0:0:
164,75,53324,1,0,0:0:0:0:
164,75,53418,1,8,0:0:0:0:
164,75,53512,1,0,0:0:0:0:
164,75,53606,1,8,0:0:0:0:
164,75,53699,1,8,0:0:0:0:
164,75,53793,1,8,0:0:0:0:
164,75,53981,1,0,0:0:0:0:
172,145,54168,1,0,0:0:0:0:
172,145,54262,1,8,0:0:0:0:
172,145,54356,1,8,0:0:0:0:
172,145,54449,1,0,0:0:0:0:
172,145,54543,1,8,0:0:0:0:
245,129,54637,1,8,0:0:0:0:
172,145,54731,1,8,0:0:0:0:
172,145,54824,1,0,0:0:0:0:
172,145,54918,1,8,0:0:0:0:
172,145,55012,1,8,0:0:0:0:
172,145,55106,1,0,0:0:0:0:
151,126,55293,1,8,0:0:0:0:
151,126,55387,1,8,0:0:0:0:
151,126,55481,1,0,0:0:0:0:
151,126,55668,1,8,0:0:0:0:
151,126,55762,1,0,0:0:0:0:
151,126,55856,1,8,0:0:0:0:
121,95,55949,1,0,0:0:0:0:
121,95,56043,1,8,0:0:0:0:
121,95,56137,1,8,0:0:0:0:
121,95,56231,1,0,0:0:0:0:
381,98,56324,1,0,0:0:0:0:
215,150,56418,1,8,0:0:0:0:
215,150,56465,1,0,0:0:0:0:
215,150,56512,1,8,0:0:0:0:
170,90,56606,1,0,0:0:0:0:
265,218,56668,1,0,0:0:0:0:
265,218,56731,1,0,0:0:0:0:
265,218,56793,1,8,0:0:0:0:
237,168,56981,1,4,0:0:0:0:
350,182,57168,1,8,0:0:0:0:
350,182,57262,1,0,0:0:0:0:
312,180,57356,1,8,0:0:0:0:
237,168,57449,1,0,0:0:0:0:
312,180,57543,1,8,0:0:0:0:
312,180,57637,1,8,0:0:0:0:
312,180,57731,1,0,0:0:0:0:
251,97,57824,1,8,0:0:0:0:
312,180,57918,1,8,0:0:0:0:
312,180,58012,1,8,0:0:0:0:
312,180,58106,1,0,0:0:0:0:
267,101,58199,1,8,0:0:0:0:
312,180,58293,1,0,0:0:0:0:
312,180,58387,1,8,0:0:0:0:
356,207,58481,1,4,0:0:0:0:
312,180,58668,1,8,0:0:0:0:
312,180,58762,1,0,0:0:0:0:
356,207,58856,1,12,0:0:0:0:
250,131,59043,1,8,0:0:0:0:
250,131,59137,1,8,0:0:0:0:
250,131,59231,1,0,0:0:0:0:
250,131,59324,1,0,0:0:0:0:
250,131,59418,1,8,0:0:0:0:
250,131,59512,1,0,0:0:0:0:
250,131,59606,1,8,0:0:0:0:
250,131,59699,1,0,0:0:0:0:
250,131,59793,1,8,0:0:0:0:
250,131,59887,1,8,0:0:0:0:
250,131,59981,1,0,0:0:0:0:
250,131,60168,1,8,0:0:0:0:
250,131,60262,1,0,0:0:0:0:
212,89,60356,1,8,0:0:0:0:
212,89,60449,1,0,0:0:0:0:
212,89,60543,1,8,0:0:0:0:
212,89,60637,1,8,0:0:0:0:
212,89,60731,1,0,0:0:0:0:
212,89,60824,1,0,0:0:0:0:
212,89,60918,1,8,0:0:0:0:
212,89,61012,1,0,0:0:0:0:
212,89,61106,1,0,0:0:0:0:
212,89,61293,1,8,0:0:0:0:
212,89,61387,1,8,0:0:0:0:
212,89,61481,1,0,0:0:0:0:
191,98,61668,1,8,0:0:0:0:
191,98,61762,1,0,0:0:0:0:
386,263,61856,1,8,0:0:0:0:
182,111,61949,1,0,0:0:0:0:
182,111,62043,1,8,0:0:0:0:
182,111,62137,1,8,0:0:0:0:
182,111,62231,1,0,0:0:0:0:
215,159,62324,1,8,0:0:0:0:
215,159,62418,1,0,0:0:0:0:
215,159,62465,1,0,0:0:0:0:
155,82,62512,1,8,0:0:0:0:
306,105,62606,1,0,0:0:0:0:
306,105,62668,1,0,0:0:0:0:
306,105,62731,1,0,0:0:0:0:
306,105,62793,1,8,0:0:0:0:
177,235,62981,1,4,0:0:0:0:
410,240,63168,1,8,0:0:0:0:
410,240,63262,1,0,0:0:0:0:
288,188,63356,1,0,0:0:0:0:
288,188,63449,1,0,0:0:0:0:
241,173,63543,1,8,0:0:0:0:
241,173,63637,1,0,0:0:0:0:
239,100,63731,1,8,0:0:0:0:
241,173,63824,1,0,0:0:0:0:
241,173,63918,1,8,0:0:0:0:
276,116,64012,1,8,0:0:0:0:
241,173,64106,1,0,0:0:0:0:
241,173,64199,1,8,0:0:0:0:
241,173,64293,1,0,0:0:0:0:
241,173,64387,1,8,0:0:0:0:
208,302,64481,1,4,0:0:0:0:
205,57,64668,1,0,0:0:0:0:
205,57,64762,1,0,0:0:0:0:
208,302,64856,1,12,0:0:0:0:
427,231,65043,1,8,0:0:0:0:
427,231,65137,1,0,0:0:0:0:
265,171,65231,1,0,0:0:0:0:
265,171,65324,1,8,0:0:0:0:
265,171,65418,1,8,0:0:0:0:
265,171,65512,1,0,0:0:0:0:
265,171,65606,1,8,0:0:0:0:
279,177,65699,1,0,0:0:0:0:
166,129,65793,1,8,0:0:0:0:
187,112,65887,1,8,0:0:0:0:
187,112,65981,1,0,0:0:0:0:
187,112,66168,1,8,0:0:0:0:
187,112,66262,1,0,0:0:0:0:
187,112,66356,1,8,0:0:0:0:
192,89,66449,1,0,0:0:0:0:
187,112,66543,1,8,0:0:0:0:
202,73,66637,1,8,0:0:0:0:
202,74,66731,1,0,0:0:0:0:
202,74,66824,1,0,0:0:0:0:
202,74,66918,1,8,0:0:0:0:
202,74,67012,1,8,0:0:0:0:
202,74,67106,1,0,0:0:0:0:
213,115,67293,1,8,0:0:0:0:
213,115,67387,1,8,0:0:0:0:
213,115,67481,1,0,0:0:0:0:
227,56,67668,1,0,0:0:0:0:
226,62,67762,1,8,0:0:0:0:
226,62,67856,1,8,0:0:0:0:
226,62,67949,1,0,0:0:0:0:
226,62,68043,1,8,0:0:0:0:
226,62,68137,1,8,0:0:0:0:
226,62,68231,1,0,0:0:0:0:
226,62,68324,1,8,0:0:0:0:
226,62,68418,1,0,0:0:0:0:
181,84,68465,1,0,0:0:0:0:
181,84,68512,1,8,0:0:0:0:
331,123,68606,1,8,0:0:0:0:
225,33,68668,1,0,0:0:0:0:
331,123,68731,1,0,0:0:0:0:
331,123,68793,1,8,0:0:0:0:
330,103,68981,1,4,0:0:0:0:
279,197,69168,1,8,0:0:0:0:
279,197,69262,1,0,0:0:0:0:
334,176,69356,1,8,0:0:0:0:
203,84,69449,1,0,0:0:0:0:
203,84,69543,1,8,0:0:0:0:
149,74,69731,1,0,0:0:0:0:
149,74,69824,1,0,0:0:0:0:
479,248,69918,1,8,0:0:0:0:
240,85,70012,1,8,0:0:0:0:
135,123,70106,1,0,0:0:0:0:
218,137,70199,1,8,0:0:0:0:
218,137,70293,1,0,0:0:0:0:
201,109,70387,1,8,0:0:0:0:
201,109,70481,1,4,0:0:0:0:
164,75,70668,1,8,0:0:0:0:
334,190,70762,1,0,0:0:0:0:
164,75,70856,1,12,0:0:0:0:
164,75,71043,1,0,0:0:0:0:
164,75,71137,1,8,0:0:0:0:
164,75,71231,1,0,0:0:0:0:
164,75,71324,1,0,0:0:0:0:
164,75,71418,1,8,0:0:0:0:
164,75,71512,1,0,0:0:0:0:
164,75,71606,1,8,0:0:0:0:
164,75,71699,1,8,0:0:0:0:
164,75,71793,1,8,0:0:0:0:
382,169,71981,1,0,0:0:0:0:
246,93,72262,1,8,0:0:0:0:
246,93,72309,1,0,0:0:0:0:
246,93,72356,1,8,0:0:0:0:
246,93,72543,1,0,0:0:0:0:
445,142,72731,1,8,0:0:0:0:
321,137,72824,1,8,0:0:0:0:
321,137,72918,1,8,0:0:0:0:
415,278,73481,1,0,0:0:0:0:
405,223,73668,1,8,0:0:0:0:
395,217,73715,1,8,0:0:0:0:
166,30,73762,1,0,0:0:0:0:
395,217,73809,1,0,0:0:0:0:
395,217,73856,1,8,0:0:0:0:
395,217,74043,1,0,0:0:0:0:
372,217,74324,1,8,0:0:0:0:
372,217,74418,1,0,0:0:0:0:
328,162,74606,1,8,0:0:0:0:
328,162,74699,1,0,0:0:0:0:
328,162,74793,1,8,0:0:0:0:
328,162,74887,1,8,0:0:0:0:
328,162,74981,1,0,0:0:0:0:
328,162,75168,1,8,0:0:0:0:
328,162,75262,1,0,0:0:0:0:
328,162,75356,1,0,0:0:0:0:
328,162,75449,1,8,0:0:0:0:
328,162,75543,1,0,0:0:0:0:
328,162,75731,1,8,0:0:0:0:
328,162,75824,1,0,0:0:0:0:
328,162,75918,1,8,0:0:0:0:
328,162,76012,1,8,0:0:0:0:
328,162,76106,1,0,0:0:0:0:
293,146,76481,1,0,0:0:0:0:
293,146,76668,1,8,0:0:0:0:
181,215,76949,1,0,0:0:0:0:
181,215,76996,1,0,0:0:0:0:
181,215,77043,1,8,0:0:0:0:
347,176,77137,1,8,0:0:0:0:
347,176,77231,1,0,0:0:0:0:
359,140,77418,1,0,0:0:0:0:
265,139,77512,1,8,0:0:0:0:
265,139,77606,1,0,0:0:0:0:
265,139,77699,1,8,0:0:0:0:
265,139,77793,1,8,0:0:0:0:
265,139,77981,1,0,0:0:0:0:
292,233,78168,1,8,0:0:0:0:
292,233,78543,1,0,0:0:0:0:
292,233,78637,1,0,0:0:0:0:
292,233,78731,1,8,0:0:0:0:
323,108,78918,1,8,0:0:0:0:
323,108,78965,1,8,0:0:0:0:
299,124,79012,1,0,0:0:0:0:
299,124,79059,1,0,0:0:0:0:
299,124,79106,1,8,0:0:0:0:
266,119,79199,1,0,0:0:0:0:
266,119,79293,1,8,0:0:0:0:
232,142,79356,1,8,0:0:0:0:
232,142,79418,1,8,0:0:0:0:
232,142,79481,1,0,0:0:0:0:
221,178,79668,1,0,0:0:0:0:
395,173,79715,1,8,0:0:0:0:
311,62,79856,1,8,0:0:0:0:
341,49,80043,1,0,0:0:0:0:
230,164,80137,1,8,0:0:0:0:
230,164,80231,1,0,0:0:0:0:
253,190,80277,1,0,0:0:0:0:
253,190,80324,1,8,0:0:0:0:
253,190,80371,1,8,0:0:0:0:
253,190,80418,1,0,0:0:0:0:
296,153,80699,1,0,0:0:0:0:
296,153,80746,1,0,0:0:0:0:
296,153,80793,1,8,0:0:0:0:
296,153,80981,1,0,0:0:0:0:
280,130,81168,1,0,0:0:0:0:
280,130,81262,1,8,0:0:0:0:
296,153,81356,1,8,0:0:0:0:
280,130,81543,1,8,0:0:0:0:
400,27,81590,1,8,0:0:0:0:
400,27,81637,1,0,0:0:0:0:
400,27,81731,1,8,0:0:0:0:
313,155,82106,1,8,0:0:0:0:
313,155,82152,1,8,0:0:0:0:
313,155,82199,1,0,0:0:0:0:
313,155,82246,1,0,0:0:0:0:
313,155,82293,1,8,0:0:0:0:
321,92,82387,1,8,0:0:0:0:
313,155,82481,1,0,0:0:0:0:
221,123,82762,1,8,0:0:0:0:
172,331,82809,1,0,0:0:0:0:
221,123,82856,1,8,0:0:0:0:
172,331,82949,1,8,0:0:0:0:
177,313,83043,1,0,0:0:0:0:
310,269,83231,1,8,0:0:0:0:
310,269,83324,1,8,0:0:0:0:
310,269,83418,1,0,0:0:0:0:
310,269,83606,1,8,0:0:0:0:
335,206,83793,1,8,0:0:0:0:
335,206,83840,1,8,0:0:0:0:
335,206,83887,1,8,0:0:0:0:
365,218,83934,1,8,0:0:0:0:
335,206,83981,1,0,0:0:0:0:
357,130,84262,1,0,0:0:0:0:
284,100,84309,1,0,0:0:0:0:
284,100,84356,1,8,0:0:0:0:
270,171,84543,1,0,0:0:0:0:
262,157,84731,1,8,0:0:0:0:
262,157,84824,1,8,0:0:0:0:
262,157,84918,1,8,0:0:0:0:
262,157,85106,1,8,0:0:0:0:
262,157,85199,1,8,0:0:0:0:
262,157,85293,1,8,0:0:0:0:
262,157,85387,1,8,0:0:0:0:
262,157,85481,1,0,0:0:0:0:
234,148,85668,1,0,0:0:0:0:
234,148,85715,1,0,0:0:0:0:
234,148,85762,1,0,0:0:0:0:
234,148,85809,1,0,0:0:0:0:
205,88,85856,1,8,0:0:0:0:
205,88,86043,1,0,0:0:0:0:
227,88,86324,1,8,0:0:0:0:
227,88,86371,1,8,0:0:0:0:
227,88,86418,1,0,0:0:0:0:
250,127,86606,1,8,0:0:0:0:
250,127,86793,1,8,0:0:0:0:
250,127,86887,1,8,0:0:0:0:
250,127,86981,1,0,0:0:0:0:
250,127,87168,1,8,0:0:0:0:
250,127,87356,1,0,0:0:0:0:
250,127,87449,1,8,0:0:0:0:
250,127,87543,1,0,0:0:0:0:
248,84,87731,1,0,0:0:0:0:
248,84,87824,1,0,0:0:0:0:
248,84,87918,1,8,0:0:0:0:
248,84,88012,1,8,0:0:0:0:
248,84,88106,1,0,0:0:0:0:
191,86,88481,1,0,0:0:0:0:
191,86,88668,1,8,0:0:0:0:
191,86,88949,1,0,0:0:0:0:
233,191,88996,1,0,0:0:0:0:
233,191,89043,1,8,0:0:0:0:
246,127,89137,1,8,0:0:0:0:
246,127,89231,1,0,0:0:0:0:
246,127,89418,1,0,0:0:0:0:
246,127,89512,1,8,0:0:0:0:
246,127,89606,1,0,0:0:0:0:
246,127,89699,1,8,0:0:0:0:
246,127,89793,1,8,0:0:0:0:
246,127,89981,1,0,0:0:0:0:
246,127,90168,1,8,0:0:0:0:
246,127,90262,1,8,0:0:0:0:
246,127,90356,1,0,0:0:0:0:
246,127,90543,1,8,0:0:0:0:
246,127,90637,1,0,0:0:0:0:
246,127,90731,1,8,0:0:0:0:
246,127,90918,1,0,0:0:0:0:
214,108,90965,1,0,0:0:0:0:
214,108,91012,1,8,0:0:0:0:
214,108,91059,1,8,0:0:0:0:
214,108,91106,1,0,0:0:0:0:
338,120,91199,1,8,0:0:0:0:
338,120,91293,1,0,0:0:0:0:
338,120,91356,1,0,0:0:0:0:
338,120,91418,1,0,0:0:0:0:
228,158,91481,1,8,0:0:0:0:
237,71,91668,1,0,0:0:0:0:
305,198,91715,1,8,0:0:0:0:
311,157,91856,1,8,0:0:0:0:
311,157,92043,1,0,0:0:0:0:
311,157,92137,1,8,0:0:0:0:
311,157,92231,1,0,0:0:0:0:
311,157,92277,1,0,0:0:0:0:
311,157,92324,1,8,0:0:0:0:
311,157,92371,1,8,0:0:0:0:
311,157,92418,1,0,0:0:0:0:
237,71,92699,1,8,0:0:0:0:
237,71,92746,1,0,0:0:0:0:
237,71,92793,1,8,0:0:0:0:
252,73,92981,1,0,0:0:0:0:
241,162,93168,1,0,0:0:0:0:
241,162,93262,1,8,0:0:0:0:
241,162,93356,1,8,0:0:0:0:
241,162,93449,1,0,0:0:0:0:
148,124,93543,1,8,0:0:0:0:
177,142,93731,1,8,0:0:0:0:
266,231,94106,1,8,0:0:0:0:
285,110,94199,1,8,0:0:0:0:
285,110,94293,1,0,0:0:0:0:
297,146,94387,1,8,0:0:0:0:
297,146,94481,1,0,0:0:0:0:
297,146,94668,1,0,0:0:0:0:
297,146,94762,1,8,0:0:0:0:
297,146,94856,1,8,0:0:0:0:
297,146,94949,1,8,0:0:0:0:
297,146,95043,1,0,0:0:0:0:
297,146,95231,1,8,0:0:0:0:
297,146,95324,1,8,0:0:0:0:
297,146,95418,1,0,0:0:0:0:
297,146,95606,1,8,0:0:0:0:
179,217,95793,1,8,0:0:0:0:
179,217,95856,1,8,0:0:0:0:
179,217,95918,1,8,0:0:0:0:
286,129,95981,1,4,0:0:0:0:
464,203,96168,1,8,0:0:0:0:
464,203,96262,1,0,0:0:0:0:
464,203,96356,1,8,0:0:0:0:
402,186,96449,1,0,0:0:0:0:
402,186,96543,1,8,0:0:0:0:
402,186,96637,1,8,0:0:0:0:
402,186,96731,1,0,0:0:0:0:
283,173,96824,1,0,0:0:0:0:
293,135,96918,1,8,0:0:0:0:
390,186,97012,1,0,0:0:0:0:
283,133,97106,1,0,0:0:0:0:
165,135,97293,1,8,0:0:0:0:
165,135,97387,1,8,0:0:0:0:
165,135,97481,1,0,0:0:0:0:
165,135,97668,1,8,0:0:0:0:
165,135,97762,1,0,0:0:0:0:
165,135,97856,1,8,0:0:0:0:
209,124,97949,1,0,0:0:0:0:
209,124,98043,1,8,0:0:0:0:
334,155,98231,1,8,0:0:0:0:
209,93,98324,1,0,0:0:0:0:
334,155,98418,1,8,0:0:0:0:
207,137,98465,1,8,0:0:0:0:
334,155,98512,1,0,0:0:0:0:
401,168,98606,1,8,0:0:0:0:
401,168,98668,1,8,0:0:0:0:
401,168,98731,1,0,0:0:0:0:
401,168,98793,1,8,0:0:0:0:
330,103,98981,1,4,0:0:0:0:
279,197,99168,1,8,0:0:0:0:
279,197,99262,1,0,0:0:0:0:
334,176,99356,1,8,0:0:0:0:
203,84,99449,1,0,0:0:0:0:
203,84,99543,1,8,0:0:0:0:
149,74,99731,1,0,0:0:0:0:
149,74,99824,1,0,0:0:0:0:
238,146,99918,1,8,0:0:0:0:
135,123,100012,1,8,0:0:0:0:
135,123,100106,1,0,0:0:0:0:
218,137,100199,1,8,0:0:0:0:
218,137,100293,1,0,0:0:0:0:
201,109,100387,1,8,0:0:0:0:
201,109,100481,1,4,0:0:0:0:
164,75,100668,1,8,0:0:0:0:
334,190,100762,1,0,0:0:0:0:
164,75,100856,1,12,0:0:0:0:
164,75,101043,1,0,0:0:0:0:
164,75,101137,1,8,0:0:0:0:
164,75,101231,1,0,0:0:0:0:
164,75,101324,1,0,0:0:0:0:
164,75,101418,1,8,0:0:0:0:
164,75,101512,1,0,0:0:0:0:
164,75,101606,1,8,0:0:0:0:
164,75,101699,1,0,0:0:0:0:
164,75,101793,1,8,0:0:0:0:
164,75,101981,1,0,0:0:0:0:
172,145,102168,1,0,0:0:0:0:
172,145,102262,1,8,0:0:0:0:
172,145,102356,1,8,0:0:0:0:
172,145,102449,1,0,0:0:0:0:
172,145,102543,1,8,0:0:0:0:
252,154,102637,1,8,0:0:0:0:
172,145,102731,1,0,0:0:0:0:
172,145,102824,1,8,0:0:0:0:
172,145,102918,1,8,0:0:0:0:
172,145,103012,1,0,0:0:0:0:
172,145,103106,1,0,0:0:0:0:
151,126,103293,1,0,0:0:0:0:
151,126,103387,1,8,0:0:0:0:
151,126,103481,1,0,0:0:0:0:
151,126,103668,1,8,0:0:0:0:
151,126,103762,1,0,0:0:0:0:
151,126,103856,1,8,0:0:0:0:
121,95,103949,1,0,0:0:0:0:
121,95,104043,1,8,0:0:0:0:
121,95,104137,1,8,0:0:0:0:
121,95,104231,1,0,0:0:0:0:
381,98,104324,1,0,0:0:0:0:
215,150,104418,1,8,0:0:0:0:
215,150,104512,1,0,0:0:0:0:
170,90,104606,1,8,0:0:0:0:
338,122,104699,1,8,0:0:0:0:
265,218,104793,1,0,0:0:0:0:
237,168,104981,1,4,0:0:0:0:
350,182,105168,1,8,0:0:0:0:
350,182,105262,1,0,0:0:0:0:
312,180,105356,1,8,0:0:0:0:
237,168,105449,1,0,0:0:0:0:
417,258,105543,1,8,0:0:0:0:
312,180,105637,1,8,0:0:0:0:
312,180,105731,1,0,0:0:0:0:
221,226,105824,1,0,0:0:0:0:
312,180,105918,1,8,0:0:0:0:
312,180,106012,1,8,0:0:0:0:
312,180,106106,1,0,0:0:0:0:
267,101,106199,1,8,0:0:0:0:
312,180,106293,1,0,0:0:0:0:
312,180,106387,1,8,0:0:0:0:
356,207,106481,1,4,0:0:0:0:
312,180,106668,1,8,0:0:0:0:
312,180,106762,1,0,0:0:0:0:
356,207,106856,1,12,0:0:0:0:
250,131,107043,1,0,0:0:0:0:
250,131,107137,1,8,0:0:0:0:
250,131,107231,1,8,0:0:0:0:
250,131,107324,1,8,0:0:0:0:
250,131,107418,1,0,0:0:0:0:
250,131,107606,1,8,0:0:0:0:
250,131,107699,1,0,0:0:0:0:
250,131,107793,1,8,0:0:0:0:
250,131,107887,1,8,0:0:0:0:
250,131,107981,1,0,0:0:0:0:
250,131,108168,1,8,0:0:0:0:
250,131,108262,1,0,0:0:0:0:
212,89,108356,1,8,0:0:0:0:
222,193,108449,1,0,0:0:0:0:
212,89,108543,1,8,0:0:0:0:
212,89,108637,1,8,0:0:0:0:
212,89,108731,1,0,0:0:0:0:
212,89,108824,1,0,0:0:0:0:
212,89,108918,1,8,0:0:0:0:
212,89,109012,1,0,0:0:0:0:
212,89,109106,1,0,0:0:0:0:
212,89,109293,1,8,0:0:0:0:
212,89,109387,1,8,0:0:0:0:
212,89,109481,1,0,0:0:0:0:
191,98,109668,1,8,0:0:0:0:
191,98,109762,1,0,0:0:0:0:
386,263,109856,1,8,0:0:0:0:
182,111,109949,1,0,0:0:0:0:
182,111,110043,1,8,0:0:0:0:
182,111,110137,1,8,0:0:0:0:
182,111,110231,1,0,0:0:0:0:
215,159,110324,1,8,0:0:0:0:
215,159,110418,1,0,0:0:0:0:
215,159,110465,1,0,0:0:0:0:
155,82,110512,1,8,0:0:0:0:
306,105,110606,1,8,0:0:0:0:
306,105,110668,1,0,0:0:0:0:
306,105,110731,1,0,0:0:0:0:
306,105,110793,1,8,0:0:0:0:
177,235,110981,1,4,0:0:0:0:
410,240,111168,1,8,0:0:0:0:
410,240,111262,1,0,0:0:0:0:
288,188,111356,1,8,0:0:0:0:
288,188,111449,1,0,0:0:0:0:
241,173,111543,1,8,0:0:0:0:
241,173,111637,1,0,0:0:0:0:
234,65,111731,1,0,0:0:0:0:
339,107,111824,1,0,0:0:0:0:
241,173,111918,1,8,0:0:0:0:
241,82,112012,1,8,0:0:0:0:
241,173,112106,1,0,0:0:0:0:
241,173,112199,1,8,0:0:0:0:
241,173,112293,1,0,0:0:0:0:
241,173,112387,1,8,0:0:0:0:
208,302,112481,1,4,0:0:0:0:
205,57,112668,1,0,0:0:0:0:
205,57,112762,1,0,0:0:0:0:
208,302,112856,1,12,0:0:0:0:
427,231,113043,1,8,0:0:0:0:
427,231,113137,1,0,0:0:0:0:
265,171,113231,1,0,0:0:0:0:
265,171,113324,1,8,0:0:0:0:
265,171,113418,1,8,0:0:0:0:
265,171,113512,1,0,0:0:0:0:
265,171,113606,1,8,0:0:0:0:
319,355,113699,1,0,0:0:0:0:
166,129,113793,1,8,0:0:0:0:
187,112,113887,1,8,0:0:0:0:
187,112,113981,1,0,0:0:0:0:
187,112,114168,1,8,0:0:0:0:
187,112,114262,1,0,0:0:0:0:
187,112,114356,1,8,0:0:0:0:
192,89,114449,1,0,0:0:0:0:
187,112,114543,1,8,0:0:0:0:
202,73,114637,1,8,0:0:0:0:
202,74,114731,1,8,0:0:0:0:
395,140,114824,1,0,0:0:0:0:
202,74,114918,1,8,0:0:0:0:
202,74,115012,1,8,0:0:0:0:
202,74,115106,1,0,0:0:0:0:
213,115,115293,1,8,0:0:0:0:
213,115,115387,1,8,0:0:0:0:
213,115,115481,1,0,0:0:0:0:
227,56,115574,1,8,0:0:0:0:
227,56,115668,1,0,0:0:0:0:
226,62,115762,1,8,0:0:0:0:
226,62,115856,1,8,0:0:0:0:
226,62,115949,1,0,0:0:0:0:
226,62,116043,1,8,0:0:0:0:
226,62,116137,1,8,0:0:0:0:
226,62,116231,1,0,0:0:0:0:
226,62,116324,1,8,0:0:0:0:
226,62,116418,1,0,0:0:0:0:
181,84,116465,1,0,0:0:0:0:
181,84,116512,1,8,0:0:0:0:
331,123,116606,1,0,0:0:0:0:
331,123,116668,1,0,0:0:0:0:
331,123,116731,1,8,0:0:0:0:
331,123,116793,1,8,0:0:0:0:
330,103,116981,1,4,0:0:0:0:
279,197,117168,1,8,0:0:0:0:
279,197,117262,1,0,0:0:0:0:
334,176,117356,1,8,0:0:0:0:
203,84,117449,1,0,0:0:0:0:
203,84,117543,1,8,0:0:0:0:
149,74,117731,1,0,0:0:0:0:
149,74,117824,1,0,0:0:0:0:
238,146,117918,1,8,0:0:0:0:
185,109,118012,1,8,0:0:0:0:
135,123,118106,1,0,0:0:0:0:
218,137,118199,1,8,0:0:0:0:
218,137,118293,1,0,0:0:0:0:
201,109,118387,1,8,0:0:0:0:
201,109,118481,1,4,0:0:0:0:
164,75,118668,1,8,0:0:0:0:
334,190,118762,1,0,0:0:0:0:
164,75,118856,1,12,0:0:0:0:
164,75,119043,1,0,0:0:0:0:
164,75,119137,1,8,0:0:0:0:
164,75,119231,1,0,0:0:0:0:
164,75,119324,1,0,0:0:0:0:
164,75,119418,1,8,0:0:0:0:
164,75,119512,1,0,0:0:0:0:
164,75,119606,1,8,0:0:0:0:
194,180,119699,1,0,0:0:0:0:
164,75,119793,1,8,0:0:0:0:
228,291,119887,1,8,0:0:0:0:
256,192,119981,12,0,125981,0:0:0:0:
