osu file format v14

[General]
AudioFilename: audio.mp3
AudioLeadIn: 0
PreviewTime: -1
Countdown: 0
SampleSet: Normal
StackLeniency: 0.7
Mode: 0
LetterboxInBreaks: 0
WidescreenStoryboard: 0

[Editor]
Bookmarks: 42673,53340,95507
DistanceSpacing: 0.9
BeatDivisor: 4
GridSize: 4
TimelineZoom: 1.9

[Metadata]
Title:Autumn
TitleUnicode:Autumn
Artist:uselet
ArtistUnicode:uselet
Creator:Kalesy
Version:Leaves
Source:
Tags:
BeatmapID:1844781
BeatmapSetID:882420

[Difficulty]
HPDrainRate:5
CircleSize:3.6
OverallDifficulty:6
ApproachRate:9.3
SliderMultiplier:1.4
SliderTickRate:1

[Events]
//Background and Video events
0,0,"http_%2F%2Fwallpapercave.com%2Fwp%2Fa0jukI6.jpg",0,0
//Break Periods
//Storyboard Layer 0 (Background)
//Storyboard Layer 1 (Fail)
//Storyboard Layer 2 (Pass)
//Storyboard Layer 3 (Foreground)
//Storyboard Layer 4 (Overlay)
//Storyboard Sound Samples

[TimingPoints]
21340.4094190596,333.333333333333,4,1,0,100,1,0
27673,-50,4,1,0,100,0,0

[HitObjects]
180,132,21340,5,0,0:0:0:0:
180,132,21507,1,0,0:0:0:0:
262,80,21757,2,0,L|226:108,1,35
297,216,22007,1,0,0:0:0:0:
161,278,22173,1,0,0:0:0:0:
161,239,22257,1,0,0:0:0:0:
194,258,22340,1,0,0:0:0:0:
169,263,22507,1,0,0:0:0:0:
338,272,22673,6,0,P|401:239|369:164,1,140
425,59,23173,1,0,0:0:0:0:
425,59,23257,1,0,0:0:0:0:
425,59,23340,1,0,0:0:0:0:
281,103,23507,5,0,0:0:0:0:
423,57,23673,1,0,0:0:0:0:
439,93,23757,1,0,0:0:0:0:
434,138,23840,1,0,0:0:0:0:
357,36,24007,5,0,0:0:0:0:
382,105,24091,1,0,0:0:0:0:
379,180,24174,1,0,0:0:0:0:
287,14,24340,5,0,0:0:0:0:
313,118,24424,1,0,0:0:0:0:
320,224,24507,1,0,0:0:0:0:
169,142,24673,5,0,0:0:0:0:
85,323,24840,1,0,0:0:0:0:
85,323,25007,1,0,0:0:0:0:
85,323,25173,2,0,L|185:325,1,70
169,181,25507,5,0,0:0:0:0:
169,142,25591,1,0,0:0:0:0:
202,161,25674,1,0,0:0:0:0:
145,173,25840,5,0,0:0:0:0:
145,173,26007,5,0,0:0:0:0:
192,126,26090,1,0,0:0:0:0:
208,191,26173,1,0,0:0:0:0:
124,128,26340,5,0,0:0:0:0:
124,128,26507,5,0,0:0:0:0:
240,129,26590,1,0,0:0:0:0:
180,228,26673,1,0,0:0:0:0:
106,253,26840,5,0,0:0:0:0:
181,306,27007,1,0,0:0:0:0:
106,253,27173,5,0,0:0:0:0:
185,305,27340,2,0,B|218:315|218:315|260:270,1,70
188,221,27673,2,0,B|252:260|252:260|308:200,1,140
234,77,28007,5,0,0:0:0:0:
234,77,28340,1,0,0:0:0:0:
234,77,28673,1,0,0:0:0:0:
234,186,29007,5,0,0:0:0:0:
179,131,29090,1,0,0:0:0:0:
234,77,29173,1,0,0:0:0:0:
288,131,29257,1,0,0:0:0:0:
236,133,29340,1,0,0:0:0:0:
325,164,29507,5,0,0:0:0:0:
341,266,29590,1,0,0:0:0:0:
279,336,29674,1,0,0:0:0:0:
402,245,29840,5,0,0:0:0:0:
304,220,30007,1,0,0:0:0:0:
228,130,30173,2,0,L|190:196,1,70
124,123,30340,1,0,0:0:0:0:
373,144,30507,5,0,0:0:0:0:
373,158,30590,1,0,0:0:0:0:
381,168,30674,1,0,0:0:0:0:
395,171,30757,1,0,0:0:0:0:
407,164,30840,1,0,0:0:0:0:
418,129,30922,1,0,0:0:0:0:
405,90,31006,1,0,0:0:0:0:
371,65,31089,1,0,0:0:0:0:
329,65,31172,1,0,0:0:0:0:
296,90,31256,1,0,0:0:0:0:
282,127,31340,1,0,0:0:0:0:
240,290,31507,5,0,0:0:0:0:
178,227,31590,1,0,0:0:0:0:
183,144,31673,1,0,0:0:0:0:
113,286,31840,5,0,0:0:0:0:
39,133,32007,5,0,0:0:0:0:
53,50,32090,1,0,0:0:0:0:
141,33,32173,1,0,0:0:0:0:
180,153,32340,1,0,0:0:0:0:
180,153,32507,1,0,0:0:0:0:
293,51,32673,2,0,L|358:105,1,70
255,192,32840,5,0,0:0:0:0:
255,192,32923,1,0,0:0:0:0:
255,192,33007,1,0,0:0:0:0:
449,335,33173,1,0,0:0:0:0:
345,257,33340,5,0,0:0:0:0:
306,297,33423,1,0,0:0:0:0:
263,228,33507,5,0,0:0:0:0:
215,234,33590,1,0,0:0:0:0:
227,153,33674,5,0,0:0:0:0:
187,116,33757,1,0,0:0:0:0:
260,65,33840,5,0,0:0:0:0:
270,11,33923,1,0,0:0:0:0:
354,53,34007,5,0,0:0:0:0:
403,309,34173,6,0,L|331:242,2,70
403,309,34507,1,0,0:0:0:0:
459,188,34673,5,0,0:0:0:0:
459,188,35007,1,0,0:0:0:0:
52,191,35340,6,0,L|126:140,1,70
50,324,35673,5,0,0:0:0:0:
52,191,35840,1,0,0:0:0:0:
185,193,36007,1,0,0:0:0:0:
182,326,36173,1,0,0:0:0:0:
314,328,36340,1,0,0:0:0:0:
51,189,36673,6,0,L|107:144,1,70
452,192,37007,1,0,0:0:0:0:
54,273,37340,5,0,0:0:0:0:
53,167,37507,5,0,0:0:0:0:
119,201,37590,1,0,0:0:0:0:
164,263,37673,1,0,0:0:0:0:
55,274,37840,5,0,0:0:0:0:
58,131,38007,5,0,0:0:0:0:
140,173,38090,1,0,0:0:0:0:
196,251,38173,1,0,0:0:0:0:
55,274,38340,5,0,0:0:0:0:
51,88,38507,5,0,0:0:0:0:
219,105,38673,1,0,0:0:0:0:
243,269,38840,1,0,0:0:0:0:
380,50,39007,6,0,L|455:111,1,70
336,138,39173,5,0,0:0:0:0:
365,184,39257,1,0,0:0:0:0:
236,155,39340,5,0,0:0:0:0:
265,201,39424,1,0,0:0:0:0:
130,164,39507,5,0,0:0:0:0:
159,210,39591,1,0,0:0:0:0:
48,209,39673,6,0,L|50:286,1,70
49,278,39840,1,0,0:0:0:0:
