osu file format v14

[General]
AudioFilename: Blue meteor.mp3
AudioLeadIn: 1500
PreviewTime: 155903
Countdown: 0
SampleSet: None
StackLeniency: 0.7
Mode: 3
LetterboxInBreaks: 0
SpecialStyle: 0
WidescreenStoryboard: 1

[Editor]
DistanceSpacing: 1
BeatDivisor: 4
GridSize: 16
TimelineZoom: 1.5

[Metadata]
Title:Blue Meteor
TitleUnicode:Blue Meteor
Artist:urimu
ArtistUnicode:urimu
Creator:Agka
Version:Moon
Source:
Tags:Fullerene-
BeatmapID:902897
BeatmapSetID:162505

[Difficulty]
HPDrainRate:8.5
CircleSize:7
OverallDifficulty:8
ApproachRate:9
SliderMultiplier:1.4
SliderTickRate:1

[Events]
//Background and Video events
0,0,"blue_meteor_by_djnightmare9-d7d9us4.jpg",0,0
//Break Periods
//Storyboard Layer 0 (Background)
//Storyboard Layer 1 (Fail)
//Storyboard Layer 2 (Pass)
//Storyboard Layer 3 (Foreground)
//Storyboard Sound Samples

[TimingPoints]
3,338.983,4,1,1,50,1,0

[HitObjects]
256,192,3,5,0,0:0:0:70:rc.wav
475,0,2715,128,0,3223:0:0:0:70:blk.wav
402,0,3223,128,0,3732:0:0:0:70:blk.wav
329,0,3732,128,0,5427:0:0:0:70:blk.wav
475,0,5427,128,0,5935:0:0:0:70:blk.wav
402,0,5935,128,0,6444:0:0:0:70:blk.wav
182,0,6444,128,0,8139:0:0:0:70:blk.wav
475,0,8139,128,0,8647:0:0:0:70:blk.wav
402,0,8647,128,0,9156:0:0:0:70:blk.wav
256,0,9156,128,0,10850:0:0:0:70:blk.wav
36,0,10850,128,0,11359:0:0:0:70:blk.wav
109,0,11359,128,0,11867:0:0:0:70:blk.wav
182,0,11867,128,0,12545:0:0:0:70:blk.wav
475,0,12545,128,0,13223:0:0:0:70:blk.wav
402,192,13223,1,0,0:0:0:70:blk.wav
402,0,13562,128,0,14071:0:0:0:70:blk.wav
329,0,14071,128,0,14579:0:0:0:70:blk.wav
182,0,14579,128,0,16274:0:0:0:70:blk.wav
402,0,16274,128,0,16783:0:0:0:70:blk.wav
329,0,16783,128,0,17291:0:0:0:70:blk.wav
109,0,17291,128,0,18986:0:0:0:70:blk.wav
475,0,18986,128,0,19495:0:0:0:70:blk.wav
402,0,19495,128,0,20003:0:0:0:70:blk.wav
182,0,20003,128,0,21698:0:0:0:70:blk.wav
329,0,21698,128,0,22206:0:0:0:70:blk.wav
36,0,22206,128,0,22715:0:0:0:70:blk.wav
256,0,22715,128,0,23393:0:0:0:70:blk.wav
402,0,23393,128,0,24071:0:0:0:70:blk.wav
475,0,24071,128,0,24410:0:0:0:70:blk.wav
182,192,24409,1,0,0:0:0:0:
329,192,24410,1,0,0:0:0:70:crn.wav
36,192,24749,1,8,0:0:0:0:
182,192,24918,1,0,0:0:0:0:
329,192,25088,1,0,0:0:0:0:
36,192,25257,1,0,0:0:0:0:
182,192,25427,1,8,0:0:0:0:
36,192,25596,1,0,0:0:0:0:
329,192,25766,1,0,0:0:0:0:
36,192,26105,1,8,0:0:0:0:
475,192,26274,1,0,0:0:0:0:
402,192,26444,1,0,0:0:0:0:
329,192,26613,1,0,0:0:0:0:
36,192,26783,1,8,0:0:0:0:
109,192,26952,1,0,0:0:0:0:
475,192,27122,1,0,0:0:0:0:
402,192,27291,1,0,0:0:0:0:
182,192,27461,1,8,0:0:0:0:
475,192,27630,1,0,0:0:0:0:
402,192,27800,1,0,0:0:0:0:
36,192,27969,1,0,0:0:0:0:
402,192,28139,1,8,0:0:0:0:
36,192,28308,1,0,0:0:0:0:
475,192,28478,1,0,0:0:0:0:
36,192,28647,1,0,0:0:0:0:
182,192,28817,1,8,0:0:0:0:
36,192,28986,1,0,0:0:0:0:
475,192,29156,1,0,0:0:0:0:
329,192,29325,1,0,0:0:0:0:
182,192,29495,1,8,0:0:0:0:
36,192,29664,1,0,0:0:0:0:
182,192,29834,1,0,0:0:0:0:
36,192,30003,1,0,0:0:0:0:
329,192,30172,1,0,0:0:0:0:
36,192,30342,1,0,0:0:0:0:
475,192,30511,1,0,0:0:0:0:
329,192,30681,1,0,0:0:0:0:
182,192,30850,1,8,0:0:0:0:
36,192,31020,1,0,0:0:0:0:
329,192,31189,1,0,0:0:0:0:
475,192,31359,1,0,0:0:0:0:
36,192,31528,1,8,0:0:0:0:
475,192,31698,1,0,0:0:0:0:
402,192,31867,1,0,0:0:0:0:
182,192,32037,1,0,0:0:0:0:
109,192,32206,1,8,0:0:0:0:
36,192,32376,1,0,0:0:0:0:
402,192,32545,1,8,0:0:0:0:
109,192,32715,1,0,0:0:0:0:
402,192,32884,1,8,0:0:0:0:
475,192,33054,1,0,0:0:0:0:
36,192,33223,1,0,0:0:0:0:
182,192,33393,1,0,0:0:0:0:
329,192,33562,1,8,0:0:0:0:
402,192,33732,1,0,0:0:0:0:
36,192,33901,1,0,0:0:0:0:
475,192,34071,1,0,0:0:0:0:
36,192,34240,1,8,0:0:0:0:
475,192,34410,1,0,0:0:0:0:
402,192,34579,1,0,0:0:0:0:
36,192,34749,1,0,0:0:0:0:
402,192,34918,1,8,0:0:0:0:
329,192,35088,1,0,0:0:0:0:
256,192,35257,1,0,0:0:0:0:
36,192,35596,1,8,0:0:0:0:
182,192,35766,1,0,0:0:0:0:
329,192,35935,1,0,0:0:0:0:
36,192,36105,1,0,0:0:0:0:
182,192,36274,1,8,0:0:0:0:
36,192,36444,1,0,0:0:0:0:
329,192,36613,1,0,0:0:0:0:
36,192,36952,1,8,0:0:0:0:
475,192,37122,1,0,0:0:0:0:
402,192,37291,1,0,0:0:0:0:
329,192,37461,1,0,0:0:0:0:
36,192,37630,1,8,0:0:0:0:
109,192,37800,1,0,0:0:0:0:
475,192,37969,1,0,0:0:0:0:
402,192,38139,1,0,0:0:0:0:
182,192,38308,1,8,0:0:0:0:
475,192,38478,1,0,0:0:0:0:
402,192,38647,1,0,0:0:0:0:
36,192,38817,1,0,0:0:0:0:
402,192,38986,1,8,0:0:0:0:
36,192,39156,1,0,0:0:0:0:
475,192,39325,1,0,0:0:0:0:
36,192,39495,1,0,0:0:0:0:
182,192,39664,1,8,0:0:0:0:
36,192,39834,1,0,0:0:0:0:
475,192,40003,1,0,0:0:0:0:
329,192,40172,1,0,0:0:0:0:
182,192,40342,1,0,0:0:0:0:
36,192,40511,1,0,0:0:0:0:
182,192,40681,1,0,0:0:0:0:
36,192,40850,1,0,0:0:0:0:
329,192,41020,1,0,0:0:0:0:
36,192,41189,1,0,0:0:0:0:
475,192,41359,1,0,0:0:0:0:
329,192,41528,1,0,0:0:0:0:
36,192,41698,1,0,0:0:0:0:
329,192,41867,1,0,0:0:0:0:
182,192,42037,1,0,0:0:0:0:
329,192,42206,1,0,0:0:0:0:
36,192,42376,1,0,0:0:0:0:
329,192,42545,1,0,0:0:0:0:
182,192,42715,1,0,0:0:0:0:
329,192,42884,1,0,0:0:0:0:
36,192,43054,1,0,0:0:0:0:
329,192,43223,1,0,0:0:0:0:
182,192,43393,1,0,0:0:0:0:
329,192,43562,1,0,0:0:0:0:
36,192,43732,1,0,0:0:0:0:
329,192,43901,1,0,0:0:0:0:
182,192,44071,1,0,0:0:0:0:
329,192,44240,1,0,0:0:0:0:
36,192,44410,1,0,0:0:0:0:
329,192,44579,1,0,0:0:0:0:
182,192,44749,1,0,0:0:0:0:
329,192,44918,1,0,0:0:0:0:
36,192,45088,1,0,0:0:0:0:
329,192,45257,1,0,0:0:0:0:
182,192,45427,1,0,0:0:0:0:
329,192,45596,1,0,0:0:0:0:
36,192,45766,1,0,0:0:0:0:
329,192,45935,1,0,0:0:0:0:
256,192,46105,1,0,0:0:0:0:
256,192,46444,1,0,0:0:0:0:
475,192,46783,1,0,0:0:0:0:
329,192,46867,1,0,0:0:0:0:
182,192,46952,1,0,0:0:0:0:
256,0,47122,128,0,47461:0:0:0:0:
182,192,47460,1,0,0:0:0:0:
329,192,47461,1,0,0:0:0:70:crn.wav
402,192,47545,1,0,0:0:0:0:
182,192,47715,1,0,0:0:0:0:
109,192,47800,1,0,0:0:0:70:clp-s.wav
329,192,47969,1,0,0:0:0:0:
402,192,48139,1,2,0:0:0:0:
329,192,48223,1,0,0:0:0:0:
109,192,48393,1,0,0:0:0:0:
182,192,48478,1,0,0:0:0:70:clp-s.wav
329,192,48647,1,0,0:0:0:0:
329,192,48817,1,2,0:0:0:0:
402,192,48901,1,0,0:0:0:0:
182,192,49071,1,0,0:0:0:0:
109,192,49156,1,0,0:0:0:70:clp-s.wav
329,192,49325,1,0,0:0:0:0:
402,192,49495,1,2,0:0:0:0:
329,192,49579,1,0,0:0:0:0:
109,192,49749,1,0,0:0:0:0:
182,192,49834,1,0,0:0:0:70:clp-s.wav
329,192,50003,1,0,0:0:0:0:
329,192,50172,1,2,0:0:0:0:
402,192,50257,1,0,0:0:0:0:
182,192,50427,1,0,0:0:0:0:
109,192,50511,1,0,0:0:0:70:clp-s.wav
329,192,50681,1,2,0:0:0:0:
402,192,50850,1,2,0:0:0:0:
329,192,50935,1,0,0:0:0:0:
109,192,51105,1,0,0:0:0:0:
182,192,51189,1,0,0:0:0:70:clp-s.wav
329,192,51359,1,0,0:0:0:0:
329,192,51528,1,2,0:0:0:0:
402,192,51613,1,0,0:0:0:0:
182,192,51783,1,0,0:0:0:0:
109,192,51867,1,0,0:0:0:70:clp-s.wav
329,192,52037,1,0,0:0:0:0:
402,192,52206,1,2,0:0:0:0:
329,192,52291,1,0,0:0:0:0:
109,192,52461,1,0,0:0:0:0:
182,192,52545,1,0,0:0:0:70:clp-s.wav
329,192,52715,1,2,0:0:0:0:
329,192,52884,1,2,0:0:0:0:
402,192,52969,1,0,0:0:0:0:
182,192,53139,1,0,0:0:0:0:
109,192,53223,1,0,0:0:0:70:clp-s.wav
329,192,53393,1,0,0:0:0:0:
402,192,53562,1,2,0:0:0:0:
329,192,53647,1,0,0:0:0:0:
109,192,53817,1,0,0:0:0:0:
182,192,53901,1,0,0:0:0:70:clp-s.wav
329,192,54071,1,0,0:0:0:0:
329,192,54240,1,2,0:0:0:0:
402,192,54325,1,0,0:0:0:0:
182,192,54495,1,0,0:0:0:0:
109,192,54579,1,0,0:0:0:70:clp-s.wav
329,192,54749,1,0,0:0:0:0:
402,192,54918,1,2,0:0:0:0:
329,192,55003,1,0,0:0:0:0:
109,192,55172,1,0,0:0:0:0:
182,192,55257,1,0,0:0:0:70:clp-s.wav
329,192,55427,1,0,0:0:0:0:
329,192,55596,1,2,0:0:0:0:
402,192,55681,1,0,0:0:0:0:
182,192,55850,1,0,0:0:0:0:
109,192,55935,1,0,0:0:0:70:clp-s.wav
329,192,56105,1,0,0:0:0:0:
402,192,56274,1,2,0:0:0:0:
329,192,56359,1,0,0:0:0:0:
109,192,56528,1,0,0:0:0:0:
182,192,56613,1,0,0:0:0:70:clp-s.wav
329,192,56783,1,0,0:0:0:0:
329,192,56952,1,2,0:0:0:0:
402,192,57037,1,0,0:0:0:0:
182,192,57206,1,0,0:0:0:0:
109,192,57291,1,0,0:0:0:70:clp-s.wav
329,192,57461,1,0,0:0:0:0:
402,192,57630,1,2,0:0:0:0:
329,192,57715,1,0,0:0:0:0:
109,192,57884,1,0,0:0:0:0:
182,192,57969,1,0,0:0:0:70:clp-s.wav
329,192,58139,1,2,0:0:0:0:
402,192,58308,1,2,0:0:0:0:
475,192,58392,1,0,0:0:0:0:
109,192,58562,1,0,0:0:0:0:
36,192,58647,1,0,0:0:0:70:clp-s.wav
182,192,58816,1,0,0:0:0:0:
475,192,58986,1,2,0:0:0:0:
402,192,59070,1,0,0:0:0:0:
36,192,59240,1,0,0:0:0:0:
109,192,59325,1,0,0:0:0:70:clp-s.wav
182,192,59494,1,0,0:0:0:0:
402,192,59664,1,2,0:0:0:0:
475,192,59748,1,0,0:0:0:0:
109,192,59918,1,0,0:0:0:0:
36,192,60002,1,0,0:0:0:70:clp-s.wav
182,192,60172,1,0,0:0:0:0:
475,192,60341,1,2,0:0:0:0:
402,192,60426,1,0,0:0:0:0:
109,192,60596,1,0,0:0:0:0:
182,192,60681,1,0,0:0:0:70:clp-s.wav
329,192,60850,1,0,0:0:0:0:
329,192,61020,1,2,0:0:0:0:
402,192,61105,1,0,0:0:0:0:
182,192,61274,1,0,0:0:0:0:
109,192,61359,1,0,0:0:0:70:clp-s.wav
182,192,61528,1,0,0:0:0:0:
402,192,61698,1,2,0:0:0:0:
329,192,61783,1,0,0:0:0:0:
109,192,61952,1,0,0:0:0:0:
182,192,62037,1,0,0:0:0:70:clp-s.wav
182,192,62206,1,0,0:0:0:0:
402,192,62375,1,2,0:0:0:0:
475,192,62460,1,0,0:0:0:0:
109,192,62630,1,0,0:0:0:0:
36,192,62714,1,0,0:0:0:70:clp-s.wav
182,192,62884,1,0,0:0:0:0:
475,192,63053,1,2,0:0:0:0:
402,192,63138,1,0,0:0:0:0:
36,192,63308,1,0,0:0:0:0:
109,192,63392,1,2,0:0:0:70:clp-s.wav
182,192,63562,1,2,0:0:0:0:
402,192,63731,1,2,0:0:0:0:
475,192,63816,1,0,0:0:0:0:
109,192,63986,1,0,0:0:0:0:
36,192,64070,1,0,0:0:0:70:clp-s.wav
329,192,64240,1,0,0:0:0:0:
475,192,64409,1,2,0:0:0:0:
402,192,64494,1,0,0:0:0:0:
36,192,64664,1,0,0:0:0:0:
109,192,64748,1,0,0:0:0:70:clp-s.wav
182,192,64918,1,0,0:0:0:0:
329,192,65088,1,2,0:0:0:0:
402,192,65172,1,0,0:0:0:0:
182,192,65342,1,0,0:0:0:0:
109,192,65427,1,0,0:0:0:70:clp-s.wav
329,192,65596,1,0,0:0:0:0:
402,192,65766,1,2,0:0:0:0:
329,192,65850,1,0,0:0:0:0:
109,192,66020,1,0,0:0:0:0:
182,192,66105,1,0,0:0:0:70:clp-s.wav
182,192,66274,1,0,0:0:0:0:
402,192,66443,1,2,0:0:0:0:
475,192,66528,1,0,0:0:0:0:
109,192,66697,1,0,0:0:0:0:
36,192,66782,1,0,0:0:0:70:clp-s.wav
329,192,66952,1,0,0:0:0:0:
402,192,67122,1,0,0:0:0:0:
329,192,67206,1,0,0:0:0:0:
109,192,67376,1,0,0:0:0:0:
182,192,67461,1,0,0:0:0:70:clp-s.wav
329,192,67630,1,0,0:0:0:0:
182,192,67799,1,0,0:0:0:0:
329,192,67800,1,2,0:0:0:0:
402,192,67884,1,0,0:0:0:0:
182,192,68054,1,0,0:0:0:0:
109,192,68139,1,2,0:0:0:70:clp-s.wav
256,192,68139,1,0,0:0:0:70:clp-s.wav
329,192,68308,1,0,0:0:0:0:
256,192,68478,1,2,0:0:0:0:
402,192,68478,1,0,0:0:0:0:
329,192,68562,1,0,0:0:0:0:
109,192,68732,1,2,0:0:0:0:
402,192,68732,1,0,0:0:0:0:
182,192,68817,1,2,0:0:0:0:
329,192,68817,1,2,0:0:0:0:
256,192,68986,1,2,0:0:0:0:
182,192,69156,1,0,0:0:0:70:crn.wav
329,192,69156,1,0,0:0:0:70:crn.wav
402,192,69240,1,0,0:0:0:0:
182,192,69410,1,0,0:0:0:0:
109,192,69495,1,0,0:0:0:70:clp-s.wav
475,192,69495,1,0,0:0:0:70:clp-s.wav
329,192,69664,1,0,0:0:0:0:
402,192,69834,1,2,0:0:0:0:
329,192,69918,1,0,0:0:0:0:
109,192,70088,1,0,0:0:0:0:
182,192,70172,1,0,0:0:0:70:clp-s.wav
475,192,70172,1,0,0:0:0:70:clp-s.wav
329,192,70342,1,0,0:0:0:0:
329,192,70511,1,2,0:0:0:0:
402,192,70596,1,0,0:0:0:0:
182,192,70766,1,0,0:0:0:0:
109,192,70850,1,0,0:0:0:70:clp-s.wav
475,192,70850,1,0,0:0:0:70:clp-s.wav
329,192,71020,1,0,0:0:0:0:
402,192,71189,1,2,0:0:0:0:
329,192,71274,1,0,0:0:0:0:
109,192,71444,1,0,0:0:0:0:
182,192,71528,1,0,0:0:0:70:clp-s.wav
475,192,71528,1,0,0:0:0:70:clp-s.wav
329,192,71698,1,0,0:0:0:0:
329,192,71867,1,2,0:0:0:0:
402,192,71952,1,0,0:0:0:0:
182,192,72122,1,0,0:0:0:0:
109,192,72206,1,0,0:0:0:70:clp-s.wav
475,192,72206,1,0,0:0:0:70:clp-s.wav
329,192,72376,1,0,0:0:0:0:
402,192,72545,1,2,0:0:0:0:
329,192,72630,1,0,0:0:0:0:
109,192,72800,1,0,0:0:0:0:
182,192,72884,1,0,0:0:0:70:clp-s.wav
475,192,72884,1,0,0:0:0:70:clp-s.wav
329,192,73054,1,0,0:0:0:0:
329,192,73223,1,2,0:0:0:0:
402,192,73308,1,0,0:0:0:0:
182,192,73478,1,0,0:0:0:0:
109,192,73562,1,0,0:0:0:70:clp-s.wav
475,192,73562,1,0,0:0:0:70:clp-s.wav
329,192,73732,1,0,0:0:0:0:
402,192,73901,1,2,0:0:0:0:
329,192,73986,1,0,0:0:0:0:
109,192,74156,1,0,0:0:0:0:
182,192,74240,1,2,0:0:0:70:clp-s.wav
475,192,74240,1,0,0:0:0:70:clp-s.wav
36,192,74409,1,2,0:0:0:0:
256,192,74409,1,0,0:0:0:0:
36,192,74579,1,2,0:0:0:0:
256,192,74579,1,2,0:0:0:0:
402,192,74664,1,0,0:0:0:0:
182,192,74834,1,0,0:0:0:0:
109,192,74918,1,0,0:0:0:70:clp-s.wav
475,192,74918,1,0,0:0:0:70:clp-s.wav
329,192,75088,1,0,0:0:0:0:
402,192,75257,1,2,0:0:0:0:
329,192,75342,1,0,0:0:0:0:
109,192,75511,1,0,0:0:0:0:
182,192,75596,1,0,0:0:0:70:clp-s.wav
475,192,75596,1,0,0:0:0:70:clp-s.wav
329,192,75766,1,0,0:0:0:0:
329,192,75935,1,2,0:0:0:0:
402,192,76020,1,0,0:0:0:0:
182,192,76189,1,0,0:0:0:0:
109,192,76274,1,0,0:0:0:70:clp-s.wav
475,192,76274,1,0,0:0:0:70:clp-s.wav
329,192,76444,1,0,0:0:0:0:
402,192,76613,1,2,0:0:0:0:
329,192,76698,1,0,0:0:0:0:
109,192,76867,1,0,0:0:0:0:
182,192,76952,1,0,0:0:0:70:clp-s.wav
475,192,76952,1,0,0:0:0:70:clp-s.wav
329,192,77122,1,0,0:0:0:0:
329,192,77291,1,2,0:0:0:0:
402,192,77376,1,0,0:0:0:0:
182,192,77545,1,0,0:0:0:0:
109,192,77630,1,0,0:0:0:70:clp-s.wav
475,192,77630,1,0,0:0:0:70:clp-s.wav
329,192,77800,1,0,0:0:0:0:
402,192,77969,1,2,0:0:0:0:
329,192,78054,1,0,0:0:0:0:
109,192,78223,1,0,0:0:0:0:
182,192,78308,1,0,0:0:0:70:clp-s.wav
475,192,78308,1,0,0:0:0:70:clp-s.wav
329,192,78478,1,0,0:0:0:0:
329,192,78647,1,2,0:0:0:0:
402,192,78732,1,0,0:0:0:0:
182,192,78901,1,0,0:0:0:0:
109,192,78986,1,0,0:0:0:70:clp-s.wav
475,192,78986,1,0,0:0:0:70:clp-s.wav
329,192,79156,1,0,0:0:0:0:
402,192,79325,1,2,0:0:0:0:
329,192,79410,1,0,0:0:0:0:
109,192,79579,1,0,0:0:0:0:
182,192,79664,1,0,0:0:0:70:clp-s.wav
475,192,79664,1,0,0:0:0:70:clp-s.wav
36,192,79833,1,2,0:0:0:0:
109,192,79833,1,0,0:0:0:0:
36,192,80002,1,2,0:0:0:0:
109,192,80002,1,2,0:0:0:0:
402,192,80088,1,0,0:0:0:0:
109,192,80257,1,0,0:0:0:0:
36,192,80341,1,0,0:0:0:70:clp-s.wav
475,192,80342,1,0,0:0:0:70:clp-s.wav
329,192,80511,1,0,0:0:0:0:
402,192,80681,1,2,0:0:0:0:
329,192,80766,1,0,0:0:0:0:
36,192,80935,1,0,0:0:0:0:
109,192,81019,1,0,0:0:0:70:clp-s.wav
475,192,81020,1,0,0:0:0:70:clp-s.wav
329,192,81189,1,0,0:0:0:0:
329,192,81359,1,2,0:0:0:0:
402,192,81444,1,0,0:0:0:0:
182,192,81613,1,0,0:0:0:0:
109,192,81698,1,0,0:0:0:70:clp-s.wav
475,192,81698,1,0,0:0:0:70:clp-s.wav
329,192,81867,1,0,0:0:0:0:
402,192,82037,1,2,0:0:0:0:
329,192,82122,1,0,0:0:0:0:
36,192,82291,1,0,0:0:0:0:
109,192,82375,1,0,0:0:0:70:clp-s.wav
475,192,82376,1,0,0:0:0:70:clp-s.wav
329,192,82545,1,0,0:0:0:0:
329,192,82715,1,2,0:0:0:0:
402,192,82800,1,0,0:0:0:0:
182,192,82969,1,0,0:0:0:0:
109,192,83054,1,0,0:0:0:70:clp-s.wav
475,192,83054,1,0,0:0:0:70:clp-s.wav
329,192,83223,1,0,0:0:0:0:
402,192,83393,1,2,0:0:0:0:
329,192,83478,1,0,0:0:0:0:
109,192,83647,1,0,0:0:0:0:
182,192,83732,1,0,0:0:0:70:clp-s.wav
475,192,83732,1,0,0:0:0:70:clp-s.wav
329,192,83901,1,0,0:0:0:0:
329,192,84071,1,2,0:0:0:0:clp-s.wav
402,192,84156,1,0,0:0:0:0:
182,192,84325,1,0,0:0:0:0:
109,192,84410,1,0,0:0:0:70:clp-s.wav
475,192,84410,1,0,0:0:0:70:clp-s.wav
329,192,84579,1,0,0:0:0:0:
402,192,84749,1,2,0:0:0:0:
329,192,84834,1,0,0:0:0:0:
329,192,85002,1,0,0:0:0:0:
182,192,85087,1,2,0:0:0:70:clp-s.wav
475,192,85088,1,0,0:0:0:70:clp-s.wav
36,192,85257,1,2,0:0:0:0:
109,192,85257,1,0,0:0:0:0:
36,192,85426,1,2,0:0:0:0:
109,192,85426,1,2,0:0:0:0:
402,192,85511,1,0,0:0:0:0:
182,192,85681,1,0,0:0:0:0:
109,192,85766,1,0,0:0:0:70:clp-s.wav
475,192,85766,1,0,0:0:0:70:clp-s.wav
329,192,85935,1,0,0:0:0:0:
402,192,86105,1,2,0:0:0:0:
329,192,86189,1,0,0:0:0:0:
109,192,86359,1,0,0:0:0:0:
182,192,86444,1,0,0:0:0:70:clp-s.wav
475,192,86444,1,0,0:0:0:70:clp-s.wav
329,192,86613,1,0,0:0:0:0:
329,192,86783,1,2,0:0:0:0:
402,192,86867,1,0,0:0:0:0:
182,192,87037,1,0,0:0:0:0:
109,192,87122,1,0,0:0:0:70:clp-s.wav
475,192,87122,1,0,0:0:0:70:clp-s.wav
329,192,87291,1,0,0:0:0:0:
402,192,87461,1,2,0:0:0:0:
329,192,87545,1,0,0:0:0:0:
109,192,87715,1,0,0:0:0:0:
182,192,87800,1,0,0:0:0:70:clp-s.wav
475,192,87800,1,0,0:0:0:70:clp-s.wav
329,192,87969,1,0,0:0:0:0:
329,192,88139,1,2,0:0:0:0:
402,192,88223,1,0,0:0:0:0:
182,192,88393,1,0,0:0:0:0:
109,192,88478,1,8,0:0:0:0:
329,192,88647,1,0,0:0:0:0:
402,192,88817,1,0,0:0:0:0:
329,192,88901,1,0,0:0:0:0:
109,192,89071,1,0,0:0:0:0:
182,192,89156,1,8,0:0:0:0:
329,192,89325,1,0,0:0:0:0:
109,192,89495,1,2,0:0:0:0:
329,192,89495,1,2,0:0:0:0:
402,192,89579,1,0,0:0:0:0:
182,192,89749,1,0,0:0:0:0:
109,192,89834,1,10,0:0:0:0:clp-s.wav
475,192,89834,1,10,0:0:0:0:clp-s.wav
329,192,90003,1,0,0:0:0:0:
256,192,90172,1,2,0:0:0:0:
402,192,90172,1,2,0:0:0:0:
329,192,90257,1,8,0:0:0:0:
109,192,90427,1,8,0:0:0:0:
182,192,90511,1,0,0:0:0:0:
475,0,90511,128,0,90850:0:0:0:0:
402,192,90850,1,0,0:0:0:70:crx.wav
109,192,90850,1,0,0:0:0:0:
329,192,90935,1,0,0:0:0:0:
182,192,91020,1,0,0:0:0:0:
36,192,91105,1,0,0:0:0:0:
402,192,91189,1,8,0:0:0:0:
182,192,91274,1,0,0:0:0:0:
329,192,91359,1,0,0:0:0:0:
36,192,91444,1,0,0:0:0:0:
475,192,91528,1,2,0:0:0:0:
36,192,91613,1,0,0:0:0:0:
182,192,91698,1,0,0:0:0:0:
475,192,91783,1,0,0:0:0:0:
36,192,91867,1,8,0:0:0:0:
402,192,91952,1,0,0:0:0:0:
182,192,92037,1,0,0:0:0:0:
36,192,92122,1,0,0:0:0:0:
475,192,92206,1,2,0:0:0:0:
36,192,92291,1,0,0:0:0:0:
182,192,92376,1,0,0:0:0:0:
402,192,92461,1,0,0:0:0:0:
36,192,92545,1,8,0:0:0:0:
182,192,92630,1,0,0:0:0:0:
329,192,92715,1,0,0:0:0:0:
36,192,92800,1,0,0:0:0:0:
182,192,92884,1,2,0:0:0:0:
402,192,92969,1,0,0:0:0:0:
36,192,93054,1,0,0:0:0:0:
109,192,93139,1,0,0:0:0:0:
329,192,93223,1,8,0:0:0:0:
36,192,93308,1,0,0:0:0:0:
109,192,93393,1,0,0:0:0:0:
182,192,93478,1,0,0:0:0:0:
402,192,93562,1,2,0:0:0:0:
329,192,93647,1,0,0:0:0:0:
182,192,93732,1,0,0:0:0:0:
36,192,93817,1,0,0:0:0:0:
402,192,93901,1,8,0:0:0:0:
182,192,93986,1,0,0:0:0:0:
329,192,94071,1,0,0:0:0:0:
36,192,94156,1,0,0:0:0:0:
475,192,94240,1,2,0:0:0:0:
36,192,94325,1,0,0:0:0:0:
182,192,94410,1,0,0:0:0:0:
475,192,94495,1,0,0:0:0:0:
36,192,94579,1,8,0:0:0:0:
402,192,94664,1,0,0:0:0:0:
182,192,94749,1,0,0:0:0:0:
36,192,94834,1,0,0:0:0:0:
475,192,94918,1,2,0:0:0:0:
36,192,95003,1,0,0:0:0:0:
182,192,95088,1,0,0:0:0:0:
402,192,95172,1,0,0:0:0:0:
36,192,95257,1,8,0:0:0:0:
182,192,95342,1,0,0:0:0:0:
329,192,95427,1,0,0:0:0:0:
36,192,95511,1,0,0:0:0:0:
182,192,95596,1,2,0:0:0:0:
402,192,95681,1,0,0:0:0:0:
36,192,95766,1,0,0:0:0:0:
109,192,95850,1,0,0:0:0:0:
329,192,95935,1,10,0:0:0:0:
36,192,96020,1,0,0:0:0:0:
109,192,96105,1,2,0:0:0:0:
182,192,96189,1,0,0:0:0:0:
402,192,96274,1,2,0:0:0:0:
329,192,96359,1,0,0:0:0:0:
182,192,96444,1,0,0:0:0:0:
36,192,96528,1,0,0:0:0:0:
402,192,96613,1,8,0:0:0:0:
182,192,96698,1,0,0:0:0:0:
329,192,96783,1,0,0:0:0:0:
36,192,96867,1,0,0:0:0:0:
475,192,96952,1,2,0:0:0:0:
36,192,97037,1,0,0:0:0:0:
182,192,97122,1,0,0:0:0:0:
475,192,97206,1,0,0:0:0:0:
36,192,97291,1,8,0:0:0:0:
402,192,97376,1,0,0:0:0:0:
182,192,97461,1,0,0:0:0:0:
36,192,97545,1,0,0:0:0:0:
475,192,97630,1,2,0:0:0:0:
36,192,97715,1,0,0:0:0:0:
182,192,97800,1,0,0:0:0:0:
402,192,97884,1,0,0:0:0:0:
36,192,97969,1,8,0:0:0:0:
182,192,98054,1,0,0:0:0:0:
329,192,98139,1,0,0:0:0:0:
36,192,98223,1,0,0:0:0:0:
182,192,98308,1,2,0:0:0:0:
402,192,98393,1,0,0:0:0:0:
36,192,98478,1,0,0:0:0:0:
109,192,98562,1,0,0:0:0:0:
329,192,98647,1,8,0:0:0:0:
36,192,98732,1,0,0:0:0:0:
109,192,98817,1,0,0:0:0:0:
182,192,98901,1,0,0:0:0:0:
402,192,98986,1,2,0:0:0:0:
329,192,99071,1,0,0:0:0:0:
182,192,99156,1,0,0:0:0:0:
36,192,99240,1,0,0:0:0:0:
402,192,99325,1,8,0:0:0:0:
182,192,99410,1,0,0:0:0:0:
329,192,99495,1,0,0:0:0:0:
36,192,99579,1,0,0:0:0:0:
475,192,99664,1,2,0:0:0:0:
36,192,99749,1,0,0:0:0:0:
182,192,99834,1,0,0:0:0:0:
475,192,99918,1,0,0:0:0:0:
36,192,100003,1,8,0:0:0:0:
402,192,100088,1,0,0:0:0:0:
182,192,100172,1,0,0:0:0:0:
36,192,100257,1,0,0:0:0:0:
475,192,100342,1,2,0:0:0:0:
36,192,100427,1,0,0:0:0:0:
182,192,100511,1,0,0:0:0:0:
402,192,100596,1,0,0:0:0:0:
36,192,100681,1,8,0:0:0:0:
182,192,100766,1,0,0:0:0:0:
329,192,100850,1,0,0:0:0:0:
36,192,100935,1,0,0:0:0:0:
182,192,101020,1,2,0:0:0:0:
402,192,101105,1,0,0:0:0:0:
36,192,101189,1,0,0:0:0:0:
109,192,101274,1,0,0:0:0:0:
329,192,101359,1,10,0:0:0:0:
36,192,101444,1,0,0:0:0:0:
109,192,101528,1,2,0:0:0:0:
182,192,101613,1,0,0:0:0:0:
402,192,101698,1,2,0:0:0:0:
329,192,101783,1,0,0:0:0:0:
182,192,101867,1,0,0:0:0:0:
36,192,101952,1,0,0:0:0:0:
402,192,102037,1,8,0:0:0:0:
182,192,102122,1,0,0:0:0:0:
329,192,102206,1,0,0:0:0:0:
36,192,102291,1,0,0:0:0:0:
475,192,102376,1,2,0:0:0:0:
36,192,102461,1,0,0:0:0:0:
182,192,102545,1,0,0:0:0:0:
475,192,102630,1,0,0:0:0:0:
36,192,102715,1,8,0:0:0:0:
402,192,102800,1,0,0:0:0:0:
182,192,102884,1,0,0:0:0:0:
36,192,102969,1,0,0:0:0:0:
475,192,103054,1,2,0:0:0:0:
36,192,103139,1,0,0:0:0:0:
182,192,103223,1,0,0:0:0:0:
402,192,103308,1,0,0:0:0:0:
36,192,103393,1,8,0:0:0:0:
182,192,103478,1,0,0:0:0:0:
329,192,103562,1,0,0:0:0:0:
36,192,103647,1,0,0:0:0:0:
182,192,103732,1,2,0:0:0:0:
402,192,103817,1,0,0:0:0:0:
36,192,103901,1,0,0:0:0:0:
109,192,103986,1,0,0:0:0:0:
329,192,104071,1,10,0:0:0:0:
36,192,104156,1,0,0:0:0:0:
109,192,104240,1,2,0:0:0:0:
182,192,104325,1,0,0:0:0:0:
402,192,104410,1,2,0:0:0:0:
329,192,104495,1,0,0:0:0:0:
182,192,104579,1,0,0:0:0:0:
36,192,104664,1,0,0:0:0:0:
402,192,104749,1,8,0:0:0:0:
182,192,104834,1,0,0:0:0:0:
329,192,104918,1,0,0:0:0:0:
36,192,105003,1,0,0:0:0:0:
475,192,105088,1,2,0:0:0:0:
36,192,105172,1,0,0:0:0:0:
182,192,105257,1,0,0:0:0:0:
475,192,105342,1,0,0:0:0:0:
36,192,105427,1,8,0:0:0:0:
402,192,105511,1,0,0:0:0:0:
182,192,105596,1,0,0:0:0:0:
36,192,105681,1,0,0:0:0:0:
475,192,105766,1,2,0:0:0:0:
36,192,105850,1,0,0:0:0:0:
182,192,105935,1,0,0:0:0:0:
402,192,106020,1,0,0:0:0:0:
36,192,106105,1,8,0:0:0:0:
182,192,106189,1,0,0:0:0:0:
329,192,106274,1,0,0:0:0:0:
36,192,106359,1,0,0:0:0:0:
182,192,106444,1,2,0:0:0:0:
402,192,106528,1,0,0:0:0:0:
36,192,106613,1,0,0:0:0:0:
109,192,106698,1,0,0:0:0:0:
329,192,106783,1,10,0:0:0:0:
36,192,106867,1,0,0:0:0:0:
109,192,106952,1,2,0:0:0:0:
182,192,107037,1,0,0:0:0:0:
402,192,107122,1,2,0:0:0:0:
329,192,107206,1,0,0:0:0:0:
182,192,107291,1,0,0:0:0:0:
36,192,107376,1,0,0:0:0:0:
402,192,107461,1,8,0:0:0:0:
182,192,107545,1,0,0:0:0:0:
329,192,107630,1,0,0:0:0:0:
36,192,107715,1,0,0:0:0:0:
475,192,107800,1,2,0:0:0:0:
36,192,107884,1,0,0:0:0:0:
182,192,107969,1,0,0:0:0:0:
475,192,108054,1,0,0:0:0:0:
36,192,108139,1,8,0:0:0:0:
402,192,108223,1,0,0:0:0:0:
182,192,108308,1,0,0:0:0:0:
36,192,108393,1,0,0:0:0:0:
475,192,108478,1,2,0:0:0:0:
36,192,108562,1,0,0:0:0:0:
182,192,108647,1,0,0:0:0:0:
402,192,108732,1,0,0:0:0:0:
36,192,108817,1,8,0:0:0:0:
182,192,108901,1,0,0:0:0:0:
329,192,108986,1,0,0:0:0:0:
36,192,109071,1,0,0:0:0:0:
182,192,109156,1,0,0:0:0:0:
402,192,109240,1,0,0:0:0:0:
36,192,109325,1,0,0:0:0:0:
109,192,109410,1,0,0:0:0:0:
329,192,109495,1,0,0:0:0:0:
36,192,109579,1,0,0:0:0:0:
109,192,109664,1,0,0:0:0:0:
182,192,109749,1,0,0:0:0:0:
402,192,109834,1,0,0:0:0:0:
329,192,109918,1,0,0:0:0:0:
182,192,110003,1,0,0:0:0:0:
36,192,110088,1,0,0:0:0:0:
402,192,110172,1,0,0:0:0:0:
182,192,110257,1,0,0:0:0:0:
329,192,110342,1,0,0:0:0:0:
36,192,110427,1,0,0:0:0:0:
475,192,110511,1,0,0:0:0:0:
36,192,110596,1,0,0:0:0:0:
182,192,110681,1,0,0:0:0:0:
475,192,110766,1,0,0:0:0:0:
36,192,110850,1,0,0:0:0:0:
402,192,110935,1,0,0:0:0:0:
182,192,111020,1,0,0:0:0:0:
36,192,111105,1,0,0:0:0:0:
475,192,111189,1,0,0:0:0:70:blk.wav
36,192,111274,1,0,0:0:0:0:
182,192,111359,1,0,0:0:0:0:
402,192,111444,1,0,0:0:0:0:
36,192,111528,1,0,0:0:0:0:
182,192,111613,1,0,0:0:0:0:
329,192,111698,1,0,0:0:0:0:
36,192,111783,1,0,0:0:0:0:
182,192,111867,1,0,0:0:0:0:
402,192,111952,1,0,0:0:0:0:
36,192,112037,1,0,0:0:0:0:
109,192,112122,1,0,0:0:0:0:
329,192,112206,1,8,0:0:0:0:
36,192,112291,1,8,0:0:0:0:
109,192,112376,1,8,0:0:0:0:
182,192,112461,1,8,0:0:0:0:
36,192,112545,1,0,0:0:0:70:crx.wav
402,192,112545,1,0,0:0:0:70:crx.wav
329,192,112630,1,0,0:0:0:0:
182,192,112715,1,0,0:0:0:0:
36,192,112800,1,0,0:0:0:0:
256,192,112884,1,8,0:0:0:0:
402,192,112884,1,8,0:0:0:0:
182,192,112969,1,0,0:0:0:0:
329,192,113054,1,0,0:0:0:0:
36,192,113139,1,0,0:0:0:0:
475,192,113223,1,0,0:0:0:0:
36,192,113308,1,0,0:0:0:0:
182,192,113393,1,0,0:0:0:0:
475,192,113478,1,0,0:0:0:0:
36,192,113562,1,8,0:0:0:0:
256,192,113562,1,8,0:0:0:0:
402,192,113647,1,0,0:0:0:0:
182,192,113732,1,0,0:0:0:0:
36,192,113817,1,0,0:0:0:0:
475,192,113901,1,0,0:0:0:0:
36,192,113986,1,0,0:0:0:0:
182,192,114071,1,0,0:0:0:0:
402,192,114156,1,0,0:0:0:0:
36,192,114240,1,8,0:0:0:0:
256,192,114240,1,8,0:0:0:0:
182,192,114325,1,0,0:0:0:0:
329,192,114410,1,0,0:0:0:0:
36,192,114495,1,0,0:0:0:0:
182,192,114579,1,0,0:0:0:0:
402,192,114664,1,0,0:0:0:0:
36,192,114749,1,0,0:0:0:0:
109,192,114834,1,0,0:0:0:0:
256,192,114918,1,8,0:0:0:0:
329,192,114918,1,8,0:0:0:0:
36,192,115003,1,0,0:0:0:0:
109,192,115088,1,0,0:0:0:0:
182,192,115172,1,0,0:0:0:0:
402,192,115257,1,0,0:0:0:0:
329,192,115342,1,0,0:0:0:0:
182,192,115427,1,0,0:0:0:0:
36,192,115511,1,0,0:0:0:0:
256,192,115596,1,8,0:0:0:0:
402,192,115596,1,8,0:0:0:0:
182,192,115681,1,0,0:0:0:0:
329,192,115766,1,0,0:0:0:0:
36,192,115850,1,0,0:0:0:0:
475,192,115935,1,0,0:0:0:0:
36,192,116020,1,0,0:0:0:0:
182,192,116105,1,0,0:0:0:0:
475,192,116189,1,0,0:0:0:0:
36,192,116274,1,8,0:0:0:0:
256,192,116274,1,8,0:0:0:0:
402,192,116359,1,0,0:0:0:0:
182,192,116444,1,0,0:0:0:0:
36,192,116528,1,0,0:0:0:0:
475,192,116613,1,0,0:0:0:0:
36,192,116698,1,0,0:0:0:0:
182,192,116783,1,0,0:0:0:0:
402,192,116867,1,0,0:0:0:0:
36,192,116952,1,8,0:0:0:0:
256,192,116952,1,8,0:0:0:0:
182,192,117037,1,0,0:0:0:0:
329,192,117122,1,0,0:0:0:0:
36,192,117206,1,0,0:0:0:0:
182,192,117291,1,0,0:0:0:0:
402,192,117376,1,0,0:0:0:0:
36,192,117461,1,0,0:0:0:0:
109,192,117545,1,0,0:0:0:0:
256,192,117630,1,8,0:0:0:0:
329,192,117630,1,8,0:0:0:0:
36,192,117715,1,0,0:0:0:0:
109,192,117800,1,0,0:0:0:0:
256,192,117800,1,0,0:0:0:0:
182,192,117884,1,0,0:0:0:0:
256,192,117969,1,0,0:0:0:0:
402,192,117969,1,0,0:0:0:0:
329,192,118054,1,0,0:0:0:0:
182,192,118139,1,0,0:0:0:0:
36,192,118223,1,0,0:0:0:0:
256,192,118308,1,8,0:0:0:0:
402,192,118308,1,8,0:0:0:0:
182,192,118393,1,0,0:0:0:0:
329,192,118478,1,0,0:0:0:0:
36,192,118562,1,0,0:0:0:0:
475,192,118647,1,0,0:0:0:0:
36,192,118732,1,0,0:0:0:0:
182,192,118817,1,0,0:0:0:0:
475,192,118901,1,0,0:0:0:0:
36,192,118986,1,8,0:0:0:0:
256,192,118986,1,8,0:0:0:0:
402,192,119071,1,0,0:0:0:0:
182,192,119156,1,0,0:0:0:0:
36,192,119240,1,0,0:0:0:0:
475,192,119325,1,0,0:0:0:0:
36,192,119410,1,0,0:0:0:0:
182,192,119495,1,0,0:0:0:0:
402,192,119579,1,0,0:0:0:0:
36,192,119664,1,8,0:0:0:0:
256,192,119664,1,8,0:0:0:0:
182,192,119749,1,0,0:0:0:0:
329,192,119834,1,0,0:0:0:0:
36,192,119918,1,0,0:0:0:0:
182,192,120003,1,0,0:0:0:0:
402,192,120088,1,0,0:0:0:0:
36,192,120172,1,0,0:0:0:0:
109,192,120257,1,0,0:0:0:0:
256,192,120342,1,8,0:0:0:0:
329,192,120342,1,8,0:0:0:0:
36,192,120427,1,0,0:0:0:0:
109,192,120511,1,0,0:0:0:0:
182,192,120596,1,0,0:0:0:0:
402,192,120681,1,0,0:0:0:0:
329,192,120766,1,0,0:0:0:0:
182,192,120850,1,0,0:0:0:0:
36,192,120935,1,0,0:0:0:0:
256,192,121020,1,8,0:0:0:0:
402,192,121020,1,8,0:0:0:0:
182,192,121105,1,0,0:0:0:0:
329,192,121189,1,0,0:0:0:0:
36,192,121274,1,0,0:0:0:0:
475,192,121359,1,0,0:0:0:0:
36,192,121444,1,0,0:0:0:0:
182,192,121528,1,0,0:0:0:0:
475,192,121613,1,0,0:0:0:0:
36,192,121698,1,8,0:0:0:0:
256,192,121698,1,8,0:0:0:0:
402,192,121783,1,0,0:0:0:0:
182,192,121867,1,0,0:0:0:0:
36,192,121952,1,0,0:0:0:0:
475,192,122037,1,0,0:0:0:0:
36,192,122122,1,0,0:0:0:0:
182,192,122206,1,0,0:0:0:0:
402,192,122291,1,0,0:0:0:0:
36,192,122376,1,8,0:0:0:0:
256,192,122376,1,8,0:0:0:0:
182,192,122461,1,0,0:0:0:0:
329,192,122545,1,0,0:0:0:0:
36,192,122630,1,0,0:0:0:0:
182,192,122715,1,0,0:0:0:0:
402,192,122800,1,0,0:0:0:0:
36,192,122884,1,0,0:0:0:0:
109,192,122969,1,0,0:0:0:0:
256,192,123054,1,8,0:0:0:0:
329,192,123054,1,8,0:0:0:0:
36,192,123139,1,0,0:0:0:0:
109,192,123223,1,0,0:0:0:0:
256,192,123223,1,0,0:0:0:0:
182,192,123308,1,0,0:0:0:0:
36,192,123393,1,0,0:0:0:0:
256,192,123393,1,0,0:0:0:0:
402,192,123393,1,0,0:0:0:0:
329,192,123478,1,0,0:0:0:0:
182,192,123562,1,0,0:0:0:0:
36,192,123647,1,0,0:0:0:0:
256,192,123732,1,8,0:0:0:0:
402,192,123732,1,8,0:0:0:0:
182,192,123817,1,0,0:0:0:0:
329,192,123901,1,0,0:0:0:0:
36,192,123986,1,0,0:0:0:0:
475,192,124071,1,0,0:0:0:0:
36,192,124156,1,0,0:0:0:0:
182,192,124240,1,0,0:0:0:0:
475,192,124325,1,0,0:0:0:0:
36,192,124410,1,8,0:0:0:0:
256,192,124410,1,8,0:0:0:0:
402,192,124495,1,0,0:0:0:0:
182,192,124579,1,0,0:0:0:0:
36,192,124664,1,0,0:0:0:0:
475,192,124749,1,0,0:0:0:0:
36,192,124834,1,0,0:0:0:0:
182,192,124918,1,0,0:0:0:0:
402,192,125003,1,0,0:0:0:0:
36,192,125088,1,8,0:0:0:0:
256,192,125088,1,8,0:0:0:0:
182,192,125172,1,0,0:0:0:0:
329,192,125257,1,0,0:0:0:0:
36,192,125342,1,0,0:0:0:0:
182,192,125427,1,0,0:0:0:0:
402,192,125511,1,0,0:0:0:0:
36,192,125596,1,0,0:0:0:0:
109,192,125681,1,0,0:0:0:0:
256,192,125766,1,8,0:0:0:0:
329,192,125766,1,8,0:0:0:0:
36,192,125850,1,0,0:0:0:0:
109,192,125935,1,0,0:0:0:0:
182,192,126020,1,0,0:0:0:0:
402,192,126105,1,0,0:0:0:0:
329,192,126189,1,0,0:0:0:0:
182,192,126274,1,0,0:0:0:0:
36,192,126359,1,0,0:0:0:0:
256,192,126444,1,8,0:0:0:0:
402,192,126444,1,8,0:0:0:0:
182,192,126528,1,0,0:0:0:0:
329,192,126613,1,0,0:0:0:0:
36,192,126698,1,0,0:0:0:0:
475,192,126783,1,0,0:0:0:0:
36,192,126867,1,0,0:0:0:0:
182,192,126952,1,0,0:0:0:0:
475,192,127037,1,0,0:0:0:0:
36,192,127122,1,8,0:0:0:0:
256,192,127122,1,8,0:0:0:0:
402,192,127206,1,0,0:0:0:0:
182,192,127291,1,0,0:0:0:0:
36,192,127376,1,0,0:0:0:0:
475,192,127461,1,0,0:0:0:0:
36,192,127545,1,0,0:0:0:0:
182,192,127630,1,0,0:0:0:0:
402,192,127715,1,0,0:0:0:0:
36,192,127800,1,8,0:0:0:0:
256,192,127800,1,8,0:0:0:0:
182,192,127884,1,0,0:0:0:0:
329,192,127969,1,0,0:0:0:0:
36,192,128054,1,0,0:0:0:0:
182,192,128139,1,0,0:0:0:0:
402,192,128223,1,0,0:0:0:0:
36,192,128308,1,0,0:0:0:0:
109,192,128393,1,0,0:0:0:0:
256,192,128478,1,8,0:0:0:0:
329,192,128478,1,8,0:0:0:0:
36,192,128562,1,0,0:0:0:0:
109,192,128647,1,0,0:0:0:0:
256,192,128647,1,0,0:0:0:0:
182,192,128732,1,0,0:0:0:0:
36,192,128817,1,0,0:0:0:0:
256,192,128817,1,0,0:0:0:0:
402,192,128817,1,0,0:0:0:0:
329,192,128901,1,0,0:0:0:0:
182,192,128986,1,0,0:0:0:0:
36,192,129071,1,0,0:0:0:0:
256,192,129156,1,8,0:0:0:0:
402,192,129156,1,8,0:0:0:0:
182,192,129240,1,0,0:0:0:0:
329,192,129325,1,0,0:0:0:0:
36,192,129410,1,0,0:0:0:0:
475,192,129495,1,0,0:0:0:0:
36,192,129579,1,0,0:0:0:0:
182,192,129664,1,0,0:0:0:0:
475,192,129749,1,0,0:0:0:0:
36,192,129834,1,8,0:0:0:0:
256,192,129834,1,8,0:0:0:0:
402,192,129918,1,0,0:0:0:0:
182,192,130003,1,0,0:0:0:0:
36,192,130088,1,0,0:0:0:0:
475,192,130172,1,0,0:0:0:0:
36,192,130257,1,0,0:0:0:0:
182,192,130342,1,0,0:0:0:0:
402,192,130427,1,0,0:0:0:0:
36,192,130511,1,8,0:0:0:0:
256,192,130511,1,8,0:0:0:0:
182,192,130596,1,0,0:0:0:0:
329,192,130681,1,0,0:0:0:0:
36,192,130766,1,0,0:0:0:0:
182,192,130850,1,0,0:0:0:0:
402,192,130935,1,0,0:0:0:0:
36,192,131020,1,0,0:0:0:0:
109,192,131105,1,0,0:0:0:0:
256,192,131189,1,8,0:0:0:0:
329,192,131189,1,8,0:0:0:0:
36,192,131274,1,0,0:0:0:0:
109,192,131359,1,0,0:0:0:0:
182,192,131444,1,0,0:0:0:0:
402,192,131528,1,0,0:0:0:0:
329,192,131613,1,0,0:0:0:0:
182,192,131698,1,0,0:0:0:0:
36,192,131783,1,0,0:0:0:0:
402,192,131867,1,0,0:0:0:0:
182,192,131952,1,0,0:0:0:0:
329,192,132037,1,0,0:0:0:0:
36,192,132122,1,0,0:0:0:0:
475,192,132206,1,0,0:0:0:0:
36,192,132291,1,0,0:0:0:0:
182,192,132376,1,0,0:0:0:0:
475,192,132461,1,0,0:0:0:0:
36,192,132545,1,0,0:0:0:0:
402,192,132630,1,0,0:0:0:0:
182,192,132715,1,0,0:0:0:0:
36,192,132800,1,0,0:0:0:0:
475,192,132884,1,2,0:0:0:0:
36,192,132969,1,0,0:0:0:0:
182,192,133054,1,0,0:0:0:0:
402,192,133139,1,0,0:0:0:0:
256,192,133223,1,0,0:0:0:0:
182,192,133308,1,0,0:0:0:0:
329,192,133393,1,0,0:0:0:0:
36,192,133478,1,0,0:0:0:0:
182,192,133562,1,0,0:0:0:0:
402,192,133647,1,0,0:0:0:0:
36,192,133732,1,0,0:0:0:0:
109,192,133817,1,0,0:0:0:0:
256,192,133901,1,8,0:0:0:0:
329,192,133901,1,8,0:0:0:0:
36,192,133986,1,8,0:0:0:0:
109,192,134071,1,8,0:0:0:0:
182,192,134156,1,8,0:0:0:0:
36,0,134240,128,0,136952:0:0:0:70:crx.wav
475,0,134240,128,0,136952:0:0:0:70:crx.wav
109,0,136952,128,0,139664:0:0:0:0:
402,0,136952,128,0,139664:0:0:0:0:
182,0,139664,128,0,142376:0:0:0:0:
329,0,139664,128,0,142376:0:0:0:0:
256,0,142376,128,0,145088:0:0:0:0:
475,0,145088,128,0,145596:0:0:0:0:
36,0,145088,128,0,147800:0:0:0:0:
402,0,145596,128,0,146105:0:0:0:0:
329,0,146105,128,0,147800:0:0:0:0:
475,0,147800,128,0,148308:0:0:0:0:
109,0,147800,128,0,150511:0:0:0:0:
402,0,148308,128,0,148817:0:0:0:0:
256,0,148817,128,0,150511:0:0:0:0:
475,0,150511,128,0,151020:0:0:0:0:
182,0,150511,128,0,153223:0:0:0:0:
402,0,151020,128,0,151528:0:0:0:0:
329,0,151528,128,0,153223:0:0:0:0:
36,0,153223,128,0,153901:0:0:0:0:
256,0,153223,128,0,155596:0:0:0:0:
109,0,153901,128,0,154579:0:0:0:0:
402,0,154579,128,0,155596:0:0:0:0:
182,192,155596,1,2,0:0:0:0:
329,192,155596,1,0,0:0:0:0:
36,192,155935,1,2,0:0:0:70:crn.wav
475,192,155935,1,2,0:0:0:0:
329,192,156105,1,0,0:0:0:0:
329,192,156274,1,0,0:0:0:0:
182,192,156444,1,0,0:0:0:0:
329,192,156444,1,0,0:0:0:0:
36,192,156613,1,0,0:0:0:70:ht.wav
475,0,156613,128,0,157122:0:0:0:70:ht.wav
402,192,157122,1,2,0:0:0:0:
36,192,157291,1,0,0:0:0:0:
36,192,157461,1,2,0:0:0:0:
329,192,157461,1,2,0:0:0:0:
109,192,157630,1,0,0:0:0:70:ht.wav
402,192,157630,1,0,0:0:0:70:ht.wav
256,192,157800,1,0,0:0:0:0:
36,192,157969,1,2,0:0:0:0:
36,192,158139,1,2,0:0:0:0:
109,192,158308,1,0,0:0:0:70:ht.wav
402,192,158308,1,0,0:0:0:70:ht.wav
36,192,158647,1,2,0:0:0:0:
475,192,158817,1,0,0:0:0:0:
475,192,158986,1,0,0:0:0:0:
36,192,159156,1,2,0:0:0:0:
475,192,159156,1,2,0:0:0:0:
109,0,159325,128,0,160003:0:0:0:70:ht.wav
402,0,159325,128,0,160003:0:0:0:70:ht.wav
182,192,159834,1,0,0:0:0:0:
329,192,159834,1,0,0:0:0:0:
256,192,160002,1,0,0:0:0:0:
329,192,160172,1,2,0:0:0:0:
182,192,160257,1,2,0:0:0:0:
329,192,160342,1,2,0:0:0:0:
36,192,160511,1,0,0:0:0:70:ht.wav
475,192,160511,1,0,0:0:0:70:ht.wav
182,192,160850,1,2,0:0:0:0:ht.wav
329,192,160850,1,2,0:0:0:0:ht.wav
36,192,161020,1,0,0:0:0:70:ht.wav
475,192,161020,1,0,0:0:0:70:ht.wav
182,192,161359,1,2,0:0:0:0:
329,192,161359,1,2,0:0:0:0:
36,192,161528,1,0,0:0:0:0:
36,192,161698,1,0,0:0:0:0:
36,192,161867,1,2,0:0:0:0:
475,192,161867,1,2,0:0:0:0:
182,0,162037,128,0,162715:0:0:0:70:ht.wav
329,0,162037,128,0,162715:0:0:0:70:ht.wav
256,192,162545,1,2,0:0:0:0:
256,192,162884,1,2,0:0:0:0:
109,192,163054,1,0,0:0:0:70:ht.wav
475,192,163054,1,0,0:0:0:70:ht.wav
329,192,163223,1,2,0:0:0:0:
36,192,163393,1,2,0:0:0:0:
36,192,163562,1,2,0:0:0:0:
109,192,163732,1,0,0:0:0:70:ht.wav
475,192,163732,1,0,0:0:0:70:ht.wav
329,192,163901,1,0,0:0:0:0:
36,192,164071,1,0,0:0:0:0:
182,192,164071,1,0,0:0:0:0:
256,192,164240,1,0,0:0:0:0:
329,192,164410,1,0,0:0:0:0:
36,192,164579,1,2,0:0:0:0:
402,192,164579,1,2,0:0:0:0:
109,192,164749,1,0,0:0:0:70:ht.wav
182,192,164749,1,0,0:0:0:70:ht.wav
256,192,164918,1,0,0:0:0:0:
329,192,165088,1,0,0:0:0:0:
36,192,165257,1,2,0:0:0:0:
402,192,165257,1,2,0:0:0:0:
109,192,165427,1,2,0:0:0:0:
475,192,165596,1,2,0:0:0:0:
182,192,165681,1,2,0:0:0:0:
109,192,165766,1,2,0:0:0:0:
109,192,165935,1,0,0:0:0:70:ht.wav
475,192,165935,1,0,0:0:0:70:ht.wav
256,0,166105,128,0,166783:0:0:0:0:
182,192,166783,1,0,0:0:0:0:
329,192,166783,1,0,0:0:0:0:
36,192,166952,1,0,0:0:0:0:
36,192,167122,1,0,0:0:0:0:
182,192,167291,1,0,0:0:0:0:
329,192,167291,1,0,0:0:0:0:
109,0,167460,128,0,168138:0:0:0:0:
402,0,167460,128,0,168138:0:0:0:0:
182,192,167969,1,2,0:0:0:0:
329,192,167969,1,2,0:0:0:0:
256,192,168138,1,2,0:0:0:0:
36,192,168308,1,0,0:0:0:0:
36,192,168478,1,8,0:0:0:0:
475,192,168478,1,8,0:0:0:0:
36,192,168817,1,0,0:0:0:0:
36,192,168986,1,0,0:0:0:0:
109,192,169156,1,8,0:0:0:0:
475,192,169156,1,8,0:0:0:0:
36,192,169325,1,0,0:0:0:0:
36,192,169495,1,0,0:0:0:0:
475,192,169495,1,0,0:0:0:0:
402,192,169664,1,0,0:0:0:0:
329,192,169834,1,0,0:0:0:0:
36,192,170003,1,2,0:0:0:0:
256,192,170003,1,0,0:0:0:0:
109,192,170172,1,8,0:0:0:0:
475,0,170172,128,0,170850:0:0:0:0:
402,192,170172,1,0,0:0:0:0:
256,192,170342,1,0,0:0:0:0:
182,192,170511,1,0,0:0:0:0:
109,192,170681,1,0,0:0:0:0:
36,192,170850,1,0,0:0:0:0:
329,192,171020,1,0,0:0:0:0:
182,192,171105,1,0,0:0:0:0:
329,192,171189,1,0,0:0:0:0:
36,192,171359,1,8,0:0:0:0:
475,192,171359,1,8,0:0:0:0:
256,192,171698,1,0,0:0:0:0:
36,192,171867,1,8,0:0:0:0:
475,192,171867,1,8,0:0:0:0:
256,192,172037,1,0,0:0:0:0:
36,192,172206,1,0,0:0:0:0:
182,192,172206,1,0,0:0:0:0:
109,192,172376,1,0,0:0:0:0:
402,192,172545,1,0,0:0:0:0:
36,192,172715,1,2,0:0:0:0:
182,192,172715,1,2,0:0:0:0:
109,192,172884,1,8,0:0:0:0:
329,192,172884,1,2,0:0:0:0:
475,0,172884,128,0,173562:0:0:0:0:
256,192,173054,1,0,0:0:0:0:
182,192,173223,1,0,0:0:0:0:
109,192,173393,1,0,0:0:0:0:
36,192,173562,1,0,0:0:0:0:
256,192,173732,1,2,0:0:0:0:
329,192,173732,1,2,0:0:0:0:
182,192,173901,1,8,0:0:0:0:
402,192,173901,1,8,0:0:0:0:
36,192,174071,1,2,0:0:0:0:
36,192,174240,1,2,0:0:0:0:
109,192,174410,1,8,0:0:0:0:
256,192,174410,1,8,0:0:0:0:
36,192,174579,1,2,2:0:0:0:
475,192,174579,1,2,2:0:0:0:
109,192,174749,1,2,0:0:0:0:
36,0,174918,128,0,175257:0:0:0:0:
182,192,175427,1,2,0:0:0:0:
109,192,175596,1,8,0:0:0:0:
475,0,175596,128,0,176274:0:0:0:0:
36,192,176104,1,2,0:0:0:0:
109,192,176274,1,0,0:0:0:0:
182,192,176443,1,2,0:0:0:0:
329,192,176528,1,2,0:0:0:0:
182,192,176613,1,2,0:0:0:0:
402,192,176783,1,0,0:0:0:0:
329,192,176952,1,0,0:0:0:0:
182,192,177037,1,0,0:0:0:0:
36,192,177122,1,0,0:0:0:0:
329,192,177206,1,0,0:0:0:0:
475,0,177291,128,0,177460:0:0:0:0:
329,192,177461,1,0,0:0:0:0:
182,192,177545,1,0,0:0:0:0:
36,192,177630,1,0,0:0:0:0:
475,192,177630,1,0,0:0:0:0:
109,192,177715,1,0,0:0:0:0:
182,192,177800,1,0,0:0:0:0:
256,192,177884,1,0,0:0:0:0:
475,192,177969,1,0,0:0:0:0:
402,192,178054,1,0,0:0:0:0:
329,192,178139,1,0,0:0:0:0:
256,192,178223,1,0,0:0:0:0:
36,192,178308,1,0,0:0:0:0:
109,192,178393,1,0,0:0:0:0:
182,192,178478,1,0,0:0:0:0:
256,192,178562,1,0,0:0:0:0:
475,192,178647,1,0,0:0:0:0:
402,192,178732,1,0,0:0:0:0:
329,192,178817,1,0,0:0:0:0:
256,192,178901,1,0,0:0:0:0:
36,192,178986,1,0,0:0:0:0:
109,192,179071,1,0,0:0:0:0:
182,192,179156,1,0,0:0:0:0:
256,192,179240,1,0,0:0:0:0:
475,192,179325,1,0,0:0:0:0:
402,192,179410,1,0,0:0:0:0:
329,192,179495,1,0,0:0:0:0:
256,192,179579,1,0,0:0:0:0:
36,192,179664,1,0,0:0:0:0:
109,192,179749,1,0,0:0:0:0:
182,192,179834,1,0,0:0:0:0:
256,192,179918,1,0,0:0:0:0:
475,192,180003,1,0,0:0:0:0:
402,192,180088,1,0,0:0:0:0:
329,192,180172,1,0,0:0:0:0:
256,192,180257,1,0,0:0:0:0:
36,192,180342,1,0,0:0:0:0:
109,192,180427,1,0,0:0:0:0:
182,192,180511,1,0,0:0:0:0:
256,192,180596,1,0,0:0:0:0:
475,192,180681,1,0,0:0:0:0:
402,192,180766,1,0,0:0:0:0:
329,192,180850,1,0,0:0:0:0:
256,192,180935,1,0,0:0:0:0:
36,192,181020,1,0,0:0:0:0:
109,192,181105,1,0,0:0:0:0:
182,192,181189,1,0,0:0:0:0:
256,192,181274,1,0,0:0:0:0:
475,192,181359,1,0,0:0:0:0:
402,192,181444,1,0,0:0:0:0:
329,192,181528,1,0,0:0:0:0:
256,192,181613,1,0,0:0:0:0:
36,192,181698,1,0,0:0:0:0:
109,192,181783,1,0,0:0:0:0:
182,192,181867,1,0,0:0:0:0:
256,192,181952,1,0,0:0:0:0:
475,192,182037,1,0,0:0:0:0:
402,192,182122,1,0,0:0:0:0:
329,192,182206,1,0,0:0:0:0:
256,192,182291,1,0,0:0:0:0:
36,192,182376,1,0,0:0:0:0:
109,192,182461,1,0,0:0:0:0:
182,192,182545,1,0,0:0:0:0:
256,192,182630,1,0,0:0:0:0:
475,192,182715,1,0,0:0:0:0:
402,192,182800,1,0,0:0:0:0:
329,192,182884,1,0,0:0:0:0:
256,192,182969,1,0,0:0:0:0:
475,192,183054,1,0,0:0:0:0:
402,192,183139,1,0,0:0:0:0:
329,192,183223,1,0,0:0:0:0:
256,192,183308,1,0,0:0:0:0:
36,192,183393,1,0,0:0:0:0:
109,192,183478,1,0,0:0:0:0:
182,192,183562,1,0,0:0:0:0:
256,192,183647,1,0,0:0:0:0:
475,192,183732,1,0,0:0:0:0:
402,192,183817,1,0,0:0:0:0:
329,192,183901,1,0,0:0:0:0:
256,192,183986,1,0,0:0:0:0:
36,192,184071,1,0,0:0:0:0:
109,192,184156,1,0,0:0:0:0:
182,192,184240,1,0,0:0:0:0:
256,192,184325,1,0,0:0:0:0:
475,192,184410,1,0,0:0:0:0:
402,192,184495,1,0,0:0:0:0:
329,192,184579,1,0,0:0:0:0:
256,192,184664,1,0,0:0:0:0:
36,192,184749,1,0,0:0:0:0:
109,192,184834,1,0,0:0:0:0:
182,192,184918,1,0,0:0:0:0:
256,192,185003,1,0,0:0:0:0:
475,192,185088,1,0,0:0:0:0:
402,192,185172,1,0,0:0:0:0:
329,192,185257,1,0,0:0:0:0:
256,192,185342,1,0,0:0:0:0:
36,192,185427,1,0,0:0:0:0:
109,192,185511,1,0,0:0:0:0:
182,192,185596,1,0,0:0:0:0:
256,192,185681,1,0,0:0:0:0:
475,192,185766,1,0,0:0:0:0:
402,192,185850,1,0,0:0:0:0:
329,192,185935,1,0,0:0:0:0:
256,192,186020,1,0,0:0:0:0:
36,192,186105,1,0,0:0:0:0:
109,192,186189,1,0,0:0:0:0:
182,192,186274,1,0,0:0:0:0:
256,192,186359,1,0,0:0:0:0:
475,192,186444,1,0,0:0:0:0:
402,192,186528,1,0,0:0:0:0:
329,192,186613,1,0,0:0:0:0:
256,192,186698,1,0,0:0:0:0:
36,192,186783,1,0,0:0:0:0:
109,192,186867,1,0,0:0:0:0:
182,192,186952,1,0,0:0:0:0:
256,192,187037,1,0,0:0:0:0:
475,192,187122,1,0,0:0:0:0:
402,192,187206,1,0,0:0:0:0:
329,192,187291,1,0,0:0:0:0:
256,192,187376,1,0,0:0:0:0:
475,192,187460,1,0,0:0:0:0:
402,192,187545,1,0,0:0:0:0:
329,192,187630,1,0,0:0:0:0:
182,192,187714,1,0,0:0:0:0:
475,192,187800,1,0,0:0:0:0:
402,192,187884,1,0,0:0:0:0:
256,192,187969,1,0,0:0:0:0:
182,192,188053,1,0,0:0:0:0:
475,192,188138,1,0,0:0:0:0:
329,192,188223,1,0,0:0:0:0:
256,192,188308,1,0,0:0:0:0:
182,192,188392,1,0,0:0:0:0:
36,192,188478,1,0,0:0:0:0:
475,192,188562,1,0,0:0:0:0:
36,192,188647,1,0,0:0:0:0:
475,192,188732,1,0,0:0:0:0:
402,192,188817,1,0,0:0:0:0:
329,192,188901,1,0,0:0:0:0:
109,192,188986,1,0,0:0:0:0:
36,192,189071,1,0,0:0:0:0:
109,192,189156,1,0,0:0:0:0:
182,192,189240,1,0,0:0:0:0:
329,192,189325,1,0,0:0:0:0:
402,192,189410,1,0,0:0:0:0:
182,192,189495,1,0,0:0:0:0:
329,192,189579,1,0,0:0:0:0:
475,192,189664,1,0,0:0:0:0:
182,192,189749,1,0,0:0:0:0:
256,192,189834,1,0,0:0:0:0:
329,192,189919,1,0,0:0:0:0:
402,192,190002,1,0,0:0:0:0:
475,192,190087,1,0,0:0:0:0:
256,192,190172,1,0,0:0:0:0:
182,192,190258,1,0,0:0:0:0:
109,192,190341,1,0,0:0:0:0:
36,192,190427,1,0,0:0:0:0:
402,192,190511,1,0,0:0:0:0:
329,192,190596,1,0,0:0:0:0:
256,192,190681,1,0,0:0:0:0:
182,192,190766,1,0,0:0:0:0:
329,192,190850,1,0,0:0:0:0:
256,192,190935,1,0,0:0:0:0:
182,192,191020,1,0,0:0:0:0:
109,192,191105,1,0,0:0:0:0:
36,192,191189,1,0,0:0:0:0:
182,192,191274,1,0,0:0:0:0:
329,192,191359,1,0,0:0:0:0:
475,192,191444,1,0,0:0:0:0:
109,192,191528,1,0,0:0:0:0:
182,192,191613,1,0,0:0:0:0:
329,192,191698,1,0,0:0:0:0:
402,192,191783,1,0,0:0:0:0:
36,192,191867,1,0,0:0:0:0:
182,192,191952,1,0,0:0:0:0:
329,192,192037,1,0,0:0:0:0:
475,192,192122,1,0,0:0:0:0:
109,192,192206,1,0,0:0:0:0:
182,192,192291,1,0,0:0:0:0:
329,192,192376,1,0,0:0:0:0:
402,192,192461,1,0,0:0:0:0:
36,192,192545,1,0,0:0:0:0:
182,192,192630,1,0,0:0:0:0:
109,192,192715,1,0,0:0:0:0:
36,192,192800,1,0,0:0:0:0:
475,192,192884,1,0,0:0:0:0:
329,192,192969,1,0,0:0:0:0:
402,192,193054,1,0,0:0:0:0:
475,192,193139,1,0,0:0:0:0:
182,192,193223,1,0,0:0:0:0:
36,192,193308,1,0,0:0:0:0:
109,192,193393,1,0,0:0:0:0:
182,192,193478,1,0,0:0:0:0:
475,192,193562,1,0,0:0:0:0:
329,192,193647,1,0,0:0:0:0:
402,192,193732,1,0,0:0:0:0:
475,192,193817,1,0,0:0:0:0:
36,192,193901,1,0,0:0:0:0:
256,0,193901,128,0,199325:0:0:0:0:
109,192,193986,1,0,0:0:0:0:
182,192,194071,1,0,0:0:0:0:
329,192,194156,1,0,0:0:0:0:
402,192,194240,1,0,0:0:0:0:
475,192,194325,1,0,0:0:0:0:
402,192,194410,1,0,0:0:0:0:
329,192,194495,1,0,0:0:0:0:
36,192,194579,1,0,0:0:0:0:
109,192,194664,1,0,0:0:0:0:
182,192,194749,1,0,0:0:0:0:
329,192,194834,1,0,0:0:0:0:
402,192,194918,1,0,0:0:0:0:
329,192,195003,1,0,0:0:0:0:
182,192,195088,1,0,0:0:0:0:
109,192,195172,1,0,0:0:0:0:
475,192,195257,1,0,0:0:0:0:
402,192,195342,1,0,0:0:0:0:
329,192,195427,1,0,0:0:0:0:
182,192,195511,1,0,0:0:0:0:
109,192,195596,1,0,0:0:0:0:
182,192,195681,1,0,0:0:0:0:
329,192,195766,1,0,0:0:0:0:
402,192,195850,1,0,0:0:0:0:
475,192,195935,1,0,0:0:0:0:
329,192,196020,1,0,0:0:0:0:
182,192,196105,1,0,0:0:0:0:
36,192,196189,1,0,0:0:0:0:
475,192,196274,1,0,0:0:0:0:
402,192,196359,1,0,0:0:0:0:
329,192,196444,1,0,0:0:0:0:
182,192,196528,1,0,0:0:0:0:
109,192,196613,1,0,0:0:0:0:
36,192,196698,1,0,0:0:0:0:
109,192,196782,1,0,0:0:0:0:
182,192,196867,1,0,0:0:0:0:
329,192,196952,1,0,0:0:0:0:
36,192,197037,1,0,0:0:0:0:
109,192,197122,1,0,0:0:0:0:
329,192,197206,1,0,0:0:0:0:
402,192,197291,1,0,0:0:0:0:
475,192,197375,1,0,0:0:0:0:
329,192,197460,1,0,0:0:0:0:
182,192,197545,1,0,0:0:0:0:
109,192,197630,1,0,0:0:0:0:
36,192,197715,1,0,0:0:0:0:
182,192,197800,1,0,0:0:0:0:
329,192,197884,1,0,0:0:0:0:
475,192,197969,1,0,0:0:0:0:
36,192,198054,1,0,0:0:0:0:
109,192,198139,1,0,0:0:0:0:
402,192,198223,1,0,0:0:0:0:
475,192,198308,1,0,0:0:0:0:
109,192,198393,1,0,0:0:0:0:
182,192,198478,1,0,0:0:0:0:
329,192,198562,1,0,0:0:0:0:
402,192,198647,1,0,0:0:0:0:
36,192,198732,1,0,0:0:0:0:
182,192,198817,1,0,0:0:0:0:
402,192,198901,1,0,0:0:0:0:
475,192,198986,1,0,0:0:0:0:
109,192,199071,1,0,0:0:0:0:
182,192,199156,1,0,0:0:0:0:
109,192,199240,1,0,0:0:0:0:
36,192,199325,1,0,0:0:0:0:
475,192,199325,1,0,0:0:0:0:
109,192,199495,1,0,0:0:0:0:
182,192,199579,1,0,0:0:0:0:
402,192,199664,1,0,0:0:0:0:
109,192,199749,1,0,0:0:0:0:
402,192,199834,1,0,0:0:0:0:
475,192,200003,1,0,0:0:0:0:
402,192,200088,1,0,0:0:0:0:
36,192,200172,1,0,0:0:0:0:
402,192,200257,1,0,0:0:0:0:
36,192,200427,1,0,0:0:0:0:
329,192,200511,1,0,0:0:0:0:
182,192,200681,1,0,0:0:0:0:
36,192,200850,1,0,0:0:0:0:
329,192,200935,1,0,0:0:0:0:
182,192,201020,1,0,0:0:0:0:
36,192,201105,1,0,0:0:0:0:
182,192,201189,1,0,0:0:0:0:
475,192,201359,1,0,0:0:0:0:
402,192,201444,1,0,0:0:0:0:
182,192,201613,1,0,0:0:0:0:
329,192,201783,1,0,0:0:0:0:
402,192,201867,1,0,0:0:0:0:
109,192,202037,1,0,0:0:0:0:
329,192,202206,1,0,0:0:0:0:
256,192,202291,1,0,0:0:0:0:
182,192,202376,1,0,0:0:0:0:
36,192,202461,1,0,0:0:0:0:
109,192,202545,1,0,0:0:0:0:
329,192,202715,1,0,0:0:0:0:
402,192,202800,1,0,0:0:0:0:
109,192,202884,1,0,0:0:0:0:
475,192,202969,1,0,0:0:0:0:
36,192,203139,1,0,0:0:0:0:
329,192,203223,1,0,0:0:0:0:
402,192,203393,1,0,0:0:0:0:
109,192,203562,1,0,0:0:0:0:
475,192,203647,1,0,0:0:0:0:
182,192,203732,1,0,0:0:0:0:
36,192,203817,1,0,0:0:0:0:
182,192,203901,1,0,0:0:0:0:
475,192,204071,1,0,0:0:0:0:
402,192,204156,1,0,0:0:0:0:
182,192,204325,1,0,0:0:0:0:
36,192,204495,1,0,0:0:0:0:
402,192,204579,1,0,0:0:0:0:
36,192,204749,1,0,0:0:0:0:
109,192,204918,1,0,0:0:0:0:
182,192,205003,1,0,0:0:0:0:
329,192,205088,1,0,0:0:0:0:
182,192,205172,1,0,0:0:0:0:
329,192,205257,1,0,0:0:0:0:
475,192,205427,1,0,0:0:0:0:
402,192,205511,1,0,0:0:0:0:
182,192,205681,1,0,0:0:0:0:
475,192,205850,1,0,0:0:0:0:
329,192,205935,1,0,0:0:0:0:
36,192,206105,1,0,0:0:0:0:
109,192,206274,1,0,0:0:0:0:
182,192,206359,1,0,0:0:0:0:
256,192,206444,1,0,0:0:0:0:
329,192,206528,1,0,0:0:0:0:
402,192,206613,1,0,0:0:0:0:
109,192,206783,1,0,0:0:0:0:
329,192,206867,1,0,0:0:0:0:
182,192,206952,1,0,0:0:0:0:
402,192,207037,1,0,0:0:0:0:
109,192,207206,1,0,0:0:0:0:
329,192,207291,1,0,0:0:0:0:
402,192,207461,1,0,0:0:0:0:
36,192,207630,1,0,0:0:0:0:
402,192,207715,1,0,0:0:0:0:
329,192,207800,1,0,0:0:0:0:
182,192,207884,1,0,0:0:0:0:
402,192,207969,1,0,0:0:0:0:
109,192,208139,1,0,0:0:0:0:
402,192,208223,1,0,0:0:0:0:
182,192,208308,1,0,0:0:0:0:
329,192,208393,1,0,0:0:0:0:
36,192,208562,1,0,0:0:0:0:
402,192,208647,1,0,0:0:0:0:
36,192,208817,1,0,0:0:0:0:
475,192,208986,1,0,0:0:0:0:
329,192,209071,1,0,0:0:0:0:
182,192,209156,1,0,0:0:0:0:
36,192,209240,1,0,0:0:0:0:
475,192,209325,1,0,0:0:0:0:
402,192,209495,1,0,0:0:0:0:
329,192,209579,1,0,0:0:0:0:
36,192,209664,1,0,0:0:0:0:
402,192,209749,1,0,0:0:0:0:
182,192,209918,1,0,0:0:0:0:
256,192,210003,1,0,0:0:0:0:
109,192,210172,1,0,0:0:0:0:
256,192,210172,1,0,0:0:0:0:
109,192,210342,1,0,0:0:0:0:
182,192,210427,1,0,0:0:0:0:
256,192,210511,1,0,0:0:0:0:
402,192,210511,1,0,0:0:0:0:
109,192,210596,1,0,0:0:0:0:
402,192,210681,1,0,0:0:0:0:
256,192,210850,1,0,0:0:0:0:
475,192,210850,1,0,0:0:0:0:
402,192,210935,1,0,0:0:0:0:
36,192,211020,1,0,0:0:0:0:
402,192,211105,1,0,0:0:0:0:
256,192,211189,1,0,0:0:0:0:
475,192,211189,1,0,0:0:0:0:
36,192,211274,1,0,0:0:0:0:
329,192,211359,1,0,0:0:0:0:
182,192,211528,1,0,0:0:0:0:
256,192,211528,1,0,0:0:0:0:
36,192,211698,1,0,0:0:0:0:
329,192,211783,1,0,0:0:0:0:
182,192,211867,1,0,0:0:0:0:
256,192,211867,1,0,0:0:0:0:
36,192,211952,1,0,0:0:0:0:
182,192,212037,1,0,0:0:0:0:
256,192,212206,1,0,0:0:0:0:
475,192,212206,1,0,0:0:0:0:
402,192,212291,1,0,0:0:0:0:
182,192,212461,1,0,0:0:0:0:
256,192,212545,1,0,0:0:0:0:
36,192,212545,1,0,0:0:0:0:
329,192,212630,1,0,0:0:0:0:
402,192,212714,128,0,212884:0:0:0:0:
36,192,212884,1,0,0:0:0:0:
109,192,212884,1,0,0:0:0:0:
329,192,213054,1,0,0:0:0:0:
256,192,213139,1,0,0:0:0:0:
182,192,213223,1,0,0:0:0:0:
475,192,213223,1,0,0:0:0:0:
36,192,213308,1,0,0:0:0:0:
109,192,213393,1,0,0:0:0:0:
36,192,213562,1,0,0:0:0:0:
329,192,213562,1,0,0:0:0:0:
402,192,213647,1,0,0:0:0:0:
109,192,213732,1,0,0:0:0:0:
475,192,213817,1,0,0:0:0:0:
256,192,213901,1,0,0:0:0:0:
182,192,213901,1,0,0:0:0:0:
36,192,213986,1,0,0:0:0:0:
329,192,214071,1,0,0:0:0:0:
36,192,214240,1,0,0:0:0:0:
402,192,214240,1,0,0:0:0:0:
109,192,214410,1,0,0:0:0:0:
475,192,214495,1,0,0:0:0:0:
182,192,214579,1,0,0:0:0:0:
329,192,214579,1,0,0:0:0:0:
36,192,214664,1,0,0:0:0:0:
329,192,214748,1,0,0:0:0:0:
182,192,214749,1,0,0:0:0:0:
36,192,214918,1,0,0:0:0:0:
475,192,214918,1,0,0:0:0:0:
182,192,215003,1,0,0:0:0:0:
402,192,215003,1,0,0:0:0:0:
109,192,215172,1,0,0:0:0:0:
182,192,215172,1,0,0:0:0:0:
36,192,215342,1,0,0:0:0:0:
402,192,215426,128,0,215596:0:0:0:0:
36,192,215596,1,0,0:0:0:0:
182,192,215596,1,0,0:0:0:0:
36,192,215766,1,0,0:0:0:0:
109,192,215766,1,0,0:0:0:0:
36,192,215935,1,0,0:0:0:0:
329,192,215935,1,0,0:0:0:0:
475,192,215935,1,0,0:0:0:0:
182,192,215935,1,0,0:0:0:0:
36,192,216104,1,0,0:0:0:0:
329,192,216105,1,0,0:0:0:0:
36,192,216274,1,0,0:0:0:0:
182,192,216274,1,0,0:0:0:0:
475,192,216274,1,0,0:0:0:0:
402,192,216359,1,0,0:0:0:0:
36,192,216444,1,0,0:0:0:0:
36,192,216613,1,0,0:0:0:0:
256,192,216613,1,0,0:0:0:0:
475,192,216698,1,0,0:0:0:0:
329,192,216782,128,0,216952:0:0:0:0:
256,192,216783,1,0,0:0:0:0:
36,192,216952,1,0,0:0:0:0:
182,192,216952,1,0,0:0:0:0:
256,192,216952,1,0,0:0:0:0:
36,192,217122,1,0,0:0:0:0:
109,192,217122,1,0,0:0:0:0:
182,192,217206,1,0,0:0:0:0:
36,192,217291,1,0,0:0:0:0:
256,192,217291,1,0,0:0:0:0:
402,192,217291,1,0,0:0:0:0:
329,192,217376,1,0,0:0:0:0:
36,192,217461,1,0,0:0:0:0:
402,192,217461,1,0,0:0:0:0:
36,192,217630,1,0,0:0:0:0:
109,192,217630,128,0,217799:0:0:0:0:
329,192,217715,1,0,0:0:0:0:
36,192,217800,1,0,0:0:0:0:
182,192,217800,1,0,0:0:0:0:
402,192,217884,1,0,0:0:0:0:
36,192,217969,1,0,0:0:0:0:
475,192,217969,1,0,0:0:0:0:
182,192,218053,1,0,0:0:0:0:
329,192,218138,128,0,218308:0:0:0:0:
36,192,218139,1,0,0:0:0:0:
36,192,218308,1,0,0:0:0:0:
402,192,218308,1,0,0:0:0:0:
36,192,218478,1,0,0:0:0:0:
109,192,218562,1,0,0:0:0:0:
182,192,218647,1,0,0:0:0:0:
402,192,218647,1,0,0:0:0:0:
256,192,218731,1,0,0:0:0:0:
402,192,218817,1,0,0:0:0:0:
109,192,218901,1,0,0:0:0:0:
36,192,218986,1,0,0:0:0:0:
402,192,219071,1,0,0:0:0:0:
329,192,219155,1,0,0:0:0:0:
182,192,219240,1,0,0:0:0:0:
256,192,219325,1,0,0:0:0:0:
36,192,219410,1,0,0:0:0:0:
402,192,219495,1,0,0:0:0:0:
36,192,219664,1,0,0:0:0:0:
182,192,219664,1,0,0:0:0:0:
475,192,219834,1,0,0:0:0:0:
329,192,219918,1,0,0:0:0:0:
182,192,220003,1,0,0:0:0:0:
256,192,220003,1,0,0:0:0:0:
36,192,220088,1,0,0:0:0:0:
475,192,220172,1,0,0:0:0:0:
182,192,220342,1,0,0:0:0:0:
402,192,220342,1,0,0:0:0:0:
329,192,220427,1,0,0:0:0:0:
36,192,220511,1,0,0:0:0:0:
402,192,220596,1,0,0:0:0:0:
256,192,220681,1,0,0:0:0:0:
182,192,220766,1,0,0:0:0:0:
36,192,220850,1,0,0:0:0:0:
475,192,221020,1,0,0:0:0:0:
36,192,221189,1,0,0:0:0:0:
475,192,221358,1,0,0:0:0:0:
402,192,221443,1,0,0:0:0:0:
256,192,221528,1,0,0:0:0:0:
182,192,221613,1,0,0:0:0:0:
402,192,221698,1,0,0:0:0:0:
109,192,221783,1,0,0:0:0:0:
402,192,221867,1,0,0:0:0:0:
109,192,221952,1,0,0:0:0:0:
36,192,222036,1,0,0:0:0:0:
475,192,222036,1,0,0:0:0:0:
256,192,222122,1,0,0:0:0:0:
182,0,222206,128,0,222376:0:0:0:0:
329,0,222206,128,0,222376:0:0:0:0:
109,192,222376,1,0,0:0:0:0:
402,192,222376,1,0,0:0:0:0:
109,192,222545,1,0,0:0:0:0:
182,192,222630,1,0,0:0:0:0:
36,192,222715,1,0,0:0:0:0:
256,192,222715,1,0,0:0:0:0:
402,192,222715,1,0,0:0:0:0:
109,192,222800,1,0,0:0:0:0:
402,192,222884,1,0,0:0:0:0:
475,192,223054,1,0,0:0:0:0:
402,192,223139,1,0,0:0:0:0:
36,192,223223,1,0,0:0:0:0:
402,192,223308,1,0,0:0:0:0:
109,192,223393,1,0,0:0:0:0:
256,192,223393,1,0,0:0:0:0:
36,192,223478,1,0,0:0:0:0:
329,192,223562,1,0,0:0:0:0:
182,192,223732,1,0,0:0:0:0:
36,192,223901,1,0,0:0:0:0:
329,192,223986,1,0,0:0:0:0:
182,192,224071,1,0,0:0:0:0:
256,192,224071,1,0,0:0:0:0:
475,192,224071,1,0,0:0:0:0:
36,192,224156,1,0,0:0:0:0:
182,192,224240,1,0,0:0:0:0:
475,192,224410,1,0,0:0:0:0:
402,192,224495,1,0,0:0:0:0:
182,192,224664,1,0,0:0:0:0:
475,192,224748,1,0,0:0:0:0:
36,192,224749,1,0,0:0:0:0:
329,192,224834,1,0,0:0:0:0:
402,192,224918,1,0,0:0:0:0:
109,192,225088,1,0,0:0:0:0:
329,192,225257,1,0,0:0:0:0:
256,192,225342,1,0,0:0:0:0:
182,192,225427,1,0,0:0:0:0:
329,192,225427,1,0,0:0:0:0:
475,192,225427,1,0,0:0:0:0:
36,192,225511,1,0,0:0:0:0:
109,192,225596,1,0,0:0:0:0:
329,192,225766,1,0,0:0:0:0:
402,192,225850,1,0,0:0:0:0:
109,192,225935,1,0,0:0:0:0:
475,192,226020,1,0,0:0:0:0:
109,192,226105,1,0,0:0:0:0:
256,192,226105,1,0,0:0:0:0:
36,192,226189,1,0,0:0:0:0:
329,192,226274,1,0,0:0:0:0:
402,192,226444,1,0,0:0:0:0:
109,192,226613,1,0,0:0:0:0:
475,192,226698,1,0,0:0:0:0:
182,192,226783,1,0,0:0:0:0:
256,192,226783,1,0,0:0:0:0:
402,192,226783,1,0,0:0:0:0:
36,192,226867,1,0,0:0:0:0:
182,192,226952,1,0,0:0:0:0:
475,192,227122,1,0,0:0:0:0:
402,192,227206,1,0,0:0:0:0:
182,192,227376,1,0,0:0:0:0:
109,192,227461,1,0,0:0:0:0:
256,192,227461,1,0,0:0:0:0:
36,192,227545,1,0,0:0:0:0:
402,192,227630,1,0,0:0:0:0:
256,192,227630,1,0,0:0:0:0:
256,192,227799,1,0,0:0:0:0:
36,192,227800,1,0,0:0:0:0:
109,192,227969,1,0,0:0:0:0:
182,192,228054,1,0,0:0:0:0:
256,192,228139,1,0,0:0:0:0:
329,192,228139,1,0,0:0:0:0:
475,192,228139,1,0,0:0:0:0:
182,192,228223,1,0,0:0:0:0:
329,192,228308,1,0,0:0:0:0:
475,192,228478,1,0,0:0:0:0:
402,192,228562,1,0,0:0:0:0:
182,192,228732,1,0,0:0:0:0:
36,192,228817,1,0,0:0:0:0:
256,192,228817,1,0,0:0:0:0:
475,192,228901,1,0,0:0:0:0:
329,192,228986,1,0,0:0:0:0:
36,192,229156,1,0,0:0:0:0:
109,192,229325,1,0,0:0:0:0:
182,192,229410,1,0,0:0:0:0:
36,192,229495,1,0,0:0:0:0:
256,192,229495,1,0,0:0:0:0:
475,192,229495,1,0,0:0:0:0:
329,192,229579,1,0,0:0:0:0:
402,192,229664,1,0,0:0:0:0:
109,192,229834,1,0,0:0:0:0:
329,192,229918,1,0,0:0:0:0:
182,192,230003,1,0,0:0:0:0:
402,192,230088,1,0,0:0:0:0:
36,192,230172,1,0,0:0:0:0:
475,192,230172,1,0,0:0:0:0:
109,192,230257,1,0,0:0:0:0:
329,192,230342,1,0,0:0:0:0:
402,192,230511,1,0,0:0:0:0:
36,192,230681,1,0,0:0:0:0:
402,192,230766,1,0,0:0:0:0:
109,192,230850,1,0,0:0:0:0:
256,192,230850,1,0,0:0:0:0:
329,192,230850,1,0,0:0:0:0:
182,192,230935,1,0,0:0:0:0:
402,192,231020,1,0,0:0:0:0:
109,192,231189,1,0,0:0:0:0:
402,192,231274,1,0,0:0:0:0:
182,192,231359,1,0,0:0:0:0:
329,192,231444,1,0,0:0:0:0:
109,192,231528,1,0,0:0:0:0:
256,192,231528,1,0,0:0:0:0:
36,192,231613,1,0,0:0:0:0:
402,192,231698,1,0,0:0:0:0:
36,192,231867,1,0,0:0:0:0:
475,192,232037,1,0,0:0:0:0:
329,192,232122,1,0,0:0:0:0:
182,192,232206,1,0,0:0:0:0:
256,192,232206,1,0,0:0:0:0:
36,192,232291,1,0,0:0:0:0:
475,192,232376,1,0,0:0:0:0:
402,192,232545,1,0,0:0:0:0:
329,192,232630,1,0,0:0:0:0:
36,192,232715,1,0,0:0:0:0:
402,192,232800,1,0,0:0:0:0:
109,192,232884,1,0,0:0:0:0:
256,192,232884,1,0,0:0:0:0:
182,192,232969,1,0,0:0:0:0:
256,192,233054,1,0,0:0:0:0:
109,192,233223,1,0,0:0:0:0:
256,192,233223,1,0,0:0:0:0:
109,192,233393,1,0,0:0:0:0:
182,192,233478,1,0,0:0:0:0:
256,192,233562,1,0,0:0:0:0:
402,192,233562,1,0,0:0:0:0:
109,192,233647,1,0,0:0:0:0:
402,192,233732,1,0,0:0:0:0:
256,192,233901,1,0,0:0:0:0:
475,192,233901,1,0,0:0:0:0:
402,192,233986,1,0,0:0:0:0:
36,192,234071,1,0,0:0:0:0:
402,192,234156,1,0,0:0:0:0:
256,192,234240,1,0,0:0:0:0:
36,192,234325,1,0,0:0:0:0:
329,192,234410,1,0,0:0:0:0:
182,192,234579,1,0,0:0:0:0:
256,192,234579,1,0,0:0:0:0:
36,192,234749,1,0,0:0:0:0:
329,192,234834,1,0,0:0:0:0:
182,192,234918,1,0,0:0:0:0:
256,192,234918,1,0,0:0:0:0:
36,192,235003,1,0,0:0:0:0:
182,192,235088,1,0,0:0:0:0:
256,192,235257,1,0,0:0:0:0:
475,192,235257,1,0,0:0:0:0:
402,192,235342,1,0,0:0:0:0:
182,192,235511,1,0,0:0:0:0:
256,192,235596,1,0,0:0:0:0:
329,192,235681,1,0,0:0:0:0:
402,192,235766,1,0,0:0:0:0:
36,192,235935,1,0,0:0:0:0:
109,192,235935,1,0,0:0:0:0:
329,192,236105,1,0,0:0:0:0:
256,192,236189,1,0,0:0:0:0:
182,192,236274,1,0,0:0:0:0:
475,192,236274,1,0,0:0:0:0:
36,192,236359,1,0,0:0:0:0:
109,192,236444,1,0,0:0:0:0:
36,192,236613,1,0,0:0:0:0:
329,192,236613,1,0,0:0:0:0:
402,192,236698,1,0,0:0:0:0:
109,192,236783,1,0,0:0:0:0:
475,192,236867,1,0,0:0:0:0:
256,192,236952,1,0,0:0:0:0:
36,192,237037,1,0,0:0:0:0:
329,192,237122,1,0,0:0:0:0:
36,192,237291,1,0,0:0:0:0:
402,192,237291,1,0,0:0:0:0:
109,192,237461,1,0,0:0:0:0:
475,192,237545,1,0,0:0:0:0:
182,192,237630,1,0,0:0:0:0:
329,192,237630,1,0,0:0:0:0:
36,192,237715,1,0,0:0:0:0:
182,192,237800,1,0,0:0:0:0:
36,192,237969,1,0,0:0:0:0:
475,192,237969,1,0,0:0:0:0:
182,192,238054,1,0,0:0:0:0:
402,192,238054,1,0,0:0:0:0:
109,192,238223,1,0,0:0:0:0:
182,192,238223,1,0,0:0:0:0:
256,192,238308,1,0,0:0:0:0:
329,192,238308,1,0,0:0:0:0:
36,192,238393,1,0,0:0:0:0:
402,192,238478,1,0,0:0:0:0:
109,192,238647,1,0,0:0:0:0:
256,192,238647,1,0,0:0:0:0:
109,192,238817,1,0,0:0:0:0:
182,192,238901,1,0,0:0:0:0:
256,192,238986,1,0,0:0:0:0:
402,192,238986,1,0,0:0:0:0:
109,192,239071,1,0,0:0:0:0:
402,192,239156,1,0,0:0:0:0:
256,192,239325,1,0,0:0:0:0:
475,192,239325,1,0,0:0:0:0:
402,192,239410,1,0,0:0:0:0:
36,192,239495,1,0,0:0:0:0:
402,192,239579,1,0,0:0:0:0:
256,192,239664,1,0,0:0:0:0:
36,192,239749,1,0,0:0:0:0:
329,192,239834,1,0,0:0:0:0:
182,192,240003,1,0,0:0:0:0:
256,192,240003,1,0,0:0:0:0:
36,192,240172,1,0,0:0:0:0:
329,192,240257,1,0,0:0:0:0:
182,192,240342,1,0,0:0:0:0:
256,192,240342,1,0,0:0:0:0:
36,192,240427,1,0,0:0:0:0:
182,192,240511,1,0,0:0:0:0:
256,192,240681,1,0,0:0:0:0:
475,192,240681,1,0,0:0:0:0:
402,192,240766,1,0,0:0:0:0:
182,192,240935,1,0,0:0:0:0:
256,192,241020,1,0,0:0:0:0:
329,192,241105,1,0,0:0:0:0:
402,192,241189,1,0,0:0:0:0:
109,192,241359,1,0,0:0:0:0:
256,192,241359,1,0,0:0:0:0:
109,192,241528,1,0,0:0:0:0:
182,192,241613,1,0,0:0:0:0:
256,192,241698,1,0,0:0:0:0:
402,192,241698,1,0,0:0:0:0:
109,192,241783,1,0,0:0:0:0:
402,192,241867,1,0,0:0:0:0:
256,192,242037,1,0,0:0:0:0:
402,192,242122,1,0,0:0:0:0:
36,192,242206,1,0,0:0:0:0:
402,192,242291,1,0,0:0:0:0:
256,192,242376,1,0,0:0:0:0:
36,192,242461,1,0,0:0:0:0:
329,192,242545,1,0,0:0:0:0:
182,192,242715,1,0,0:0:0:0:
256,192,242715,1,0,0:0:0:0:
36,192,242884,1,0,0:0:0:0:
329,192,242969,1,0,0:0:0:0:
182,192,243054,1,0,0:0:0:0:
256,192,243054,1,0,0:0:0:0:
36,192,243139,1,0,0:0:0:0:
182,192,243223,1,0,0:0:0:0:
256,192,243393,1,0,0:0:0:0:
475,192,243393,1,0,0:0:0:0:
402,192,243478,1,0,0:0:0:0:
256,192,243562,1,0,0:0:0:0:
182,192,243647,1,0,0:0:0:0:
36,192,243647,1,0,0:0:0:0:
256,192,243732,1,0,0:0:0:0:
329,192,243817,1,0,0:0:0:0:
402,192,243901,1,0,0:0:0:0:
36,192,243901,1,2,0:0:0:0:
182,192,243986,1,2,0:0:0:0:
36,192,244071,1,2,0:0:0:0:
109,192,244071,1,4,0:0:0:0:
329,192,244240,1,0,0:0:0:0:
256,192,244325,1,0,0:0:0:0:
182,192,244410,1,0,0:0:0:0:
475,192,244410,1,0,0:0:0:0:
36,192,244495,1,0,0:0:0:0:
109,192,244579,1,0,0:0:0:0:
36,192,244749,1,0,0:0:0:0:
329,192,244749,1,0,0:0:0:0:
402,192,244834,1,0,0:0:0:0:
109,192,244918,1,0,0:0:0:0:
475,192,245003,1,0,0:0:0:0:
256,192,245088,1,0,0:0:0:0:
36,192,245172,1,0,0:0:0:0:
329,192,245257,1,0,0:0:0:0:
36,192,245427,1,0,0:0:0:0:
402,192,245427,1,0,0:0:0:0:
109,192,245596,1,0,0:0:0:0:
475,192,245681,1,0,0:0:0:0:
182,192,245766,1,0,0:0:0:0:
329,192,245766,1,0,0:0:0:0:
36,192,245850,1,0,0:0:0:0:
182,192,245935,1,0,0:0:0:0:
36,192,246105,1,0,0:0:0:0:
475,192,246105,1,0,0:0:0:0:
182,192,246189,1,0,0:0:0:0:
402,192,246189,1,0,0:0:0:0:
109,192,246359,1,0,0:0:0:0:
182,192,246359,1,0,0:0:0:0:
256,192,246444,1,0,0:0:0:0:
329,192,246444,1,0,0:0:0:0:
36,192,246528,1,0,0:0:0:0:
402,192,246613,1,0,0:0:0:0:
109,192,246783,1,0,0:0:0:0:
402,192,246783,1,0,0:0:0:0:
109,192,246952,1,0,0:0:0:0:
182,192,247037,1,0,0:0:0:0:
36,192,247122,1,0,0:0:0:0:
256,192,247122,1,0,0:0:0:0:
402,192,247122,1,0,0:0:0:0:
109,192,247206,1,0,0:0:0:0:
402,192,247291,1,0,0:0:0:0:
475,192,247461,1,0,0:0:0:0:
402,192,247545,1,0,0:0:0:0:
36,192,247630,1,0,0:0:0:0:
402,192,247715,1,0,0:0:0:0:
109,192,247800,1,0,0:0:0:0:
256,192,247800,1,0,0:0:0:0:
36,192,247884,1,0,0:0:0:0:
329,192,247969,1,0,0:0:0:0:
182,192,248139,1,0,0:0:0:0:
36,192,248308,1,0,0:0:0:0:
329,192,248393,1,0,0:0:0:0:
182,192,248478,1,0,0:0:0:0:
256,192,248478,1,0,0:0:0:0:
475,192,248478,1,0,0:0:0:0:
36,192,248562,1,0,0:0:0:0:
182,192,248647,1,0,0:0:0:0:
475,192,248817,1,0,0:0:0:0:
402,192,248901,1,0,0:0:0:0:
182,192,249071,1,0,0:0:0:0:
36,192,249156,1,0,0:0:0:0:
256,192,249156,1,0,0:0:0:0:
329,192,249240,1,0,0:0:0:0:
402,192,249325,1,0,0:0:0:0:
109,192,249495,1,0,0:0:0:0:
329,192,249664,1,0,0:0:0:0:
256,192,249749,1,0,0:0:0:0:
182,192,249834,1,0,0:0:0:0:
329,192,249834,1,0,0:0:0:0:
475,192,249834,1,0,0:0:0:0:
36,192,249918,1,0,0:0:0:0:
109,192,250003,1,0,0:0:0:0:
329,192,250172,1,0,0:0:0:0:
402,192,250257,1,0,0:0:0:0:
109,192,250342,1,0,0:0:0:0:
475,192,250427,1,0,0:0:0:0:
109,192,250511,1,0,0:0:0:0:
256,192,250511,1,0,0:0:0:0:
36,192,250596,1,0,0:0:0:0:
329,192,250681,1,0,0:0:0:0:
402,192,250850,1,0,0:0:0:0:
109,192,251020,1,0,0:0:0:0:
475,192,251105,1,0,0:0:0:0:
182,192,251189,1,0,0:0:0:0:
256,192,251189,1,0,0:0:0:0:
402,192,251189,1,0,0:0:0:0:
36,192,251274,1,0,0:0:0:0:
182,192,251359,1,0,0:0:0:0:
475,192,251528,1,0,0:0:0:0:
402,192,251613,1,0,0:0:0:0:
182,192,251783,1,0,0:0:0:0:
109,192,251867,1,0,0:0:0:0:
256,192,251867,1,0,0:0:0:0:
36,192,251952,1,0,0:0:0:0:
402,192,252037,1,0,0:0:0:0:
36,192,252206,1,0,0:0:0:0:
109,192,252376,1,0,0:0:0:0:
182,192,252461,1,0,0:0:0:0:
256,192,252545,1,0,0:0:0:0:
329,192,252545,1,0,0:0:0:0:
475,192,252545,1,0,0:0:0:0:
182,192,252630,1,0,0:0:0:0:
329,192,252715,1,0,0:0:0:0:
475,192,252884,1,0,0:0:0:0:
402,192,252969,1,0,0:0:0:0:
182,192,253139,1,0,0:0:0:0:
36,192,253223,1,0,0:0:0:0:
256,192,253223,1,0,0:0:0:0:
475,192,253308,1,0,0:0:0:0:
329,192,253393,1,0,0:0:0:0:
36,192,253562,1,0,0:0:0:0:
109,192,253732,1,0,0:0:0:0:
182,192,253817,1,0,0:0:0:0:
36,192,253901,1,0,0:0:0:0:
256,192,253901,1,0,0:0:0:0:
475,192,253901,1,0,0:0:0:0:
329,192,253986,1,0,0:0:0:0:
402,192,254071,1,0,0:0:0:0:
109,192,254240,1,0,0:0:0:0:
329,192,254325,1,0,0:0:0:0:
182,192,254410,1,0,0:0:0:0:
402,192,254495,1,0,0:0:0:0:
36,192,254579,1,0,0:0:0:0:
475,192,254579,1,0,0:0:0:0:
109,192,254664,1,0,0:0:0:0:
329,192,254749,1,0,0:0:0:0:
402,192,254918,1,0,0:0:0:0:
36,192,255088,1,0,0:0:0:0:
402,192,255172,1,0,0:0:0:0:
109,192,255257,1,0,0:0:0:0:
256,192,255257,1,0,0:0:0:0:
329,192,255257,1,0,0:0:0:0:
182,192,255342,1,0,0:0:0:0:
402,192,255427,1,0,0:0:0:0:
109,192,255596,1,0,0:0:0:0:
402,192,255681,1,0,0:0:0:0:
182,192,255766,1,0,0:0:0:0:
329,192,255850,1,0,0:0:0:0:
109,192,255935,1,0,0:0:0:0:
256,192,255935,1,0,0:0:0:0:
36,192,256020,1,0,0:0:0:0:
402,192,256105,1,0,0:0:0:0:
36,192,256274,1,0,0:0:0:0:
475,192,256444,1,0,0:0:0:0:
329,192,256528,1,0,0:0:0:0:
182,192,256613,1,0,0:0:0:0:
256,192,256613,1,0,0:0:0:0:
36,192,256698,1,0,0:0:0:0:
475,192,256783,1,0,0:0:0:0:
402,192,256952,1,0,0:0:0:0:
329,192,257037,1,0,0:0:0:0:
36,192,257122,1,0,0:0:0:0:
402,192,257206,1,0,0:0:0:0:
109,192,257291,1,0,0:0:0:0:
256,192,257291,1,0,0:0:0:0:
182,192,257376,1,0,0:0:0:0:
256,192,257461,1,0,0:0:0:0:
402,192,257630,1,0,0:0:0:0:
109,192,257800,1,0,0:0:0:0:
475,192,257884,1,0,0:0:0:0:
182,192,257969,1,0,0:0:0:0:
256,192,257969,1,0,0:0:0:0:
402,192,257969,1,0,0:0:0:0:
36,192,258054,1,0,0:0:0:0:
182,192,258139,1,0,0:0:0:0:
475,192,258308,1,0,0:0:0:0:
402,192,258393,1,0,0:0:0:0:
182,192,258562,1,0,0:0:0:0:
109,192,258647,1,0,0:0:0:0:
256,192,258647,1,0,0:0:0:0:
36,192,258732,1,0,0:0:0:0:
402,192,258817,1,0,0:0:0:0:
36,192,258986,1,0,0:0:0:0:
109,192,259156,1,0,0:0:0:0:
182,192,259240,1,0,0:0:0:0:
256,192,259325,1,0,0:0:0:0:
329,192,259325,1,0,0:0:0:0:
475,192,259325,1,0,0:0:0:0:
182,192,259410,1,0,0:0:0:0:
329,192,259495,1,0,0:0:0:0:
475,192,259664,1,0,0:0:0:0:
402,192,259749,1,0,0:0:0:0:
182,192,259918,1,0,0:0:0:0:
36,192,260003,1,0,0:0:0:0:
256,192,260003,1,0,0:0:0:0:
475,192,260088,1,0,0:0:0:0:
329,192,260172,1,0,0:0:0:0:
36,192,260342,1,0,0:0:0:0:
109,192,260511,1,0,0:0:0:0:
182,192,260596,1,0,0:0:0:0:
36,192,260681,1,0,0:0:0:0:
256,192,260681,1,0,0:0:0:0:
475,192,260681,1,0,0:0:0:0:
329,192,260766,1,0,0:0:0:0:
402,192,260850,1,0,0:0:0:0:
109,192,261020,1,0,0:0:0:0:
329,192,261105,1,0,0:0:0:0:
182,192,261189,1,0,0:0:0:0:
402,192,261274,1,0,0:0:0:0:
36,192,261359,1,0,0:0:0:0:
475,192,261359,1,0,0:0:0:0:
109,192,261444,1,0,0:0:0:0:
329,192,261528,1,0,0:0:0:0:
402,192,261698,1,0,0:0:0:0:
36,192,261867,1,0,0:0:0:0:
402,192,261952,1,0,0:0:0:0:
109,192,262037,1,0,0:0:0:0:
256,192,262037,1,0,0:0:0:0:
329,192,262037,1,0,0:0:0:0:
182,192,262122,1,0,0:0:0:0:
402,192,262206,1,0,0:0:0:0:
109,192,262376,1,0,0:0:0:0:
402,192,262461,1,0,0:0:0:0:
182,192,262545,1,0,0:0:0:0:
329,192,262630,1,0,0:0:0:0:
109,192,262715,1,0,0:0:0:0:
256,192,262715,1,0,0:0:0:0:
36,192,262800,1,0,0:0:0:0:
402,192,262884,1,0,0:0:0:0:
36,192,263054,1,0,0:0:0:0:
475,192,263223,1,0,0:0:0:0:
329,192,263308,1,0,0:0:0:0:
182,192,263393,1,0,0:0:0:0:
256,192,263393,1,0,0:0:0:0:
36,192,263478,1,0,0:0:0:0:
475,192,263562,1,0,0:0:0:0:
402,192,263732,1,0,0:0:0:0:
329,192,263817,1,0,0:0:0:0:
36,192,263901,1,0,0:0:0:0:
402,192,263986,1,0,0:0:0:0:
109,192,264071,1,0,0:0:0:0:
182,192,264156,1,0,0:0:0:0:
256,192,264240,1,0,0:0:0:0:
109,192,264410,1,0,0:0:0:0:
402,192,264410,1,0,0:0:0:0:
402,192,264579,1,0,0:0:0:0:
329,192,264663,1,0,0:0:0:0:
475,192,264748,1,0,0:0:0:0:
36,192,264749,1,0,0:0:0:0:
256,192,264749,1,0,0:0:0:0:
109,192,264834,1,0,0:0:0:0:
402,192,264918,1,0,0:0:0:0:
475,192,265088,1,0,0:0:0:0:
402,192,265173,1,0,0:0:0:0:
36,192,265257,1,0,0:0:0:0:
402,192,265342,1,0,0:0:0:0:
109,192,265427,1,0,0:0:0:0:
256,192,265427,1,0,0:0:0:0:
182,192,265511,1,0,0:0:0:0:
329,192,265596,1,0,0:0:0:0:
182,192,265681,1,0,0:0:0:0:
402,192,265766,1,0,0:0:0:0:
36,0,265766,128,0,266444:0:0:0:0:
256,192,266443,1,4,0:0:0:0:
329,0,266783,128,0,267122:0:0:0:0:
36,0,267122,128,0,267800:0:0:0:0:
256,192,267800,1,2,0:0:0:0:
256,192,267969,1,2,0:0:0:0:
475,0,268139,128,4,268478:0:0:0:0:
329,192,268478,1,2,0:0:0:0:
329,192,268647,1,2,0:0:0:0:
329,192,268817,1,2,0:0:0:0:
36,192,268986,1,2,0:0:0:0:
109,0,269156,128,4,269833:0:0:0:0:
256,192,269663,1,2,0:0:0:0:
402,192,269834,1,8,0:0:0:0:
182,192,270002,1,2,0:0:0:0:
329,192,270087,1,2,0:0:0:0:
182,192,270172,1,2,0:0:0:0:
182,0,270342,128,8,271189:0:0:0:0:
329,0,270342,128,8,271189:0:0:0:0:
256,192,270681,1,2,0:0:0:0:
109,192,270850,1,8,0:0:0:0:
402,192,270850,1,8,0:0:0:0:
256,192,271189,1,0,0:0:0:0:
36,192,271359,1,0,0:0:0:0:
109,192,271444,1,0,0:0:0:0:
182,192,271528,1,0,0:0:0:0:
109,192,271613,1,0,0:0:0:0:
36,192,271698,1,0,0:0:0:0:
329,192,271698,1,0,0:0:0:0:
109,192,271867,1,8,0:0:0:0:
475,192,271867,1,8,0:0:0:0:
256,0,272206,128,0,272545:0:0:0:0:
36,192,272545,1,0,0:0:0:0:
182,192,272545,1,0,0:0:0:0:
109,192,272715,1,0,0:0:0:0:
256,192,272715,1,0,0:0:0:0:
475,192,272884,1,8,0:0:0:0:
109,192,272884,1,8,0:0:0:0:
329,192,273054,1,0,0:0:0:0:
36,192,273223,1,2,0:0:0:0:
256,192,273223,1,0,0:0:0:0:
36,192,273392,1,2,0:0:0:0:
402,192,273393,1,0,0:0:0:0:
109,192,273562,1,8,0:0:0:0:
475,192,273562,1,8,0:0:0:0:
182,192,273731,1,0,0:0:0:0:
36,192,273901,1,0,0:0:0:0:
329,192,273901,1,0,0:0:0:0:
109,192,274071,1,0,0:0:0:0:
182,192,274156,1,0,0:0:0:0:
256,192,274240,1,0,0:0:0:0:
402,192,274240,1,0,0:0:0:0:
182,192,274325,1,0,0:0:0:0:
109,192,274410,1,2,0:0:0:0:
329,192,274410,1,2,0:0:0:0:
109,192,274579,1,8,0:0:0:0:
475,192,274579,1,8,0:0:0:0:
329,0,274918,128,0,275257:0:0:0:0:
182,192,275088,1,0,0:0:0:0:
402,192,275257,1,0,0:0:0:0:
182,192,275427,1,0,0:0:0:0:
256,192,275511,1,0,0:0:0:0:
329,192,275596,1,0,0:0:0:0:
256,192,275765,1,0,0:0:0:0:
475,0,275766,128,0,276613:0:0:0:0:
36,192,276613,1,0,0:0:0:0:
182,192,276613,1,0,0:0:0:0:
329,192,276783,1,0,0:0:0:0:
182,192,276952,1,0,0:0:0:0:
329,192,277122,1,0,0:0:0:0:
182,192,277291,1,0,0:0:0:0:
475,192,277291,1,0,0:0:0:0:
329,192,277461,1,0,0:0:0:0:
182,192,277630,1,0,0:0:0:0:
329,192,277800,1,0,0:0:0:0:
36,192,277969,1,0,0:0:0:0:
182,192,277969,1,0,0:0:0:0:
329,192,278139,1,0,0:0:0:0:
182,192,278308,1,0,0:0:0:0:
329,192,278478,1,0,0:0:0:0:
182,192,278647,1,0,0:0:0:0:
475,192,278647,1,0,0:0:0:0:
329,192,278817,1,0,0:0:0:0:
182,192,278986,1,0,0:0:0:0:
329,192,279156,1,0,0:0:0:0:
36,192,279325,1,0,0:0:0:0:
182,192,279325,1,0,0:0:0:0:
329,192,279495,1,0,0:0:0:0:
182,192,279664,1,0,0:0:0:0:
329,192,279834,1,0,0:0:0:0:
182,192,280003,1,0,0:0:0:0:
475,192,280003,1,0,0:0:0:0:
329,192,280173,1,0,0:0:0:0:
182,192,280342,1,0,0:0:0:0:
329,192,280511,1,0,0:0:0:0:
36,192,280681,1,0,0:0:0:0:
182,192,280681,1,0,0:0:0:0:
329,192,280850,1,0,0:0:0:0:
182,192,281020,1,0,0:0:0:0:
329,192,281189,1,0,0:0:0:0:
182,192,281359,1,0,0:0:0:0:
475,192,281359,1,0,0:0:0:0:
329,192,281528,1,0,0:0:0:0:
182,192,281698,1,0,0:0:0:0:
329,192,281867,1,0,0:0:0:0:
36,192,282037,1,0,0:0:0:0:
182,192,282037,1,0,0:0:0:0:
36,192,282206,1,0,0:0:0:0:
329,192,282206,1,0,0:0:0:0:
36,192,282376,1,0,0:0:0:0:
182,192,282376,1,0,0:0:0:0:
36,192,282545,1,0,0:0:0:0:
329,192,282545,1,0,0:0:0:0:
36,192,282715,1,0,0:0:0:0:
182,192,282715,1,0,0:0:0:0:
475,192,282715,1,0,0:0:0:0:
36,192,282884,1,0,0:0:0:0:
329,192,282884,1,0,0:0:0:0:
36,192,283054,1,0,0:0:0:0:
182,192,283054,1,0,0:0:0:0:
36,192,283223,1,0,0:0:0:0:
329,192,283223,1,0,0:0:0:0:
256,192,283308,1,0,0:0:0:0:
475,192,283393,1,0,0:0:0:0:
329,192,283393,1,0,0:0:0:0:
475,192,283562,1,0,0:0:0:0:
182,192,283562,1,0,0:0:0:0:
475,192,283732,1,0,0:0:0:0:
329,192,283732,1,0,0:0:0:0:
475,192,283901,1,0,0:0:0:0:
182,192,283901,1,0,0:0:0:0:
475,192,284071,1,0,0:0:0:0:
329,192,284071,1,0,0:0:0:0:
36,192,284071,1,0,0:0:0:0:
475,192,284240,1,0,0:0:0:0:
182,192,284240,1,0,0:0:0:0:
475,192,284410,1,0,0:0:0:0:
329,192,284410,1,0,0:0:0:0:
475,192,284579,1,0,0:0:0:0:
182,192,284579,1,0,0:0:0:0:
256,192,284663,1,0,0:0:0:0:
475,192,284749,1,0,0:0:0:0:
182,192,284834,1,0,0:0:0:0:
36,192,284918,1,0,0:0:0:0:
182,192,285003,1,0,0:0:0:0:
329,192,285088,1,0,0:0:0:0:
475,192,285173,1,0,0:0:0:0:
329,192,285257,1,0,0:0:0:0:
475,192,285342,1,0,0:0:0:0:
182,192,285427,1,0,0:0:0:0:
329,192,285511,1,0,0:0:0:0:
182,192,285596,1,0,0:0:0:0:
329,192,285681,1,0,0:0:0:0:
109,192,285766,1,0,0:0:0:0:
402,192,285850,1,0,0:0:0:0:
109,192,285935,1,0,0:0:0:0:
402,192,286020,1,0,0:0:0:0:
256,0,286105,128,0,286783:0:0:0:0:
475,192,286274,1,0,0:0:0:0:
329,192,286359,1,0,0:0:0:0:
182,192,286444,1,0,0:0:0:0:
36,192,286528,1,0,0:0:0:0:
475,192,286613,1,0,0:0:0:0:
36,192,286783,1,0,0:0:0:0:
475,192,286783,1,0,0:0:0:0:
329,192,286867,1,0,0:0:0:0:
182,192,286952,1,0,0:0:0:0:
329,192,287037,1,0,0:0:0:0:
36,192,287122,1,0,0:0:0:0:
475,192,287122,1,0,0:0:0:0:
109,192,287206,1,0,0:0:0:0:
182,192,287291,1,0,0:0:0:0:
256,192,287376,1,0,0:0:0:0:
36,192,287461,1,0,0:0:0:0:
475,192,287461,1,0,0:0:0:0:
109,192,287630,1,0,0:0:0:0:
182,192,287715,1,0,0:0:0:0:
36,192,287800,1,0,0:0:0:0:
256,192,287800,1,0,0:0:0:0:
402,192,287800,1,0,0:0:0:0:
109,192,287884,1,0,0:0:0:0:
402,192,287969,1,0,0:0:0:0:
182,192,288139,1,0,0:0:0:0:
475,192,288139,1,0,0:0:0:0:
402,192,288223,1,0,0:0:0:0:
36,192,288308,1,0,0:0:0:0:
402,192,288393,1,0,0:0:0:0:
36,192,288562,1,0,0:0:0:0:
329,192,288647,1,0,0:0:0:0:
109,192,288817,1,0,0:0:0:0:
182,192,288817,1,0,0:0:0:0:
402,192,288817,1,0,0:0:0:0:
36,192,288986,1,0,0:0:0:0:
329,192,289071,1,0,0:0:0:0:
182,192,289156,1,0,0:0:0:0:
402,192,289156,1,0,0:0:0:0:
36,192,289240,1,0,0:0:0:0:
182,192,289325,1,0,0:0:0:0:
109,192,289495,1,0,0:0:0:0:
256,192,289495,1,0,0:0:0:0:
475,192,289495,1,0,0:0:0:0:
402,192,289579,1,0,0:0:0:0:
182,192,289749,1,0,0:0:0:0:
256,192,289833,1,0,0:0:0:0:
475,192,289833,1,0,0:0:0:0:
109,192,289834,1,0,0:0:0:0:
329,192,289918,1,0,0:0:0:0:
402,192,290003,1,0,0:0:0:0:
36,192,290173,1,0,0:0:0:0:
109,192,290173,1,0,0:0:0:0:
256,192,290173,1,0,0:0:0:0:
329,192,290342,1,0,0:0:0:0:
256,192,290427,1,0,0:0:0:0:
182,192,290511,1,0,0:0:0:0:
475,192,290511,1,0,0:0:0:0:
36,192,290596,1,0,0:0:0:0:
109,192,290681,1,0,0:0:0:0:
182,192,290850,1,0,0:0:0:0:
329,192,290850,1,0,0:0:0:0:
475,192,290850,1,0,0:0:0:0:
402,192,290935,1,0,0:0:0:0:
109,192,291020,1,0,0:0:0:0:
475,192,291105,1,0,0:0:0:0:
256,192,291189,1,0,0:0:0:0:
36,192,291274,1,0,0:0:0:0:
329,192,291359,1,0,0:0:0:0:
109,192,291528,1,0,0:0:0:0:
256,192,291528,1,0,0:0:0:0:
402,192,291528,1,0,0:0:0:0:
109,192,291698,1,0,0:0:0:0:
475,192,291783,1,0,0:0:0:0:
182,192,291867,1,0,0:0:0:0:
329,192,291867,1,0,0:0:0:0:
36,192,291952,1,0,0:0:0:0:
182,192,292037,1,0,0:0:0:0:
36,192,292206,1,0,0:0:0:0:
256,192,292206,1,0,0:0:0:0:
475,192,292206,1,0,0:0:0:0:
402,192,292291,1,0,0:0:0:0:
182,192,292461,1,0,0:0:0:0:
329,192,292545,1,0,0:0:0:0:
36,192,292630,1,0,0:0:0:0:
402,192,292715,1,0,0:0:0:0:
36,192,292884,1,0,0:0:0:0:
256,192,292884,1,0,0:0:0:0:
475,192,292884,1,0,0:0:0:0:
109,192,293054,1,0,0:0:0:0:
182,192,293139,1,0,0:0:0:0:
256,192,293223,1,0,0:0:0:0:
329,192,293223,1,0,0:0:0:0:
182,192,293308,1,0,0:0:0:0:
329,192,293393,1,0,0:0:0:0:
36,192,293562,1,0,0:0:0:0:
182,192,293562,1,0,0:0:0:0:
475,192,293562,1,0,0:0:0:0:
402,192,293647,1,0,0:0:0:0:
182,192,293817,1,0,0:0:0:0:
256,192,293901,1,0,0:0:0:0:
475,192,293986,1,0,0:0:0:0:
329,192,294071,1,0,0:0:0:0:
36,192,294240,1,0,0:0:0:0:
182,192,294240,1,0,0:0:0:0:
329,192,294240,1,0,0:0:0:0:
109,192,294410,1,0,0:0:0:0:
182,192,294495,1,0,0:0:0:0:
36,192,294579,1,0,0:0:0:0:
256,192,294579,1,0,0:0:0:0:
329,192,294664,1,0,0:0:0:0:
402,192,294749,1,0,0:0:0:0:
109,192,294918,1,0,0:0:0:0:
256,192,294918,1,0,0:0:0:0:
475,192,294918,1,0,0:0:0:0:
329,192,295003,1,0,0:0:0:0:
182,192,295088,1,0,0:0:0:0:
402,192,295173,1,0,0:0:0:0:
256,192,295257,1,0,0:0:0:0:
109,192,295342,1,0,0:0:0:0:
329,192,295427,1,0,0:0:0:0:
36,192,295596,1,0,0:0:0:0:
182,192,295596,1,0,0:0:0:0:
402,192,295596,1,0,0:0:0:0:
36,192,295766,1,0,0:0:0:0:
402,192,295850,1,0,0:0:0:0:
109,192,295935,1,0,0:0:0:0:
329,192,295935,1,0,0:0:0:0:
182,192,296020,1,0,0:0:0:0:
402,192,296105,1,0,0:0:0:0:
36,192,296274,1,0,0:0:0:0:
109,192,296274,1,0,0:0:0:0:
475,192,296274,1,0,0:0:0:0:
402,192,296359,1,0,0:0:0:0:
182,192,296444,1,0,0:0:0:0:
329,192,296528,1,0,0:0:0:0:
109,192,296613,1,0,0:0:0:0:
256,192,296613,1,0,0:0:0:0:
36,192,296698,1,0,0:0:0:0:
402,192,296783,1,0,0:0:0:0:
36,192,296952,1,0,0:0:0:0:
256,192,296952,1,0,0:0:0:0:
475,192,296952,1,0,0:0:0:0:
475,192,297122,1,0,0:0:0:0:
329,192,297206,1,0,0:0:0:0:
109,192,297291,1,0,0:0:0:0:
182,192,297291,1,0,0:0:0:0:
36,192,297376,1,0,0:0:0:0:
475,192,297461,1,0,0:0:0:0:
36,192,297630,1,0,0:0:0:0:
182,192,297630,1,0,0:0:0:0:
402,192,297630,1,0,0:0:0:0:
329,192,297715,1,0,0:0:0:0:
36,192,297800,1,0,0:0:0:0:
402,192,297884,1,0,0:0:0:0:
109,192,297969,1,0,0:0:0:0:
256,192,297969,1,0,0:0:0:0:
182,192,298054,1,0,0:0:0:0:
109,192,298139,1,0,0:0:0:0:
256,192,298139,1,0,0:0:0:0:
109,192,298308,1,0,0:0:0:0:
402,192,298308,1,0,0:0:0:0:
329,192,298393,1,0,0:0:0:0:
182,192,298478,1,0,0:0:0:0:
36,192,298562,1,0,0:0:0:0:
109,192,298647,1,0,0:0:0:0:
256,192,298647,1,0,0:0:0:0:
402,192,298647,1,0,0:0:0:0:
182,192,298732,1,0,0:0:0:0:
329,192,298817,1,0,0:0:0:0:
36,192,298901,1,0,0:0:0:0:
109,192,298986,1,0,0:0:0:0:
475,192,298986,1,0,0:0:0:0:
36,192,299071,1,0,0:0:0:0:
182,192,299156,1,0,0:0:0:0:
475,192,299240,1,0,0:0:0:0:
36,192,299325,1,0,0:0:0:0:
109,192,299325,1,0,0:0:0:0:
256,192,299325,1,0,0:0:0:0:
402,192,299410,1,0,0:0:0:0:
182,192,299495,1,0,0:0:0:0:
36,192,299579,1,0,0:0:0:0:
256,192,299664,1,0,0:0:0:0:
475,192,299664,1,0,0:0:0:0:
36,192,299749,1,0,0:0:0:0:
182,192,299834,1,0,0:0:0:0:
402,192,299918,1,0,0:0:0:0:
36,192,300003,1,0,0:0:0:0:
109,192,300003,1,0,0:0:0:0:
475,192,300003,1,0,0:0:0:0:
182,192,300088,1,0,0:0:0:0:
329,192,300173,1,0,0:0:0:0:
36,192,300257,1,0,0:0:0:0:
182,192,300342,1,0,0:0:0:0:
256,192,300342,1,0,0:0:0:0:
402,192,300427,1,0,0:0:0:0:
36,192,300511,1,0,0:0:0:0:
109,192,300596,1,0,0:0:0:0:
182,192,300681,1,0,0:0:0:0:
329,192,300681,1,0,0:0:0:0:
475,192,300681,1,0,0:0:0:0:
36,192,300766,1,0,0:0:0:0:
109,192,300850,1,0,0:0:0:0:
182,192,300935,1,0,0:0:0:0:
256,192,301020,1,0,0:0:0:0:
402,192,301020,1,0,0:0:0:0:
329,192,301105,1,0,0:0:0:0:
182,192,301189,1,0,0:0:0:0:
36,192,301274,1,0,0:0:0:0:
109,192,301359,1,0,0:0:0:0:
402,192,301359,1,0,0:0:0:0:
475,192,301359,1,0,0:0:0:0:
182,192,301444,1,0,0:0:0:0:
329,192,301528,1,0,0:0:0:0:
36,192,301613,1,0,0:0:0:0:
256,192,301698,1,0,0:0:0:0:
475,192,301698,1,0,0:0:0:0:
36,192,301783,1,0,0:0:0:0:
182,192,301867,1,0,0:0:0:0:
475,192,301952,1,0,0:0:0:0:
36,192,302037,1,0,0:0:0:0:
109,192,302037,1,0,0:0:0:0:
256,192,302037,1,0,0:0:0:0:
402,192,302122,1,0,0:0:0:0:
182,192,302206,1,0,0:0:0:0:
36,192,302291,1,0,0:0:0:0:
256,192,302376,1,0,0:0:0:0:
475,192,302376,1,0,0:0:0:0:
36,192,302461,1,0,0:0:0:0:
182,192,302545,1,0,0:0:0:0:
402,192,302630,1,0,0:0:0:0:
36,192,302715,1,0,0:0:0:0:
109,192,302715,1,0,0:0:0:0:
329,192,302715,1,0,0:0:0:0:
182,192,302800,1,0,0:0:0:0:
329,192,302884,1,0,0:0:0:0:
36,192,302969,1,0,0:0:0:0:
182,192,303054,1,0,0:0:0:0:
256,192,303054,1,0,0:0:0:0:
402,192,303139,1,0,0:0:0:0:
36,192,303223,1,0,0:0:0:0:
109,192,303308,1,0,0:0:0:0:
182,192,303393,1,0,0:0:0:0:
329,192,303393,1,0,0:0:0:0:
475,192,303393,1,0,0:0:0:0:
36,192,303478,1,0,0:0:0:0:
109,192,303562,1,0,0:0:0:0:
182,192,303647,1,0,0:0:0:0:
36,192,303732,1,0,0:0:0:0:
402,192,303732,1,0,0:0:0:0:
329,192,303817,1,0,0:0:0:0:
182,192,303901,1,0,0:0:0:0:
36,192,303986,1,0,0:0:0:0:
109,192,304071,1,0,0:0:0:0:
182,192,304156,1,0,0:0:0:0:
329,192,304240,1,0,0:0:0:0:
36,192,304325,1,0,0:0:0:0:
475,192,304410,1,0,0:0:0:0:
36,192,304495,1,0,0:0:0:0:
182,192,304579,1,0,0:0:0:0:
475,192,304664,1,0,0:0:0:0:
36,192,304749,1,0,0:0:0:0:
402,192,304834,1,0,0:0:0:0:
182,192,304918,1,0,0:0:0:0:
36,192,305003,1,0,0:0:0:0:
475,192,305088,1,0,0:0:0:0:
36,192,305173,1,0,0:0:0:0:
182,192,305257,1,0,0:0:0:0:
402,192,305342,1,0,0:0:0:0:
475,192,305427,1,0,0:0:0:0:
182,192,305511,1,0,0:0:0:0:
329,192,305596,1,0,0:0:0:0:
36,192,305681,1,0,0:0:0:0:
402,192,305850,1,0,0:0:0:0:
36,192,305935,1,0,0:0:0:0:
109,192,306020,1,0,0:0:0:0:
475,192,306105,1,0,0:0:0:0:
36,192,306189,1,0,0:0:0:0:
109,192,306274,1,0,0:0:0:0:
182,192,306359,1,0,0:0:0:0:
329,192,306444,1,0,0:0:0:0:
182,192,306528,1,0,0:0:0:0:
329,192,306613,1,0,0:0:0:0:
182,192,306698,1,0,0:0:0:0:
329,192,306783,1,0,0:0:0:0:
182,192,306867,1,0,0:0:0:0:
329,192,306952,1,0,0:0:0:0:
182,192,307037,1,0,0:0:0:0:
109,192,307122,1,0,0:0:0:0:
402,192,307206,1,0,0:0:0:0:
109,192,307291,1,0,0:0:0:0:
402,192,307376,1,0,0:0:0:0:
109,192,307461,1,0,0:0:0:0:
402,192,307545,1,0,0:0:0:0:
109,192,307630,1,0,0:0:0:0:
402,192,307715,1,0,0:0:0:0:
36,0,307800,128,0,308139:0:0:0:0:
109,192,307884,1,0,0:0:0:0:
182,192,307969,1,0,0:0:0:0:
256,192,308054,1,0,0:0:0:0:
475,0,308139,128,0,308478:0:0:0:0:
402,192,308223,1,0,0:0:0:0:
329,192,308308,1,0,0:0:0:0:
256,192,308393,1,0,0:0:0:0:
182,192,308478,1,0,0:0:0:0:
329,192,308562,1,0,0:0:0:0:
182,192,308647,1,0,0:0:0:0:
329,192,308732,1,0,0:0:0:0:
256,0,308817,128,0,309156:0:0:0:0:
182,192,308986,1,0,0:0:0:0:
329,192,309071,1,0,0:0:0:0:
36,192,309156,1,0,0:0:0:0:
182,192,309156,1,0,0:0:0:0:
36,192,309495,1,0,0:0:0:0:
182,192,309495,1,0,0:0:0:0:
329,192,309495,1,0,0:0:0:0:
36,192,309834,1,0,0:0:0:0:
182,192,309834,1,0,0:0:0:0:
36,192,310173,1,0,0:0:0:0:
182,192,310173,1,0,0:0:0:0:
329,192,310173,1,0,0:0:0:0:
329,192,310511,1,0,0:0:0:0:
475,192,310511,1,0,0:0:0:0:
182,192,310850,1,0,0:0:0:0:
329,192,310850,1,0,0:0:0:0:
475,192,310850,1,0,0:0:0:0:
329,192,311189,1,0,0:0:0:0:
475,192,311189,1,0,0:0:0:0:
182,192,311528,1,0,0:0:0:0:
329,192,311528,1,0,0:0:0:0:
475,192,311528,1,0,0:0:0:0:
36,192,311867,1,0,0:0:0:0:
182,192,311867,1,0,0:0:0:0:
36,192,312206,1,0,0:0:0:0:
182,192,312206,1,0,0:0:0:0:
329,192,312206,1,0,0:0:0:0:
36,192,312545,1,0,0:0:0:0:
182,192,312545,1,0,0:0:0:0:
36,192,312884,1,0,0:0:0:0:
182,192,312884,1,0,0:0:0:0:
329,192,312884,1,0,0:0:0:0:
329,192,313223,1,0,0:0:0:0:
475,192,313223,1,0,0:0:0:0:
182,192,313562,1,0,0:0:0:0:
329,192,313562,1,0,0:0:0:0:
475,192,313562,1,0,0:0:0:0:
329,192,313901,1,0,0:0:0:0:
475,192,313901,1,0,0:0:0:0:
182,192,314240,1,0,0:0:0:0:
329,192,314240,1,0,0:0:0:0:
475,192,314240,1,0,0:0:0:0:
182,192,314410,1,0,0:0:0:0:
329,192,314410,1,0,0:0:0:0:
36,192,314579,1,0,0:0:0:0:
182,192,314579,1,0,0:0:0:0:
36,192,314918,1,0,0:0:0:0:
182,192,314918,1,0,0:0:0:0:
329,192,314918,1,0,0:0:0:0:
36,192,315257,1,0,0:0:0:0:
182,192,315257,1,0,0:0:0:0:
36,192,315596,1,0,0:0:0:0:
182,192,315596,1,0,0:0:0:0:
329,192,315596,1,0,0:0:0:0:
329,192,315935,1,0,0:0:0:0:
475,192,315935,1,0,0:0:0:0:
182,192,316274,1,0,0:0:0:0:
329,192,316274,1,0,0:0:0:0:
475,192,316274,1,0,0:0:0:0:
329,192,316613,1,0,0:0:0:0:
475,192,316613,1,0,0:0:0:0:
182,192,316952,1,0,0:0:0:0:
329,192,316952,1,0,0:0:0:0:
475,192,316952,1,0,0:0:0:0:
36,192,317291,1,0,0:0:0:0:
182,192,317291,1,0,0:0:0:0:
36,192,317630,1,0,0:0:0:0:
182,192,317630,1,0,0:0:0:0:
329,192,317630,1,0,0:0:0:0:
36,192,317969,1,0,0:0:0:0:
182,192,317969,1,0,0:0:0:0:
36,192,318308,1,0,0:0:0:0:
182,192,318308,1,0,0:0:0:0:
329,192,318308,1,0,0:0:0:0:
329,192,318647,1,0,0:0:0:0:
475,192,318647,1,0,0:0:0:0:
182,192,318986,1,0,0:0:0:0:
329,192,318986,1,0,0:0:0:0:
475,192,318986,1,0,0:0:0:0:
329,192,319325,1,0,0:0:0:0:
475,192,319325,1,0,0:0:0:0:
182,192,319664,1,0,0:0:0:0:
329,192,319664,1,0,0:0:0:0:
475,192,319664,1,0,0:0:0:0:
182,192,319834,1,0,0:0:0:0:
329,192,319834,1,0,0:0:0:0:
36,192,320003,1,0,0:0:0:0:
182,192,320003,1,0,0:0:0:0:
36,192,320342,1,0,0:0:0:0:
182,192,320342,1,0,0:0:0:0:
329,192,320342,1,0,0:0:0:0:
36,192,320681,1,0,0:0:0:0:
182,192,320681,1,0,0:0:0:0:
36,192,321020,1,0,0:0:0:0:
182,192,321020,1,0,0:0:0:0:
329,192,321020,1,0,0:0:0:0:
329,192,321359,1,0,0:0:0:0:
475,192,321359,1,0,0:0:0:0:
182,192,321698,1,0,0:0:0:0:
329,192,321698,1,0,0:0:0:0:
475,192,321698,1,0,0:0:0:0:
329,192,322037,1,0,0:0:0:0:
475,192,322037,1,0,0:0:0:0:
182,192,322376,1,0,0:0:0:0:
329,192,322376,1,0,0:0:0:0:
475,192,322376,1,0,0:0:0:0:
36,192,322715,1,0,0:0:0:0:
182,192,322715,1,0,0:0:0:0:
36,192,323054,1,0,0:0:0:0:
182,192,323054,1,0,0:0:0:0:
329,192,323054,1,0,0:0:0:0:
36,192,323393,1,0,0:0:0:0:
182,192,323393,1,0,0:0:0:0:
36,192,323732,1,0,0:0:0:0:
182,192,323732,1,0,0:0:0:0:
329,192,323732,1,0,0:0:0:0:
329,192,324071,1,0,0:0:0:0:
475,192,324071,1,0,0:0:0:0:
182,192,324410,1,0,0:0:0:0:
329,192,324410,1,0,0:0:0:0:
475,192,324410,1,0,0:0:0:0:
329,192,324749,1,0,0:0:0:0:
475,192,324749,1,0,0:0:0:0:
182,192,325088,1,0,0:0:0:0:
329,192,325088,1,0,0:0:0:0:
475,192,325088,1,0,0:0:0:0:
182,192,325257,1,0,0:0:0:0:
329,192,325257,1,0,0:0:0:0:
36,192,325427,1,0,0:0:0:0:
182,192,325427,1,0,0:0:0:0:
36,192,325766,1,0,0:0:0:0:
182,192,325766,1,0,0:0:0:0:
329,192,325766,1,0,0:0:0:0:
36,192,326105,1,0,0:0:0:0:
182,192,326105,1,0,0:0:0:0:
36,192,326444,1,0,0:0:0:0:
182,192,326444,1,0,0:0:0:0:
329,192,326444,1,0,0:0:0:0:
329,192,326783,1,0,0:0:0:0:
475,192,326783,1,0,0:0:0:0:
182,192,327122,1,0,0:0:0:0:
329,192,327122,1,0,0:0:0:0:
475,192,327122,1,0,0:0:0:0:
329,192,327461,1,0,0:0:0:0:
475,192,327461,1,0,0:0:0:0:
182,192,327800,1,0,0:0:0:0:
329,192,327800,1,0,0:0:0:0:
475,192,327800,1,0,0:0:0:0:
109,192,328139,1,0,0:0:0:0:
182,192,328223,1,0,0:0:0:0:
402,192,328393,1,0,0:0:0:0:
329,192,328478,1,0,0:0:0:0:
109,192,328647,1,0,0:0:0:0:
329,192,328817,1,0,0:0:0:0:
402,192,328901,1,0,0:0:0:0:
182,192,329071,1,0,0:0:0:0:
109,192,329156,1,0,0:0:0:0:
329,192,329325,1,0,0:0:0:0:
182,192,329495,1,0,0:0:0:0:
109,192,329579,1,0,0:0:0:0:
402,192,329749,1,0,0:0:0:0:
329,192,329834,1,0,0:0:0:0:
256,192,330003,1,0,0:0:0:0:
109,192,330173,1,0,0:0:0:0:
182,192,330257,1,0,0:0:0:0:
402,192,330427,1,0,0:0:0:0:
329,192,330511,1,0,0:0:0:0:
256,192,330681,1,0,0:0:0:0:
36,192,330850,1,0,0:0:0:0:
109,192,330850,1,0,0:0:0:0:
182,192,330935,1,0,0:0:0:0:
402,192,331105,1,0,0:0:0:0:
36,192,331189,1,0,0:0:0:0:
256,192,331189,1,0,0:0:0:0:
329,192,331189,1,0,0:0:0:0:
109,192,331359,1,0,0:0:0:0:
36,192,331528,1,0,0:0:0:0:
329,192,331528,1,0,0:0:0:0:
402,192,331613,1,0,0:0:0:0:
182,192,331783,1,0,0:0:0:0:
36,192,331867,1,0,0:0:0:0:
109,192,331867,1,0,0:0:0:0:
256,192,331867,1,0,0:0:0:0:
329,192,332037,1,0,0:0:0:0:
36,192,332206,1,0,0:0:0:0:
182,192,332206,1,0,0:0:0:0:
109,192,332291,1,0,0:0:0:0:
402,192,332461,1,0,0:0:0:0:
36,192,332545,1,0,0:0:0:0:
329,192,332545,1,0,0:0:0:0:
475,192,332545,1,0,0:0:0:0:
256,192,332715,1,0,0:0:0:0:
36,192,332884,1,0,0:0:0:0:
109,192,332884,1,0,0:0:0:0:
182,192,332969,1,0,0:0:0:0:
402,192,333139,1,0,0:0:0:0:
36,192,333223,1,0,0:0:0:0:
329,192,333223,1,0,0:0:0:0:
475,192,333223,1,0,0:0:0:0:
256,192,333393,1,0,0:0:0:0:
36,192,333562,1,0,0:0:0:0:
109,192,333562,1,0,0:0:0:0:
182,192,333647,1,0,0:0:0:0:
402,192,333817,1,0,0:0:0:0:
36,192,333901,1,0,0:0:0:0:
256,192,333901,1,0,0:0:0:0:
329,192,333901,1,0,0:0:0:0:
109,192,334071,1,0,0:0:0:0:
36,192,334240,1,0,0:0:0:0:
329,192,334240,1,0,0:0:0:0:
402,192,334325,1,0,0:0:0:0:
182,192,334495,1,0,0:0:0:0:
36,192,334579,1,0,0:0:0:0:
109,192,334579,1,0,0:0:0:0:
256,192,334579,1,0,0:0:0:0:
329,192,334749,1,0,0:0:0:0:
36,192,334918,1,0,0:0:0:0:
182,192,334918,1,0,0:0:0:0:
109,192,335003,1,0,0:0:0:0:
402,192,335173,1,0,0:0:0:0:
36,192,335257,1,0,0:0:0:0:
329,192,335257,1,0,0:0:0:0:
475,192,335257,1,0,0:0:0:0:
256,192,335427,1,0,0:0:0:0:
36,192,335596,1,0,0:0:0:0:
109,192,335596,1,0,0:0:0:0:
182,192,335681,1,0,0:0:0:0:
402,192,335850,1,0,0:0:0:0:
36,192,335935,1,0,0:0:0:0:
329,192,335935,1,0,0:0:0:0:
475,192,335935,1,0,0:0:0:0:
36,192,336105,1,0,0:0:0:0:
256,192,336105,1,0,0:0:0:0:
36,192,336274,1,0,0:0:0:0:
109,192,336274,1,0,0:0:0:0:
182,192,336359,1,0,0:0:0:0:
402,192,336528,1,0,0:0:0:0:
36,192,336613,1,0,0:0:0:0:
256,192,336613,1,0,0:0:0:0:
329,192,336613,1,0,0:0:0:0:
109,192,336783,1,0,0:0:0:0:
36,192,336952,1,0,0:0:0:0:
329,192,336952,1,0,0:0:0:0:
402,192,337037,1,0,0:0:0:0:
182,192,337206,1,0,0:0:0:0:
36,192,337291,1,0,0:0:0:0:
109,192,337291,1,0,0:0:0:0:
256,192,337291,1,0,0:0:0:0:
329,192,337461,1,0,0:0:0:0:
36,192,337630,1,0,0:0:0:0:
182,192,337630,1,0,0:0:0:0:
109,192,337715,1,0,0:0:0:0:
402,192,337884,1,0,0:0:0:0:
36,192,337969,1,0,0:0:0:0:
329,192,337969,1,0,0:0:0:0:
475,192,337969,1,0,0:0:0:0:
256,192,338139,1,0,0:0:0:0:
36,192,338308,1,0,0:0:0:0:
109,192,338308,1,0,0:0:0:0:
182,192,338393,1,0,0:0:0:0:
402,192,338562,1,0,0:0:0:0:
36,192,338647,1,0,0:0:0:0:
329,192,338647,1,0,0:0:0:0:
475,192,338647,1,0,0:0:0:0:
256,192,338817,1,0,0:0:0:0:
36,192,338986,1,0,0:0:0:0:
109,192,338986,1,0,0:0:0:0:
182,192,339071,1,0,0:0:0:0:
402,192,339240,1,0,0:0:0:0:
36,192,339325,1,0,0:0:0:0:
256,192,339325,1,0,0:0:0:0:
329,192,339325,1,0,0:0:0:0:
109,192,339495,1,0,0:0:0:0:
36,192,339664,1,0,0:0:0:0:
329,192,339664,1,0,0:0:0:0:
402,192,339749,1,0,0:0:0:0:
182,192,339918,1,0,0:0:0:0:
36,192,340003,1,0,0:0:0:0:
109,192,340003,1,0,0:0:0:0:
256,192,340003,1,0,0:0:0:0:
329,192,340173,1,0,0:0:0:0:
36,192,340342,1,0,0:0:0:0:
182,192,340342,1,0,0:0:0:0:
109,192,340427,1,0,0:0:0:0:
402,192,340596,1,0,0:0:0:0:
36,192,340681,1,0,0:0:0:0:
329,192,340681,1,0,0:0:0:0:
475,192,340681,1,0,0:0:0:0:
256,192,340850,1,0,0:0:0:0:
36,192,341020,1,0,0:0:0:0:
109,192,341020,1,0,0:0:0:0:
182,192,341105,1,0,0:0:0:0:
402,192,341274,1,0,0:0:0:0:
36,192,341359,1,0,0:0:0:0:
329,192,341359,1,0,0:0:0:0:
475,192,341359,1,0,0:0:0:0:
36,192,341528,1,0,0:0:0:0:
256,192,341528,1,0,0:0:0:0:
36,192,341698,1,0,0:0:0:0:
109,192,341698,1,0,0:0:0:0:
182,192,341783,1,0,0:0:0:0:
402,192,341952,1,0,0:0:0:0:
36,192,342037,1,0,0:0:0:0:
256,192,342037,1,0,0:0:0:0:
329,192,342037,1,0,0:0:0:0:
109,192,342206,1,0,0:0:0:0:
36,192,342376,1,0,0:0:0:0:
329,192,342376,1,0,0:0:0:0:
402,192,342461,1,0,0:0:0:0:
182,192,342630,1,0,0:0:0:0:
36,192,342715,1,0,0:0:0:0:
109,192,342715,1,0,0:0:0:0:
256,192,342715,1,0,0:0:0:0:
329,192,342884,1,0,0:0:0:0:
36,192,343054,1,0,0:0:0:0:
182,192,343054,1,0,0:0:0:0:
109,192,343139,1,0,0:0:0:0:
402,192,343308,1,0,0:0:0:0:
36,192,343393,1,0,0:0:0:0:
329,192,343393,1,0,0:0:0:0:
475,192,343393,1,0,0:0:0:0:
256,192,343562,1,0,0:0:0:0:
36,192,343732,1,0,0:0:0:0:
109,192,343732,1,0,0:0:0:0:
182,192,343817,1,0,0:0:0:0:
402,192,343986,1,0,0:0:0:0:
36,192,344071,1,0,0:0:0:0:
329,192,344071,1,0,0:0:0:0:
475,192,344071,1,0,0:0:0:0:
256,192,344240,1,0,0:0:0:0:
36,192,344410,1,0,0:0:0:0:
109,192,344410,1,0,0:0:0:0:
182,192,344495,1,0,0:0:0:0:
402,192,344664,1,0,0:0:0:0:
36,192,344749,1,0,0:0:0:0:
256,192,344749,1,0,0:0:0:0:
329,192,344749,1,0,0:0:0:0:
109,192,344918,1,0,0:0:0:0:
36,192,345088,1,0,0:0:0:0:
329,192,345088,1,0,0:0:0:0:
402,192,345173,1,0,0:0:0:0:
182,192,345342,1,0,0:0:0:0:
36,192,345427,1,0,0:0:0:0:
109,192,345427,1,0,0:0:0:0:
256,192,345427,1,0,0:0:0:0:
329,192,345596,1,0,0:0:0:0:
36,192,345766,1,0,0:0:0:0:
182,192,345766,1,0,0:0:0:0:
109,192,345850,1,0,0:0:0:0:
402,192,346020,1,0,0:0:0:0:
36,192,346105,1,0,0:0:0:0:
329,192,346105,1,0,0:0:0:0:
475,192,346105,1,0,0:0:0:0:
256,192,346274,1,0,0:0:0:0:
36,192,346444,1,0,0:0:0:0:
109,192,346444,1,0,0:0:0:0:
182,192,346528,1,0,0:0:0:0:
402,192,346698,1,0,0:0:0:0:
36,192,346783,1,0,0:0:0:0:
329,192,346783,1,0,0:0:0:0:
475,192,346783,1,0,0:0:0:0:
36,192,346952,1,0,0:0:0:0:
256,192,346952,1,0,0:0:0:0:
36,192,347122,1,0,0:0:0:0:
109,192,347122,1,0,0:0:0:0:
182,192,347206,1,0,0:0:0:0:
402,192,347376,1,0,0:0:0:0:
36,192,347461,1,0,0:0:0:0:
256,192,347461,1,0,0:0:0:0:
329,192,347461,1,0,0:0:0:0:
109,192,347630,1,0,0:0:0:0:
36,192,347800,1,0,0:0:0:0:
329,192,347800,1,0,0:0:0:0:
402,192,347884,1,0,0:0:0:0:
182,192,348054,1,0,0:0:0:0:
36,192,348139,1,0,0:0:0:0:
109,192,348139,1,0,0:0:0:0:
256,192,348139,1,0,0:0:0:0:
329,192,348308,1,0,0:0:0:0:
36,192,348478,1,0,0:0:0:0:
182,192,348478,1,0,0:0:0:0:
109,192,348562,1,0,0:0:0:0:
402,192,348732,1,0,0:0:0:0:
36,192,348817,1,0,0:0:0:0:
329,192,348817,1,0,0:0:0:0:
475,192,348817,1,0,0:0:0:0:
256,192,348986,1,0,0:0:0:0:
36,192,349156,1,0,0:0:0:0:
109,192,349156,1,0,0:0:0:0:
182,192,349240,1,0,0:0:0:0:
402,192,349410,1,0,0:0:0:0:
36,192,349495,1,0,0:0:0:0:
329,192,349495,1,0,0:0:0:0:
475,192,349495,1,0,0:0:0:0:
256,192,349664,1,0,0:0:0:0:
109,192,349834,1,0,0:0:0:0:
182,192,349918,1,0,0:0:0:0:
402,192,350088,1,0,0:0:0:0:
256,192,350173,1,0,0:0:0:0:
329,192,350173,1,0,0:0:0:0:
109,192,350342,1,0,0:0:0:0:
329,192,350511,1,0,0:0:0:0:
402,192,350596,1,0,0:0:0:0:
182,192,350766,1,0,0:0:0:0:
109,192,350850,1,0,0:0:0:0:
256,192,350850,1,0,0:0:0:0:
329,192,351020,1,0,0:0:0:0:
182,192,351189,1,0,0:0:0:0:
256,192,351189,1,0,0:0:0:0:
109,192,351274,1,0,0:0:0:0:
402,192,351444,1,0,0:0:0:0:
36,192,351528,1,0,0:0:0:0:
329,192,351528,1,0,0:0:0:0:
475,192,351528,1,0,0:0:0:0:
256,192,351698,1,0,0:0:0:0:
36,192,351867,1,0,0:0:0:0:
109,192,351867,1,0,0:0:0:0:
182,192,351952,1,0,0:0:0:0:
329,192,352122,1,0,0:0:0:0:
402,192,352122,1,0,0:0:0:0:
36,192,352206,1,0,0:0:0:0:
475,192,352206,1,0,0:0:0:0:
109,192,352291,1,0,0:0:0:0:
256,192,352376,1,0,0:0:0:0:
329,192,352461,1,0,0:0:0:0:
109,192,352545,1,0,0:0:0:0:
182,192,352545,1,0,0:0:0:0:
256,192,352545,1,0,0:0:0:0:
329,192,352630,1,0,0:0:0:0:
475,192,352715,1,0,0:0:0:0:
329,192,352800,1,0,0:0:0:0:
36,192,352884,1,0,0:0:0:0:
109,192,352884,1,0,0:0:0:0:
182,192,352884,1,0,0:0:0:0:
402,192,352969,1,0,0:0:0:0:
475,192,353054,1,0,0:0:0:0:
402,192,353139,1,0,0:0:0:0:
109,192,353223,1,0,0:0:0:0:
182,192,353223,1,0,0:0:0:0:
329,192,353308,1,0,0:0:0:0:
475,192,353393,1,0,0:0:0:0:
329,192,353478,1,0,0:0:0:0:
36,192,353562,1,0,0:0:0:0:
109,192,353562,1,0,0:0:0:0:
182,192,353562,1,0,0:0:0:0:
402,192,353647,1,0,0:0:0:0:
475,192,353732,1,0,0:0:0:0:
402,192,353817,1,0,0:0:0:0:
109,192,353901,1,0,0:0:0:0:
182,192,353901,1,0,0:0:0:0:
329,192,353986,1,0,0:0:0:0:
475,192,354071,1,0,0:0:0:0:
329,192,354156,1,0,0:0:0:0:
36,192,354240,1,0,0:0:0:0:
109,192,354240,1,0,0:0:0:0:
182,192,354240,1,0,0:0:0:0:
402,192,354325,1,0,0:0:0:0:
475,192,354410,1,0,0:0:0:0:
402,192,354495,1,0,0:0:0:0:
109,192,354579,1,0,0:0:0:0:
182,192,354579,1,0,0:0:0:0:
329,192,354664,1,0,0:0:0:0:
475,192,354749,1,0,0:0:0:0:
329,192,354834,1,0,0:0:0:0:
36,192,354918,1,0,0:0:0:0:
109,192,354918,1,0,0:0:0:0:
182,192,354918,1,0,0:0:0:0:
402,192,355003,1,0,0:0:0:0:
475,192,355088,1,0,0:0:0:0:
402,192,355173,1,0,0:0:0:0:
109,192,355257,1,0,0:0:0:0:
182,192,355257,1,0,0:0:0:0:
329,192,355342,1,0,0:0:0:0:
475,192,355427,1,0,0:0:0:0:
329,192,355511,1,0,0:0:0:0:
36,192,355596,1,0,0:0:0:0:
109,192,355596,1,0,0:0:0:0:
182,192,355596,1,0,0:0:0:0:
402,192,355681,1,0,0:0:0:0:
475,192,355766,1,0,0:0:0:0:
402,192,355850,1,0,0:0:0:0:
109,192,355935,1,0,0:0:0:0:
182,192,355935,1,0,0:0:0:0:
329,192,356020,1,0,0:0:0:0:
475,192,356105,1,0,0:0:0:0:
329,192,356189,1,0,0:0:0:0:
36,192,356274,1,0,0:0:0:0:
109,192,356274,1,0,0:0:0:0:
182,192,356274,1,0,0:0:0:0:
402,192,356359,1,0,0:0:0:0:
475,192,356444,1,0,0:0:0:0:
402,192,356528,1,0,0:0:0:0:
109,192,356613,1,0,0:0:0:0:
182,192,356613,1,0,0:0:0:0:
329,192,356698,1,0,0:0:0:0:
475,192,356783,1,0,0:0:0:0:
329,192,356867,1,0,0:0:0:0:
36,192,356952,1,0,0:0:0:0:
109,192,356952,1,0,0:0:0:0:
182,192,356952,1,0,0:0:0:0:
402,192,357037,1,0,0:0:0:0:
475,192,357122,1,0,0:0:0:0:
402,192,357206,1,0,0:0:0:0:
109,192,357291,1,0,0:0:0:0:
182,192,357291,1,0,0:0:0:0:
329,192,357376,1,0,0:0:0:0:
475,192,357461,1,0,0:0:0:0:
329,192,357545,1,0,0:0:0:0:
36,192,357630,1,0,0:0:0:0:
109,192,357630,1,0,0:0:0:0:
182,192,357630,1,0,0:0:0:0:
402,192,357715,1,0,0:0:0:0:
36,192,357800,1,0,0:0:0:0:
475,192,357800,1,0,0:0:0:0:
402,192,357884,1,0,0:0:0:0:
109,192,357969,1,0,0:0:0:0:
182,192,357969,1,0,0:0:0:0:
182,192,358054,1,0,0:0:0:0:
36,192,358139,1,0,0:0:0:0:
182,192,358223,1,0,0:0:0:0:
475,192,358308,1,0,0:0:0:0:
402,192,358308,1,0,0:0:0:0:
329,192,358308,1,0,0:0:0:0:
109,192,358393,1,0,0:0:0:0:
36,192,358478,1,0,0:0:0:0:
109,192,358562,1,0,0:0:0:0:
402,192,358647,1,0,0:0:0:0:
329,192,358647,1,0,0:0:0:0:
182,192,358732,1,0,0:0:0:0:
36,192,358817,1,0,0:0:0:0:
182,192,358901,1,0,0:0:0:0:
475,192,358986,1,0,0:0:0:0:
402,192,358986,1,0,0:0:0:0:
329,192,358986,1,0,0:0:0:0:
109,192,359071,1,0,0:0:0:0:
36,192,359156,1,0,0:0:0:0:
109,192,359240,1,0,0:0:0:0:
402,192,359325,1,0,0:0:0:0:
329,192,359325,1,0,0:0:0:0:
182,192,359410,1,0,0:0:0:0:
36,192,359495,1,0,0:0:0:0:
182,192,359579,1,0,0:0:0:0:
475,192,359664,1,0,0:0:0:0:
402,192,359664,1,0,0:0:0:0:
329,192,359664,1,0,0:0:0:0:
109,192,359749,1,0,0:0:0:0:
36,192,359834,1,0,0:0:0:0:
109,192,359918,1,0,0:0:0:0:
402,192,360003,1,0,0:0:0:0:
329,192,360003,1,0,0:0:0:0:
182,192,360088,1,0,0:0:0:0:
36,192,360173,1,0,0:0:0:0:
182,192,360257,1,0,0:0:0:0:
475,192,360342,1,0,0:0:0:0:
402,192,360342,1,0,0:0:0:0:
329,192,360342,1,0,0:0:0:0:
109,192,360427,1,0,0:0:0:0:
36,192,360511,1,0,0:0:0:0:
109,192,360596,1,0,0:0:0:0:
402,192,360681,1,0,0:0:0:0:
329,192,360681,1,0,0:0:0:0:
182,192,360766,1,0,0:0:0:0:
36,192,360850,1,0,0:0:0:0:
182,192,360935,1,0,0:0:0:0:
475,192,361020,1,0,0:0:0:0:
402,192,361020,1,0,0:0:0:0:
329,192,361020,1,0,0:0:0:0:
109,192,361105,1,0,0:0:0:0:
36,192,361189,1,0,0:0:0:0:
109,192,361274,1,0,0:0:0:0:
402,192,361359,1,0,0:0:0:0:
329,192,361359,1,0,0:0:0:0:
182,192,361444,1,0,0:0:0:0:
36,192,361528,1,0,0:0:0:0:
182,192,361613,1,0,0:0:0:0:
475,192,361698,1,0,0:0:0:0:
402,192,361698,1,0,0:0:0:0:
329,192,361698,1,0,0:0:0:0:
109,192,361783,1,0,0:0:0:0:
36,192,361867,1,0,0:0:0:0:
109,192,361952,1,0,0:0:0:0:
402,192,362037,1,0,0:0:0:0:
329,192,362037,1,0,0:0:0:0:
182,192,362122,1,0,0:0:0:0:
36,192,362206,1,0,0:0:0:0:
182,192,362291,1,0,0:0:0:0:
475,192,362376,1,0,0:0:0:0:
402,192,362376,1,0,0:0:0:0:
329,192,362376,1,0,0:0:0:0:
109,192,362461,1,0,0:0:0:0:
36,192,362545,1,0,0:0:0:0:
109,192,362630,1,0,0:0:0:0:
402,192,362715,1,0,0:0:0:0:
329,192,362715,1,0,0:0:0:0:
182,192,362800,1,0,0:0:0:0:
36,192,362884,1,0,0:0:0:0:
182,192,362969,1,0,0:0:0:0:
475,192,363054,1,0,0:0:0:0:
402,192,363054,1,0,0:0:0:0:
329,192,363054,1,0,0:0:0:0:
109,192,363139,1,0,0:0:0:0:
475,192,363223,1,0,0:0:0:0:
36,192,363223,1,0,0:0:0:0:
109,192,363308,1,0,0:0:0:0:
402,192,363393,1,0,0:0:0:0:
329,192,363393,1,0,0:0:0:0:
182,192,363478,1,0,0:0:0:0:
36,192,363562,1,0,0:0:0:0:
182,192,363647,1,0,0:0:0:0:
475,192,363732,1,0,0:0:0:0:
402,192,363732,1,0,0:0:0:0:
329,192,363732,1,0,0:0:0:0:
109,192,363817,1,0,0:0:0:0:
36,192,363901,1,0,0:0:0:0:
109,192,363986,1,0,0:0:0:0:
402,192,364071,1,0,0:0:0:0:
329,192,364071,1,0,0:0:0:0:
182,192,364156,1,0,0:0:0:0:
36,192,364240,1,0,0:0:0:0:
182,192,364325,1,0,0:0:0:0:
475,192,364410,1,0,0:0:0:0:
402,192,364410,1,0,0:0:0:0:
329,192,364410,1,0,0:0:0:0:
109,192,364494,1,0,0:0:0:0:
475,192,364579,1,0,0:0:0:0:
402,192,364664,1,0,0:0:0:0:
109,192,364749,1,0,0:0:0:0:
182,192,364749,1,0,0:0:0:0:
329,192,364834,1,0,0:0:0:0:
475,192,364918,1,0,0:0:0:0:
329,192,365003,1,0,0:0:0:0:
36,192,365088,1,0,0:0:0:0:
109,192,365088,1,0,0:0:0:0:
182,192,365088,1,0,0:0:0:0:
402,192,365173,1,0,0:0:0:0:
475,192,365257,1,0,0:0:0:0:
402,192,365342,1,0,0:0:0:0:
109,192,365427,1,0,0:0:0:0:
182,192,365427,1,0,0:0:0:0:
329,192,365511,1,0,0:0:0:0:
475,192,365596,1,0,0:0:0:0:
329,192,365681,1,0,0:0:0:0:
36,192,365766,1,0,0:0:0:0:
109,192,365766,1,0,0:0:0:0:
182,192,365766,1,0,0:0:0:0:
402,192,365850,1,0,0:0:0:0:
475,192,365935,1,0,0:0:0:0:
402,192,366020,1,0,0:0:0:0:
182,192,366105,1,0,0:0:0:0:
329,192,366189,1,0,0:0:0:0:
182,192,366274,1,0,0:0:0:0:
329,192,366359,1,0,0:0:0:0:
109,192,366444,1,0,0:0:0:0:
402,192,366528,1,0,0:0:0:0:
109,192,366613,1,0,0:0:0:0:
402,192,366698,1,0,0:0:0:0:
36,192,366783,1,0,0:0:0:0:
109,192,366867,1,0,0:0:0:0:
182,192,366952,1,0,0:0:0:0:
109,192,367037,1,0,0:0:0:0:
475,192,367122,1,0,0:0:0:0:
402,192,367206,1,0,0:0:0:0:
329,192,367291,1,0,0:0:0:0:
402,192,367376,1,0,0:0:0:0:
109,192,367461,1,0,0:0:0:0:
182,192,367545,1,0,0:0:0:0:
256,192,367630,1,0,0:0:0:0:
182,192,367715,1,0,0:0:0:0:
402,192,367800,1,0,0:0:0:0:
329,192,367884,1,0,0:0:0:0:
256,192,367969,1,0,0:0:0:0:
329,192,368054,1,0,0:0:0:0:
36,192,368139,1,0,0:0:0:0:
182,192,368223,1,0,0:0:0:0:
109,192,368308,1,0,0:0:0:0:
182,192,368393,1,0,0:0:0:0:
475,192,368478,1,0,0:0:0:0:
329,192,368562,1,0,0:0:0:0:
402,192,368647,1,0,0:0:0:0:
329,192,368732,1,0,0:0:0:0:
182,192,368817,1,0,0:0:0:0:
402,192,368901,1,0,0:0:0:0:
109,192,368986,1,0,0:0:0:0:
329,192,369071,1,0,0:0:0:0:
256,192,369156,1,0,0:0:0:0:
182,192,369240,1,0,0:0:0:0:
256,192,369325,1,0,0:0:0:0:
329,192,369410,1,0,0:0:0:0:
256,192,369495,1,0,0:0:0:0:
109,192,369579,1,0,0:0:0:0:
256,192,369664,1,0,0:0:0:0:
402,192,369749,1,0,0:0:0:0:
256,192,369834,1,0,0:0:0:0:
36,192,369918,1,0,0:0:0:0:
256,192,370003,1,0,0:0:0:0:
475,192,370088,1,0,0:0:0:0:
256,192,370173,1,0,0:0:0:0:
182,192,370257,1,0,0:0:0:0:
475,192,370342,1,0,0:0:0:0:
329,192,370427,1,0,0:0:0:0:
36,192,370511,1,0,0:0:0:0:
182,192,370596,1,0,0:0:0:0:
475,192,370681,1,0,0:0:0:0:
329,192,370766,1,0,0:0:0:0:
182,192,370850,1,0,0:0:0:0:
329,192,370935,1,0,0:0:0:0:
475,192,371020,1,0,0:0:0:0:
182,192,371105,1,0,0:0:0:0:
36,192,371189,1,0,0:0:0:0:
182,192,371274,1,0,0:0:0:0:
329,192,371359,1,0,0:0:0:0:
402,192,371444,1,0,0:0:0:0:
36,192,371528,1,0,0:0:0:0:
475,192,371528,1,0,0:0:0:0:
402,192,371613,1,0,0:0:0:0:
329,192,371698,1,0,0:0:0:0:
256,192,371783,1,0,0:0:0:0:
182,192,371867,1,0,0:0:0:0:
109,192,371952,1,0,0:0:0:0:
36,192,372037,1,0,0:0:0:0:
109,192,372122,1,0,0:0:0:0:
182,192,372206,1,0,0:0:0:0:
256,192,372291,1,0,0:0:0:0:
329,192,372376,1,0,0:0:0:0:
402,192,372461,1,0,0:0:0:0:
475,192,372545,1,0,0:0:0:0:
402,192,372630,1,0,0:0:0:0:
329,192,372715,1,0,0:0:0:0:
256,192,372800,1,0,0:0:0:0:
182,192,372884,1,0,0:0:0:0:
256,0,373562,128,0,373901:0:0:0:0:
182,0,373901,128,0,374240:0:0:0:0:
329,0,373901,128,0,374240:0:0:0:0:
36,0,374240,128,0,379664:0:0:0:0:
256,0,374240,128,0,379664:0:0:0:0:
475,0,374240,128,0,379664:0:0:0:0:
