osu file format v14

[General]
AudioFilename: audio.mp3
AudioLeadIn: 0
PreviewTime: -1
Countdown: 0
SampleSet: Normal
StackLeniency: 1
Mode: 0
LetterboxInBreaks: 0
EpilepsyWarning: 1
WidescreenStoryboard: 0

[Editor]
DistanceSpacing: 5.6
BeatDivisor: 1
GridSize: 32
TimelineZoom: 1

[Metadata]
Title:Shake speed
TitleUnicode:Shake speed
Artist:ur mom
ArtistUnicode:ur mom
Creator:kriscuciscool87
Version:expert
Source:
Tags:
BeatmapID:3383037
BeatmapSetID:1657455

[Difficulty]
HPDrainRate:5
CircleSize:5
OverallDifficulty:5
ApproachRate:5
SliderMultiplier:1.4
SliderTickRate:1

[Events]
//Background and Video events
Video,0,"IShowSpeed - Shake (Official Music Video).mp4"
//Break Periods
//Storyboard Layer 0 (Background)
//Storyboard Layer 1 (Fail)
//Storyboard Layer 2 (Pass)
//Storyboard Layer 3 (Foreground)
//Storyboard Layer 4 (Overlay)
//Storyboard Sound Samples

[TimingPoints]
-8.72727272727275,150,4,1,0,100,1,0

[HitObjects]
415,111,891,5,0,0:0:0:0:
187,295,1491,1,0,0:0:0:0:
137,142,2241,1,0,0:0:0:0:
326,278,2691,1,0,0:0:0:0:
282,101,3441,1,0,0:0:0:0:
154,342,4041,1,0,0:0:0:0:
386,182,4641,1,0,0:0:0:0:
240,85,5391,1,0,0:0:0:0:
237,203,5691,1,0,0:0:0:0:
126,140,5991,1,0,0:0:0:0:
298,209,6441,1,0,0:0:0:0:
293,131,6741,1,0,0:0:0:0:
229,228,7041,1,0,0:0:0:0:
175,138,7341,1,0,0:0:0:0:
285,225,7791,1,0,0:0:0:0:
313,119,8091,1,0,0:0:0:0:
305,222,8391,1,0,0:0:0:0:
253,97,8691,1,0,0:0:0:0:
217,195,8991,1,0,0:0:0:0:
214,102,9441,1,0,0:0:0:0:
172,189,9741,1,0,0:0:0:0:
238,141,10041,1,0,0:0:0:0:
275,224,10341,1,0,0:0:0:0:
235,148,10791,1,0,0:0:0:0:
362,245,11241,1,0,0:0:0:0:
91,182,11391,2,0,L|409:199,4,280
350,126,11991,1,0,0:0:0:0:
382,141,15891,1,0,0:0:0:0:
254,257,16191,1,0,0:0:0:0:
221,142,16491,1,0,0:0:0:0:
129,246,17241,1,0,0:0:0:0:
231,94,17541,1,0,0:0:0:0:
286,219,17991,1,0,0:0:0:0:
357,139,18441,1,0,0:0:0:0:
247,228,18891,1,0,0:0:0:0:
217,123,19191,1,0,0:0:0:0:
161,200,19491,1,0,0:0:0:0:
142,113,19791,1,0,0:0:0:0:
109,179,20091,1,0,0:0:0:0:
94,132,20541,1,0,0:0:0:0:
261,189,21141,1,0,0:0:0:0:
261,189,21441,1,0,0:0:0:0:
261,189,21741,1,0,0:0:0:0:
344,211,22341,1,0,0:0:0:0:
344,211,22791,1,0,0:0:0:0:
344,211,23091,1,0,0:0:0:0:
310,115,23691,1,0,0:0:0:0:
234,256,24441,1,0,0:0:0:0:
150,125,25041,1,0,0:0:0:0:
293,241,25641,1,0,0:0:0:0:
214,103,26391,1,0,0:0:0:0:
208,179,26541,1,0,0:0:0:0:
249,124,26691,1,0,0:0:0:0:
249,124,26841,1,0,0:0:0:0:
249,124,27141,1,0,0:0:0:0:
249,124,27291,1,0,0:0:0:0:
249,124,27441,1,0,0:0:0:0:
249,124,27591,1,0,0:0:0:0:
249,124,27741,1,0,0:0:0:0:
249,124,27891,1,0,0:0:0:0:
249,124,28191,1,0,0:0:0:0:
123,198,28941,1,0,0:0:0:0:
249,124,29241,1,0,0:0:0:0:
291,201,29541,1,0,0:0:0:0:
298,181,29841,1,0,0:0:0:0:
291,222,30291,5,0,0:0:0:0:
414,127,30591,1,0,0:0:0:0:
235,193,31041,1,0,0:0:0:0:
212,83,31341,1,0,0:0:0:0:
145,150,31641,1,0,0:0:0:0:
284,85,31941,1,0,0:0:0:0:
275,184,32391,1,0,0:0:0:0:
369,83,32691,1,0,0:0:0:0:
337,177,32991,1,0,0:0:0:0:
417,89,33291,1,0,0:0:0:0:
430,188,33591,1,0,0:0:0:0:
471,95,34041,1,0,0:0:0:0:
496,192,34341,1,0,0:0:0:0:
451,78,34641,1,0,0:0:0:0:
423,148,35091,1,0,0:0:0:0:
402,97,35391,1,0,0:0:0:0:
378,160,35691,1,0,0:0:0:0:
357,128,35991,1,0,0:0:0:0:
355,137,36291,1,0,0:0:0:0:
482,349,37041,1,0,0:0:0:0:
376,338,37341,1,0,0:0:0:0:
346,224,37641,1,0,0:0:0:0:
276,288,38091,1,0,0:0:0:0:
255,193,38391,1,0,0:0:0:0:
185,264,38691,1,0,0:0:0:0:
148,191,38991,1,0,0:0:0:0:
108,264,39291,1,0,0:0:0:0:
56,157,39741,1,0,0:0:0:0:
48,231,40041,1,0,0:0:0:0:
59,102,40341,1,0,0:0:0:0:
143,176,40641,1,0,0:0:0:0:
193,151,41091,1,0,0:0:0:0:
234,229,41391,1,0,0:0:0:0:
274,176,41691,1,0,0:0:0:0:
325,238,41991,1,0,0:0:0:0:
458,330,42441,1,0,0:0:0:0:
437,291,42741,1,0,0:0:0:0:
412,245,43041,1,0,0:0:0:0:
408,199,43341,1,0,0:0:0:0:
418,153,43641,1,0,0:0:0:0:
441,128,43941,1,0,0:0:0:0:
460,110,44241,1,0,0:0:0:0:
496,97,44691,1,0,0:0:0:0:
392,142,44991,1,0,0:0:0:0:
386,160,45441,1,0,0:0:0:0:
386,181,45741,1,0,0:0:0:0:
383,199,46041,1,0,0:0:0:0:
384,219,46341,1,0,0:0:0:0:
396,248,46641,1,0,0:0:0:0:
423,286,46941,1,0,0:0:0:0:
454,330,47391,1,0,0:0:0:0:
250,187,47691,1,0,0:0:0:0:
250,187,49041,1,0,0:0:0:0:
250,187,50241,1,0,0:0:0:0:
250,187,50991,1,0,0:0:0:0:
250,187,51741,1,0,0:0:0:0:
250,187,52041,1,0,0:0:0:0:
250,187,52341,1,0,0:0:0:0:
131,165,53091,1,0,0:0:0:0:
266,285,53691,1,0,0:0:0:0:
325,177,54441,1,0,0:0:0:0:
239,199,55041,1,0,0:0:0:0:
332,224,55641,1,0,0:0:0:0:
312,298,55941,1,0,0:0:0:0:
216,255,56391,1,0,0:0:0:0:
212,186,56691,1,0,0:0:0:0:
264,196,56991,1,0,0:0:0:0:
271,242,57441,1,0,0:0:0:0:
235,231,57741,1,0,0:0:0:0:
235,212,58041,1,0,0:0:0:0:
246,214,58341,1,0,0:0:0:0:
246,214,58641,1,0,0:0:0:0:
246,214,58941,1,0,0:0:0:0:
246,214,59391,1,0,0:0:0:0:
260,157,59691,1,0,0:0:0:0:
260,157,59991,1,0,0:0:0:0:
260,157,60291,1,0,0:0:0:0:
260,157,60591,1,0,0:0:0:0:
394,127,61041,1,0,0:0:0:0:
397,225,61341,1,0,0:0:0:0:
245,187,61641,1,0,0:0:0:0:
239,140,62091,1,0,0:0:0:0:
361,172,62391,1,0,0:0:0:0:
364,209,62691,1,0,0:0:0:0:
249,252,62991,1,0,0:0:0:0:
226,204,63441,1,0,0:0:0:0:
162,95,63741,5,0,0:0:0:0:
308,212,64041,1,0,0:0:0:0:
308,102,64341,1,0,0:0:0:0:
233,200,64791,1,0,0:0:0:0:
158,88,65091,1,0,0:0:0:0:
338,226,65391,1,0,0:0:0:0:
346,70,65691,1,0,0:0:0:0:
207,185,66141,1,0,0:0:0:0:
254,10,66441,1,0,0:0:0:0:
406,119,66741,1,0,0:0:0:0:
354,246,67041,1,0,0:0:0:0:
264,201,67491,1,0,0:0:0:0:
235,141,67791,1,0,0:0:0:0:
192,112,68091,1,0,0:0:0:0:
117,182,68391,1,0,0:0:0:0:
136,114,68691,1,0,0:0:0:0:
232,172,68991,1,0,0:0:0:0:
252,86,69291,1,0,0:0:0:0:
322,158,69591,1,0,0:0:0:0:
332,78,70041,1,0,0:0:0:0:
179,158,70341,1,0,0:0:0:0:
131,83,70641,1,0,0:0:0:0:
134,192,70941,1,0,0:0:0:0:
209,123,71391,1,0,0:0:0:0:
248,204,71691,1,0,0:0:0:0:
280,138,71991,1,0,0:0:0:0:
331,231,72441,1,0,0:0:0:0:
354,169,72741,1,0,0:0:0:0:
319,257,73041,1,0,0:0:0:0:
256,160,73341,1,0,0:0:0:0:
214,243,73641,1,0,0:0:0:0:
168,195,73941,1,0,0:0:0:0:
209,129,74391,1,0,0:0:0:0:
376,211,74541,1,0,0:0:0:0:
276,266,75141,1,0,0:0:0:0:
265,199,75441,1,0,0:0:0:0:
195,239,75591,1,0,0:0:0:0:
190,171,75891,1,0,0:0:0:0:
280,300,76491,1,0,0:0:0:0:
314,177,76941,1,0,0:0:0:0:
201,205,77241,1,0,0:0:0:0:
236,292,77691,1,0,0:0:0:0:
288,148,77991,1,0,0:0:0:0:
299,238,78291,1,0,0:0:0:0:
256,192,78441,12,0,79341,0:0:0:0:
260,192,79641,5,0,0:0:0:0:
195,194,79791,1,0,0:0:0:0:
237,132,80091,1,0,0:0:0:0:
333,146,80241,1,0,0:0:0:0:
333,146,80541,1,0,0:0:0:0:
333,146,80841,1,0,0:0:0:0:
333,146,80991,1,0,0:0:0:0:
185,209,81141,1,0,0:0:0:0:
185,209,81291,1,0,0:0:0:0:
428,240,81441,1,0,0:0:0:0:
124,85,81591,1,0,0:0:0:0:
71,198,81741,1,0,0:0:0:0:
333,146,81891,1,0,0:0:0:0:
213,265,82041,1,0,0:0:0:0:
122,98,82341,1,0,0:0:0:0:
225,224,82491,1,0,0:0:0:0:
217,103,82641,1,0,0:0:0:0:
189,166,82941,1,0,0:0:0:0:
154,203,83241,1,0,0:0:0:0:
288,260,83391,1,0,0:0:0:0:
272,117,83541,1,0,0:0:0:0:
243,202,83841,1,0,0:0:0:0:
194,206,83991,1,0,0:0:0:0:
182,188,84291,1,0,0:0:0:0:
291,268,84441,1,0,0:0:0:0:
296,204,84741,1,0,0:0:0:0:
315,156,85041,1,0,0:0:0:0:
183,268,85791,1,0,0:0:0:0:
183,268,85941,1,0,0:0:0:0:
270,163,86241,1,0,0:0:0:0:
270,163,86391,1,0,0:0:0:0:
216,268,87291,1,0,0:0:0:0:
216,268,87441,1,0,0:0:0:0:
201,181,87591,1,0,0:0:0:0:
201,181,87741,1,0,0:0:0:0:
345,265,88491,1,0,0:0:0:0:
277,114,88791,1,0,0:0:0:0:
213,191,89241,1,0,0:0:0:0:
168,111,89691,1,0,0:0:0:0:
188,193,89991,1,0,0:0:0:0:
203,138,90441,1,0,0:0:0:0:
203,138,90591,1,0,0:0:0:0:
203,138,90741,1,0,0:0:0:0:
285,140,91191,1,0,0:0:0:0:
285,140,91341,1,0,0:0:0:0:
285,140,91491,1,0,0:0:0:0:
327,212,92091,1,0,0:0:0:0:
327,212,92241,1,0,0:0:0:0:
327,212,92391,1,0,0:0:0:0:
352,320,93141,1,0,0:0:0:0:
322,238,93441,1,0,0:0:0:0:
261,320,94341,1,0,0:0:0:0:
245,182,95091,1,0,0:0:0:0:
244,194,95391,1,0,0:0:0:0:
179,171,95691,1,0,0:0:0:0:
281,197,96141,1,0,0:0:0:0:
292,120,96591,1,0,0:0:0:0:
196,257,97041,1,0,0:0:0:0:
297,124,97191,1,0,0:0:0:0:
327,254,97491,1,0,0:0:0:0:
323,143,97641,1,0,0:0:0:0:
254,228,97941,1,0,0:0:0:0:
253,162,98091,1,0,0:0:0:0:
221,182,98391,1,0,0:0:0:0:
197,188,99141,1,0,0:0:0:0:
305,263,99741,1,0,0:0:0:0:
292,172,100041,1,0,0:0:0:0:
246,272,100341,1,0,0:0:0:0:
228,172,100641,1,0,0:0:0:0:
213,265,100941,1,0,0:0:0:0:
190,189,101091,1,0,0:0:0:0:
211,270,101391,1,0,0:0:0:0:
266,177,101691,1,0,0:0:0:0:
271,238,101991,1,0,0:0:0:0:
279,202,102141,1,0,0:0:0:0:
279,202,102441,1,0,0:0:0:0:
279,202,102591,1,0,0:0:0:0:
279,202,102741,1,0,0:0:0:0:
279,202,102891,1,0,0:0:0:0:
279,202,103041,1,0,0:0:0:0:
238,174,103491,1,0,0:0:0:0:
238,174,103641,1,0,0:0:0:0:
238,174,103791,1,0,0:0:0:0:
273,188,104241,1,0,0:0:0:0:
273,188,104391,1,0,0:0:0:0:
273,188,104541,1,0,0:0:0:0:
198,141,105141,1,0,0:0:0:0:
237,246,105441,1,0,0:0:0:0:
287,138,105741,1,0,0:0:0:0:
308,291,106041,1,0,0:0:0:0:
355,127,106341,1,0,0:0:0:0:
381,287,106791,1,0,0:0:0:0:
402,143,107091,1,0,0:0:0:0:
451,263,107391,1,0,0:0:0:0:
479,120,107691,1,0,0:0:0:0:
477,55,107991,1,0,0:0:0:0:
378,45,108441,1,0,0:0:0:0:
360,135,108741,1,0,0:0:0:0:
328,64,109041,1,0,0:0:0:0:
301,174,109341,1,0,0:0:0:0:
256,68,109791,1,0,0:0:0:0:
225,176,110091,1,0,0:0:0:0:
162,79,110391,1,0,0:0:0:0:
181,217,110691,1,0,0:0:0:0:
164,98,110991,1,0,0:0:0:0:
228,224,111441,1,0,0:0:0:0:
243,100,111741,1,0,0:0:0:0:
297,258,112041,1,0,0:0:0:0:
354,107,112341,1,0,0:0:0:0:
392,273,112641,1,0,0:0:0:0:
96,275,113091,1,0,0:0:0:0:
109,60,113991,1,0,0:0:0:0:
236,142,114291,1,0,0:0:0:0:
255,72,114441,1,0,0:0:0:0:
135,113,115341,2,0,P|251:231|322:214,6,140
262,99,116991,2,0,L|237:299,3,140
264,129,118341,2,0,L|26:67,36,140
199,112,119091,1,0,0:0:0:0:
199,112,119691,1,0,0:0:0:0:
199,112,120291,1,0,0:0:0:0:
199,112,121041,1,0,0:0:0:0:
199,112,121791,1,0,0:0:0:0:
199,112,122391,1,0,0:0:0:0:
199,112,122991,1,0,0:0:0:0:
315,156,123741,1,0,0:0:0:0:
317,240,124041,1,0,0:0:0:0:
315,156,124341,1,0,0:0:0:0:
319,254,124641,1,0,0:0:0:0:
315,156,124941,1,0,0:0:0:0:
315,156,125241,1,0,0:0:0:0:
198,223,125541,1,0,0:0:0:0:
198,223,125691,1,0,0:0:0:0:
271,163,125841,1,0,0:0:0:0:
502,47,125991,1,0,0:0:0:0:
162,130,126441,1,0,0:0:0:0:
241,166,126741,1,0,0:0:0:0:
241,166,127041,1,0,0:0:0:0:
241,166,127191,1,0,0:0:0:0:
134,156,127491,1,0,0:0:0:0:
134,156,127641,1,0,0:0:0:0:
140,140,127941,1,0,0:0:0:0:
289,197,128391,1,0,0:0:0:0:
314,206,128691,1,0,0:0:0:0:
275,120,128991,1,0,0:0:0:0:
193,216,129291,1,0,0:0:0:0:
188,152,129591,1,0,0:0:0:0:
254,260,130341,1,0,0:0:0:0:
298,171,131091,1,0,0:0:0:0:
372,286,131691,1,0,0:0:0:0:
387,199,131991,1,0,0:0:0:0:
328,268,132441,1,0,0:0:0:0:
314,204,132741,1,0,0:0:0:0:
264,280,133041,1,0,0:0:0:0:
142,218,133341,1,0,0:0:0:0:
105,298,133641,1,0,0:0:0:0:
68,213,134091,1,0,0:0:0:0:
78,330,134391,1,0,0:0:0:0:
148,252,134691,1,0,0:0:0:0:
172,336,135141,1,0,0:0:0:0:
222,268,135441,1,0,0:0:0:0:
236,318,135741,1,0,0:0:0:0:
275,254,136041,1,0,0:0:0:0:
300,291,136341,1,0,0:0:0:0:
308,254,136641,1,0,0:0:0:0:
256,257,136941,1,0,0:0:0:0:
254,300,137391,1,0,0:0:0:0:
285,284,137691,1,0,0:0:0:0:
287,261,137991,1,0,0:0:0:0:
257,273,138291,1,0,0:0:0:0:
257,273,138591,1,0,0:0:0:0:
271,287,138891,1,0,0:0:0:0:
271,287,139341,1,0,0:0:0:0:
271,287,139641,1,0,0:0:0:0:
271,287,139791,1,0,0:0:0:0:
271,287,140091,1,0,0:0:0:0:
271,287,140391,1,0,0:0:0:0:
271,287,140691,1,0,0:0:0:0:
271,287,140991,1,0,0:0:0:0:
271,287,141891,1,0,0:0:0:0:
271,287,142191,1,0,0:0:0:0:
271,287,143241,1,0,0:0:0:0:
271,287,144591,1,0,0:0:0:0:
271,287,146241,1,0,0:0:0:0:
271,287,146541,1,0,0:0:0:0:
271,287,146841,1,0,0:0:0:0:
271,287,147141,1,0,0:0:0:0:
271,287,147441,1,0,0:0:0:0:
271,287,147741,1,0,0:0:0:0:
271,287,148041,1,0,0:0:0:0:
180,254,148791,1,0,0:0:0:0:
260,189,150141,1,0,0:0:0:0:
458,122,151491,1,0,0:0:0:0:
400,300,151941,1,0,0:0:0:0:
234,164,152691,1,0,0:0:0:0:
231,298,153441,1,0,0:0:0:0:
97,100,154041,1,0,0:0:0:0:
322,250,154791,1,0,0:0:0:0:
