osu file format v14

[General]
AudioFilename: audio.mp3
AudioLeadIn: 0
PreviewTime: -1
Countdown: 1
SampleSet: Soft
StackLeniency: 0.7
Mode: 3
LetterboxInBreaks: 0
SpecialStyle: 0
WidescreenStoryboard: 0

[Editor]
DistanceSpacing: 0.8
BeatDivisor: 4
GridSize: 8
TimelineZoom: 1.2

[Metadata]
Title:Night Walker
TitleUnicode:Night Walker
Artist:uno(IOSYS)
ArtistUnicode:uno(IOSYS)
Creator:C18-H27-NO3
Version:Lunatic
Source:Touhou
Tags:IOSYS, Touhou
BeatmapID:1940865
BeatmapSetID:909022

[Difficulty]
HPDrainRate:9
CircleSize:4
OverallDifficulty:8.5
ApproachRate:5
SliderMultiplier:1.4
SliderTickRate:1

[Events]
//Background and Video events
0,0,"Rumia.jpg",0,0
//Break Periods
2,192351,213892
//Storyboard Layer 0 (Background)
//Storyboard Layer 1 (Fail)
//Storyboard Layer 2 (Pass)
//Storyboard Layer 3 (Foreground)
//Storyboard Sound Samples

[TimingPoints]
504,352.941176470588,4,2,0,30,1,0

[HitObjects]
448,192,504,5,0,0:0:0:0:
320,192,504,1,0,0:0:0:0:
192,192,856,1,0,0:0:0:0:
64,192,856,1,0,0:0:0:0:
320,192,1209,1,0,0:0:0:0:
192,192,1209,1,0,0:0:0:0:
64,192,1562,1,0,0:0:0:0:
448,192,1562,1,0,0:0:0:0:
320,192,1915,1,0,0:0:0:0:
64,192,1915,1,0,0:0:0:0:
448,192,2268,1,0,0:0:0:0:
192,192,2268,1,0,0:0:0:0:
448,192,2621,1,0,0:0:0:0:
320,192,2621,1,0,0:0:0:0:
192,192,2974,1,0,0:0:0:0:
64,192,2974,1,0,0:0:0:0:
320,192,3327,1,0,0:0:0:0:
64,192,3327,1,0,0:0:0:0:
192,192,3680,1,0,0:0:0:0:
448,192,3680,1,0,0:0:0:0:
64,192,4033,1,0,0:0:0:0:
448,192,4033,1,0,0:0:0:0:
192,192,4386,1,0,0:0:0:0:
320,192,4386,1,0,0:0:0:0:
64,192,4739,1,0,0:0:0:0:
192,192,4739,1,0,0:0:0:0:
320,192,5092,1,0,0:0:0:0:
448,192,5092,1,0,0:0:0:0:
192,192,5445,1,0,0:0:0:0:
320,192,5445,1,0,0:0:0:0:
64,192,5798,1,0,0:0:0:0:
448,192,5798,1,0,0:0:0:0:
64,192,6151,1,0,0:0:0:0:
320,192,6151,1,0,0:0:0:0:
192,192,6151,128,0,11092:0:0:0:0:
64,192,6503,1,0,0:0:0:0:
448,192,6503,1,0,0:0:0:0:
64,192,6856,1,0,0:0:0:0:
320,192,6856,1,0,0:0:0:0:
64,192,7209,1,0,0:0:0:0:
448,192,7209,1,0,0:0:0:0:
320,192,7562,1,0,0:0:0:0:
64,192,7562,1,0,0:0:0:0:
64,192,7915,1,0,0:0:0:0:
448,192,7915,1,0,0:0:0:0:
64,192,8268,1,0,0:0:0:0:
320,192,8268,1,0,0:0:0:0:
64,192,8621,1,0,0:0:0:0:
448,192,8621,1,0,0:0:0:0:
320,192,8974,1,0,0:0:0:0:
64,192,8974,1,0,0:0:0:0:
448,192,9327,1,0,0:0:0:0:
64,192,9327,1,0,0:0:0:0:
320,192,9680,1,0,0:0:0:0:
64,192,9680,1,0,0:0:0:0:
448,192,10033,1,0,0:0:0:0:
64,192,10033,1,0,0:0:0:0:
320,192,10386,1,0,0:0:0:0:
320,192,10739,1,0,0:0:0:0:
320,192,11092,1,0,0:0:0:0:
448,192,11445,1,0,0:0:0:0:
64,192,11533,1,0,0:0:0:0:
448,192,11621,1,0,0:0:0:0:
64,192,11709,1,0,0:0:0:0:
192,192,11798,1,0,0:0:0:0:
320,192,11798,1,0,0:0:0:0:
192,192,11974,1,0,0:0:0:0:
192,192,12151,1,0,0:0:0:0:
448,192,12151,1,0,0:0:0:0:
448,192,12327,1,0,0:0:0:0:
448,192,12503,1,0,0:0:0:0:
320,192,12503,1,0,0:0:0:0:
320,192,12680,1,0,0:0:0:0:
320,192,12856,1,0,0:0:0:0:
64,192,12856,1,0,0:0:0:0:
64,192,13033,1,0,0:0:0:0:
64,192,13209,1,0,0:0:0:0:
192,192,13209,1,0,0:0:0:0:
192,192,13386,1,0,0:0:0:0:
448,192,13562,1,0,0:0:0:0:
192,192,13562,1,0,0:0:0:0:
448,192,13739,1,0,0:0:0:0:
192,192,13915,1,0,0:0:0:0:
448,192,13915,1,0,0:0:0:0:
192,192,14092,1,0,0:0:0:0:
192,192,14268,1,0,0:0:0:0:
320,192,14268,1,0,0:0:0:0:
320,192,14445,1,0,0:0:0:0:
320,192,14621,1,0,0:0:0:0:
448,192,14621,1,0,0:0:0:0:
448,192,14798,1,0,0:0:0:0:
64,192,14974,1,0,0:0:0:0:
448,192,14974,1,0,0:0:0:0:
64,192,15151,1,0,0:0:0:0:
64,192,15327,1,0,0:0:0:0:
192,192,15327,1,0,0:0:0:0:
192,192,15503,1,0,0:0:0:0:
320,192,15680,1,0,0:0:0:0:
192,192,15680,1,0,0:0:0:0:
320,192,15856,1,0,0:0:0:0:
320,192,16033,1,0,0:0:0:0:
448,192,16033,1,0,0:0:0:0:
448,192,16209,1,0,0:0:0:0:
448,192,16386,1,0,0:0:0:0:
192,192,16386,1,0,0:0:0:0:
192,192,16562,1,0,0:0:0:0:
192,192,16739,1,0,0:0:0:0:
320,192,16739,1,0,0:0:0:0:
320,192,16915,1,0,0:0:0:0:
64,192,17092,1,0,0:0:0:0:
320,192,17092,1,0,0:0:0:0:
64,192,17268,1,0,0:0:0:0:
64,192,17445,1,0,0:0:0:0:
320,192,17445,1,0,0:0:0:0:
192,192,17533,1,0,0:0:0:0:
448,192,17621,1,0,0:0:0:0:
320,192,17709,1,0,0:0:0:0:
192,192,17798,1,0,0:0:0:0:
64,192,17886,1,0,0:0:0:0:
320,192,17974,1,0,0:0:0:0:
448,192,18062,1,0,0:0:0:0:
192,192,18062,1,0,0:0:0:0:
64,192,18151,1,0,0:0:0:0:
448,192,18239,1,0,0:0:0:0:
320,192,18327,1,0,0:0:0:0:
64,192,18415,1,0,0:0:0:0:
192,192,18503,1,0,0:0:0:0:
320,192,18592,1,0,0:0:0:0:
448,192,18680,1,0,0:0:0:0:
192,192,18768,1,0,0:0:0:0:
64,192,18856,1,0,0:0:0:0:
320,192,18945,1,0,0:0:0:0:
448,192,19033,1,0,0:0:0:0:
64,192,19121,1,0,0:0:0:0:
192,192,19209,1,0,0:0:0:0:
448,192,19298,1,0,0:0:0:0:
320,192,19386,1,0,0:0:0:0:
64,192,19474,1,0,0:0:0:0:
192,192,19562,1,0,0:0:0:0:
320,192,19651,1,0,0:0:0:0:
448,192,19739,1,0,0:0:0:0:
64,192,19827,1,0,0:0:0:0:
192,192,19915,1,0,0:0:0:0:
320,192,20003,1,0,0:0:0:0:
64,192,20092,1,0,0:0:0:0:
448,192,20180,1,0,0:0:0:0:
320,192,20268,1,0,0:0:0:0:
192,192,20356,1,0,0:0:0:0:
320,192,20445,1,0,0:0:0:0:
192,192,20533,1,0,0:0:0:0:
320,192,20621,1,0,0:0:0:0:
192,192,20709,1,0,0:0:0:0:
320,192,20798,1,0,0:0:0:0:
192,192,20886,1,0,0:0:0:0:
320,192,20974,1,0,0:0:0:0:
192,192,21062,1,0,0:0:0:0:
320,192,21151,1,0,0:0:0:0:
192,192,21239,1,0,0:0:0:0:
320,192,21327,1,0,0:0:0:0:
192,192,21415,1,0,0:0:0:0:
320,192,21503,1,0,0:0:0:0:
192,192,21592,1,0,0:0:0:0:
192,192,22739,1,0,0:0:0:0:
448,192,22915,1,0,0:0:0:0:
192,192,23092,128,0,23798:0:0:0:0:
448,192,23092,128,0,23798:0:0:0:0:
320,192,23092,1,0,0:0:0:0:
64,192,23268,1,0,0:0:0:0:
320,192,23445,1,0,0:0:0:0:
64,192,23533,1,0,0:0:0:0:
320,192,23621,1,0,0:0:0:0:
64,192,23798,128,0,24151:0:0:0:0:
320,192,24151,1,0,0:0:0:0:
192,192,24327,1,0,0:0:0:0:
448,192,24503,1,0,0:0:0:0:
320,192,24680,1,0,0:0:0:0:
64,192,24856,1,0,0:0:0:0:
448,192,24945,1,0,0:0:0:0:
64,192,25033,1,0,0:0:0:0:
448,192,25209,1,0,0:0:0:0:
64,192,25562,1,0,0:0:0:0:
192,192,25651,1,0,0:0:0:0:
448,192,25739,1,0,0:0:0:0:
320,192,25827,1,0,0:0:0:0:
192,192,25915,128,0,26974:0:0:0:0:
64,192,25915,1,0,0:0:0:0:
64,192,26092,1,0,0:0:0:0:
64,192,26268,1,0,0:0:0:0:
64,192,26445,1,0,0:0:0:0:
64,192,26621,1,0,0:0:0:0:
64,192,26798,1,0,0:0:0:0:
448,192,26974,1,0,0:0:0:0:
64,192,26974,1,0,0:0:0:0:
320,192,27062,1,0,0:0:0:0:
192,192,27151,1,0,0:0:0:0:
64,192,27239,1,0,0:0:0:0:
320,192,27327,1,0,0:0:0:0:
192,192,27445,1,0,0:0:0:0:
448,192,27562,1,0,0:0:0:0:
64,192,27680,1,0,0:0:0:0:
320,192,27798,1,0,0:0:0:0:
448,192,27915,1,0,0:0:0:0:
320,192,28033,1,0,0:0:0:0:
64,192,28151,1,0,0:0:0:0:
448,192,28268,1,0,0:0:0:0:
320,192,28386,1,0,0:0:0:0:
192,192,28503,1,0,0:0:0:0:
64,192,28621,1,0,0:0:0:0:
320,192,28739,1,0,0:0:0:0:
192,192,28915,1,0,0:0:0:0:
448,192,29092,1,0,0:0:0:0:
192,192,29180,1,0,0:0:0:0:
448,192,29268,1,0,0:0:0:0:
64,192,29445,1,0,0:0:0:0:
192,192,29798,1,0,0:0:0:0:
320,192,29974,1,0,0:0:0:0:
448,192,30151,1,0,0:0:0:0:
448,192,30327,1,0,0:0:0:0:
64,192,30503,1,0,0:0:0:0:
192,192,30592,1,0,0:0:0:0:
64,192,30680,1,0,0:0:0:0:
320,192,30856,1,0,0:0:0:0:
64,192,31209,1,0,0:0:0:0:
192,192,31298,1,0,0:0:0:0:
320,192,31386,1,0,0:0:0:0:
448,192,31474,1,0,0:0:0:0:
64,192,31562,128,0,32621:0:0:0:0:
192,192,31562,1,0,0:0:0:0:
192,192,31739,1,0,0:0:0:0:
192,192,31915,1,0,0:0:0:0:
192,192,32092,1,0,0:0:0:0:
192,192,32268,1,0,0:0:0:0:
192,192,32445,1,0,0:0:0:0:
448,192,32621,1,0,0:0:0:0:
320,192,32709,1,0,0:0:0:0:
192,192,32798,1,0,0:0:0:0:
64,192,32886,1,0,0:0:0:0:
448,192,32974,128,0,34386:0:0:0:0:
320,192,32974,1,0,0:0:0:0:
320,192,33151,1,0,0:0:0:0:
320,192,33327,1,0,0:0:0:0:
320,192,33503,1,0,0:0:0:0:
320,192,33680,1,0,0:0:0:0:
320,192,33856,1,0,0:0:0:0:
320,192,34033,1,0,0:0:0:0:
320,192,34209,1,0,0:0:0:0:
64,192,34386,1,0,0:0:0:0:
192,192,34386,1,0,0:0:0:0:
320,192,34386,1,0,0:0:0:0:
192,192,34562,1,0,0:0:0:0:
320,192,34739,1,0,0:0:0:0:
448,192,34739,1,0,0:0:0:0:
64,192,34739,1,0,0:0:0:0:
192,192,34827,1,0,0:0:0:0:
320,192,34915,1,0,0:0:0:0:
448,192,35003,1,0,0:0:0:0:
64,192,35092,1,0,0:0:0:0:
320,192,35092,1,0,0:0:0:0:
192,192,35092,1,0,0:0:0:0:
192,192,35445,1,0,0:0:0:0:
320,192,35445,1,0,0:0:0:0:
448,192,35445,1,0,0:0:0:0:
448,192,35621,1,0,0:0:0:0:
192,192,35798,1,0,0:0:0:0:
320,192,35798,1,0,0:0:0:0:
64,192,35798,1,0,0:0:0:0:
64,192,35974,1,0,0:0:0:0:
448,192,36151,1,0,0:0:0:0:
192,192,36151,1,0,0:0:0:0:
320,192,36151,1,0,0:0:0:0:
448,192,36239,1,0,0:0:0:0:
64,192,36327,1,0,0:0:0:0:
320,192,36503,1,0,0:0:0:0:
192,192,36503,1,0,0:0:0:0:
448,192,36856,1,0,0:0:0:0:
64,192,36856,1,0,0:0:0:0:
192,192,36945,1,0,0:0:0:0:
320,192,37033,1,0,0:0:0:0:
64,192,37121,1,0,0:0:0:0:
192,192,37209,128,0,38268:0:0:0:0:
448,192,37209,1,0,0:0:0:0:
320,192,37209,1,0,0:0:0:0:
448,192,37386,1,0,0:0:0:0:
448,192,37562,1,0,0:0:0:0:
320,192,37562,1,0,0:0:0:0:
448,192,37739,1,0,0:0:0:0:
448,192,37915,1,0,0:0:0:0:
320,192,37915,1,0,0:0:0:0:
448,192,38092,1,0,0:0:0:0:
448,192,38268,1,0,0:0:0:0:
64,192,38268,1,0,0:0:0:0:
320,192,38386,1,0,0:0:0:0:
192,192,38503,1,0,0:0:0:0:
64,192,38621,1,0,0:0:0:0:
448,192,38621,1,0,0:0:0:0:
320,192,38739,1,0,0:0:0:0:
64,192,38856,1,0,0:0:0:0:
448,192,38974,1,0,0:0:0:0:
320,192,38974,1,0,0:0:0:0:
192,192,39092,1,0,0:0:0:0:
448,192,39209,1,0,0:0:0:0:
64,192,39327,1,0,0:0:0:0:
192,192,39327,1,0,0:0:0:0:
320,192,39445,1,0,0:0:0:0:
64,192,39562,1,0,0:0:0:0:
320,192,39680,1,0,0:0:0:0:
448,192,39680,1,0,0:0:0:0:
192,192,39798,1,0,0:0:0:0:
64,192,39915,1,0,0:0:0:0:
320,192,40033,1,0,0:0:0:0:
192,192,40033,1,0,0:0:0:0:
448,192,40121,1,0,0:0:0:0:
192,192,40209,1,0,0:0:0:0:
320,192,40298,1,0,0:0:0:0:
64,192,40386,1,0,0:0:0:0:
448,192,40386,1,0,0:0:0:0:
192,192,40474,1,0,0:0:0:0:
64,192,40562,1,0,0:0:0:0:
320,192,40651,1,0,0:0:0:0:
448,192,40739,1,0,0:0:0:0:
192,192,40739,1,0,0:0:0:0:
320,192,40827,1,0,0:0:0:0:
64,192,40915,1,0,0:0:0:0:
448,192,41003,1,0,0:0:0:0:
320,192,41092,1,0,0:0:0:0:
192,192,41092,1,0,0:0:0:0:
64,192,41180,1,0,0:0:0:0:
448,192,41268,1,0,0:0:0:0:
320,192,41356,1,0,0:0:0:0:
64,192,41445,1,0,0:0:0:0:
192,192,41445,1,0,0:0:0:0:
448,192,41533,1,0,0:0:0:0:
192,192,41621,1,0,0:0:0:0:
64,192,41709,1,0,0:0:0:0:
448,192,41798,1,0,0:0:0:0:
320,192,41798,1,0,0:0:0:0:
192,192,41886,1,0,0:0:0:0:
448,192,41974,1,0,0:0:0:0:
320,192,42062,1,0,0:0:0:0:
192,192,42151,1,0,0:0:0:0:
64,192,42151,1,0,0:0:0:0:
448,192,42239,1,0,0:0:0:0:
192,192,42327,1,0,0:0:0:0:
64,192,42415,1,0,0:0:0:0:
320,192,42503,1,0,0:0:0:0:
448,192,42503,1,0,0:0:0:0:
192,192,42592,1,0,0:0:0:0:
448,192,42680,1,0,0:0:0:0:
64,192,42856,128,0,44268:0:0:0:0:
320,192,42856,1,0,0:0:0:0:
192,192,42945,1,0,0:0:0:0:
320,192,43033,1,0,0:0:0:0:
192,192,43121,1,0,0:0:0:0:
320,192,43209,1,0,0:0:0:0:
192,192,43298,1,0,0:0:0:0:
320,192,43386,1,0,0:0:0:0:
192,192,43474,1,0,0:0:0:0:
320,192,43562,1,0,0:0:0:0:
192,192,43651,1,0,0:0:0:0:
320,192,43739,1,0,0:0:0:0:
192,192,43827,1,0,0:0:0:0:
320,192,43915,1,0,0:0:0:0:
192,192,44003,1,0,0:0:0:0:
320,192,44092,1,0,0:0:0:0:
192,192,44180,1,0,0:0:0:0:
192,192,45327,1,0,0:0:0:0:
320,192,45503,1,0,0:0:0:0:
64,192,45680,1,0,0:0:0:0:
448,192,45680,1,0,0:0:0:0:
64,192,45856,1,0,0:0:0:0:
448,192,45856,1,0,0:0:0:0:
64,192,46033,1,0,0:0:0:0:
448,192,46033,1,0,0:0:0:0:
192,192,46209,1,0,0:0:0:0:
192,192,46386,1,0,0:0:0:0:
320,192,46386,1,0,0:0:0:0:
320,192,46562,1,0,0:0:0:0:
320,192,46739,1,0,0:0:0:0:
64,192,46739,1,0,0:0:0:0:
64,192,46915,1,0,0:0:0:0:
64,192,47092,1,0,0:0:0:0:
192,192,47092,1,0,0:0:0:0:
192,192,47268,1,0,0:0:0:0:
192,192,47445,1,0,0:0:0:0:
448,192,47445,1,0,0:0:0:0:
448,192,47621,1,0,0:0:0:0:
448,192,47798,1,0,0:0:0:0:
320,192,47798,1,0,0:0:0:0:
320,192,47974,1,0,0:0:0:0:
320,192,48151,1,0,0:0:0:0:
64,192,48151,1,0,0:0:0:0:
64,192,48327,1,0,0:0:0:0:
64,192,48503,1,0,0:0:0:0:
448,192,48503,1,0,0:0:0:0:
448,192,48680,1,0,0:0:0:0:
192,192,48856,1,0,0:0:0:0:
448,192,48856,1,0,0:0:0:0:
192,192,49033,1,0,0:0:0:0:
192,192,49209,1,0,0:0:0:0:
320,192,49209,1,0,0:0:0:0:
320,192,49386,1,0,0:0:0:0:
320,192,49562,1,0,0:0:0:0:
64,192,49562,1,0,0:0:0:0:
64,192,49739,1,0,0:0:0:0:
64,192,49915,1,0,0:0:0:0:
448,192,49915,1,0,0:0:0:0:
448,192,50092,1,0,0:0:0:0:
448,192,50268,1,0,0:0:0:0:
320,192,50268,1,0,0:0:0:0:
320,192,50445,1,0,0:0:0:0:
320,192,50621,1,0,0:0:0:0:
192,192,50621,1,0,0:0:0:0:
192,192,50798,1,0,0:0:0:0:
192,192,50974,1,0,0:0:0:0:
64,192,50974,1,0,0:0:0:0:
64,192,51151,1,0,0:0:0:0:
64,192,51327,1,0,0:0:0:0:
448,192,51327,1,0,0:0:0:0:
320,192,51327,128,0,55915:0:0:0:0:
448,192,51503,1,0,0:0:0:0:
64,192,51680,1,0,0:0:0:0:
192,192,51680,1,0,0:0:0:0:
448,192,51856,1,0,0:0:0:0:
192,192,52033,1,0,0:0:0:0:
64,192,52033,1,0,0:0:0:0:
448,192,52209,1,0,0:0:0:0:
192,192,52386,1,0,0:0:0:0:
64,192,52386,1,0,0:0:0:0:
448,192,52562,1,0,0:0:0:0:
192,192,52739,1,0,0:0:0:0:
64,192,52739,1,0,0:0:0:0:
448,192,52915,1,0,0:0:0:0:
192,192,53092,1,0,0:0:0:0:
64,192,53092,1,0,0:0:0:0:
448,192,53268,1,0,0:0:0:0:
192,192,53445,1,0,0:0:0:0:
64,192,53445,1,0,0:0:0:0:
448,192,53621,1,0,0:0:0:0:
64,192,53798,1,0,0:0:0:0:
192,192,53798,1,0,0:0:0:0:
448,192,53974,1,0,0:0:0:0:
192,192,54151,1,0,0:0:0:0:
64,192,54151,1,0,0:0:0:0:
448,192,54327,1,0,0:0:0:0:
192,192,54503,1,0,0:0:0:0:
64,192,54503,1,0,0:0:0:0:
448,192,54680,1,0,0:0:0:0:
192,192,54856,1,0,0:0:0:0:
64,192,54856,1,0,0:0:0:0:
448,192,55033,1,0,0:0:0:0:
192,192,55209,1,0,0:0:0:0:
64,192,55209,1,0,0:0:0:0:
448,192,55386,1,0,0:0:0:0:
192,192,55562,1,0,0:0:0:0:
64,192,55915,1,0,0:0:0:0:
192,192,56268,1,0,0:0:0:0:
320,192,56621,1,0,0:0:0:0:
192,192,56974,1,0,0:0:0:0:
64,192,56974,1,0,0:0:0:0:
192,192,57151,1,0,0:0:0:0:
64,192,57151,1,0,0:0:0:0:
320,192,57239,1,0,0:0:0:0:
448,192,57239,1,0,0:0:0:0:
192,192,57327,1,0,0:0:0:0:
64,192,57327,1,0,0:0:0:0:
192,192,57503,1,0,0:0:0:0:
192,192,57680,1,0,0:0:0:0:
448,192,57680,1,0,0:0:0:0:
448,192,57856,1,0,0:0:0:0:
320,192,58033,1,0,0:0:0:0:
448,192,58033,1,0,0:0:0:0:
320,192,58209,1,0,0:0:0:0:
192,192,58386,1,0,0:0:0:0:
320,192,58386,1,0,0:0:0:0:
192,192,58562,1,0,0:0:0:0:
192,192,58739,1,0,0:0:0:0:
64,192,58739,1,0,0:0:0:0:
64,192,58915,1,0,0:0:0:0:
64,192,59092,1,0,0:0:0:0:
320,192,59092,1,0,0:0:0:0:
320,192,59268,1,0,0:0:0:0:
320,192,59445,1,0,0:0:0:0:
192,192,59445,1,0,0:0:0:0:
192,192,59621,1,0,0:0:0:0:
192,192,59798,1,0,0:0:0:0:
448,192,59798,1,0,0:0:0:0:
448,192,59974,1,0,0:0:0:0:
448,192,60151,1,0,0:0:0:0:
64,192,60151,1,0,0:0:0:0:
64,192,60327,1,0,0:0:0:0:
64,192,60503,1,0,0:0:0:0:
320,192,60503,1,0,0:0:0:0:
320,192,60680,1,0,0:0:0:0:
320,192,60856,1,0,0:0:0:0:
192,192,60856,1,0,0:0:0:0:
192,192,61033,1,0,0:0:0:0:
192,192,61209,1,0,0:0:0:0:
448,192,61209,1,0,0:0:0:0:
448,192,61386,1,0,0:0:0:0:
448,192,61562,1,0,0:0:0:0:
64,192,61562,1,0,0:0:0:0:
64,192,61739,1,0,0:0:0:0:
64,192,61915,1,0,0:0:0:0:
192,192,61915,1,0,0:0:0:0:
192,192,62092,1,0,0:0:0:0:
192,192,62268,1,0,0:0:0:0:
320,192,62268,1,0,0:0:0:0:
320,192,62445,1,0,0:0:0:0:
192,192,62445,1,0,0:0:0:0:
192,192,62621,1,0,0:0:0:0:
320,192,62621,1,0,0:0:0:0:
64,192,62621,128,0,66856:0:0:0:0:
448,192,62709,1,0,0:0:0:0:
320,192,62798,1,0,0:0:0:0:
192,192,62886,1,0,0:0:0:0:
448,192,62974,1,0,0:0:0:0:
320,192,63062,1,0,0:0:0:0:
192,192,63151,1,0,0:0:0:0:
448,192,63239,1,0,0:0:0:0:
320,192,63327,1,0,0:0:0:0:
192,192,63415,1,0,0:0:0:0:
448,192,63503,1,0,0:0:0:0:
192,192,63592,1,0,0:0:0:0:
320,192,63680,1,0,0:0:0:0:
448,192,63768,1,0,0:0:0:0:
192,192,63856,1,0,0:0:0:0:
320,192,63945,1,0,0:0:0:0:
448,192,64033,1,0,0:0:0:0:
192,192,64121,1,0,0:0:0:0:
320,192,64209,1,0,0:0:0:0:
448,192,64298,1,0,0:0:0:0:
192,192,64386,1,0,0:0:0:0:
448,192,64474,1,0,0:0:0:0:
320,192,64562,1,0,0:0:0:0:
192,192,64651,1,0,0:0:0:0:
448,192,64739,1,0,0:0:0:0:
320,192,64827,1,0,0:0:0:0:
192,192,64915,1,0,0:0:0:0:
448,192,65003,1,0,0:0:0:0:
320,192,65092,1,0,0:0:0:0:
192,192,65180,1,0,0:0:0:0:
320,192,65268,1,0,0:0:0:0:
448,192,65356,1,0,0:0:0:0:
192,192,65445,1,0,0:0:0:0:
320,192,65533,1,0,0:0:0:0:
448,192,65533,1,0,0:0:0:0:
192,192,65621,1,0,0:0:0:0:
320,192,65709,1,0,0:0:0:0:
448,192,65709,1,0,0:0:0:0:
192,192,65798,1,0,0:0:0:0:
320,192,65886,1,0,0:0:0:0:
448,192,65886,1,0,0:0:0:0:
192,192,65974,1,0,0:0:0:0:
320,192,66062,1,0,0:0:0:0:
448,192,66062,1,0,0:0:0:0:
192,192,66151,1,0,0:0:0:0:
320,192,66239,1,0,0:0:0:0:
448,192,66239,1,0,0:0:0:0:
192,192,66327,1,0,0:0:0:0:
320,192,66415,1,0,0:0:0:0:
448,192,66415,1,0,0:0:0:0:
192,192,66503,1,0,0:0:0:0:
320,192,66592,1,0,0:0:0:0:
448,192,66592,1,0,0:0:0:0:
192,192,66680,1,0,0:0:0:0:
320,192,66768,1,0,0:0:0:0:
448,192,66768,1,0,0:0:0:0:
192,192,66856,1,0,0:0:0:0:
192,192,67209,1,0,0:0:0:0:
64,192,67209,1,0,0:0:0:0:
64,192,67562,1,0,0:0:0:0:
192,192,67562,1,0,0:0:0:0:
192,192,67915,1,0,0:0:0:0:
64,192,67915,1,0,0:0:0:0:
448,192,68268,128,0,68533:0:0:0:0:
64,192,68268,1,0,0:0:0:0:
192,192,68268,1,0,0:0:0:0:
320,192,68445,1,0,0:0:0:0:
192,192,68533,1,0,0:0:0:0:
320,192,68621,1,0,0:0:0:0:
64,192,68621,128,0,68798:0:0:0:0:
448,192,68798,128,0,68974:0:0:0:0:
192,192,68974,128,0,69151:0:0:0:0:
64,192,69151,1,0,0:0:0:0:
320,192,69503,128,0,69856:0:0:0:0:
448,192,69856,128,0,70033:0:0:0:0:
64,192,69856,128,0,70033:0:0:0:0:
192,192,70033,128,0,70209:0:0:0:0:
320,192,70209,1,0,0:0:0:0:
448,192,70562,128,0,70739:0:0:0:0:
64,192,70562,128,0,70739:0:0:0:0:
192,192,70739,128,0,71092:0:0:0:0:
320,192,70739,128,0,71092:0:0:0:0:
64,192,71092,128,0,71445:0:0:0:0:
448,192,71445,128,0,71621:0:0:0:0:
192,192,71445,128,0,71621:0:0:0:0:
320,192,71621,128,0,71798:0:0:0:0:
64,192,71798,128,0,72151:0:0:0:0:
192,192,72327,128,0,72680:0:0:0:0:
320,192,72680,128,0,72945:0:0:0:0:
192,192,73033,128,0,73121:0:0:0:0:
192,192,73209,128,0,73298:0:0:0:0:
320,192,73386,128,0,73474:0:0:0:0:
64,192,73562,128,0,73915:0:0:0:0:
320,192,73915,128,0,74268:0:0:0:0:
192,192,74268,128,0,74621:0:0:0:0:
448,192,74268,128,0,74621:0:0:0:0:
320,192,74621,128,0,74974:0:0:0:0:
192,192,75151,128,0,75503:0:0:0:0:
320,192,75503,128,0,75680:0:0:0:0:
64,192,75503,128,0,75680:0:0:0:0:
192,192,75680,128,0,76033:0:0:0:0:
320,192,76209,128,0,76298:0:0:0:0:
320,192,76386,128,0,76739:0:0:0:0:
64,192,76739,128,0,77092:0:0:0:0:
448,192,76739,128,0,77092:0:0:0:0:
192,192,77092,128,0,77445:0:0:0:0:
64,192,77445,128,0,77798:0:0:0:0:
320,192,77445,128,0,77798:0:0:0:0:
192,192,77974,128,0,78503:0:0:0:0:
448,192,78151,1,0,0:0:0:0:
64,192,78503,1,0,0:0:0:0:
448,192,78680,128,0,78856:0:0:0:0:
320,192,78856,1,0,0:0:0:0:
64,192,79033,128,0,79562:0:0:0:0:
192,192,79209,1,0,0:0:0:0:
192,192,79562,128,0,79915:0:0:0:0:
320,192,80092,128,0,80445:0:0:0:0:
448,192,80445,128,0,80533:0:0:0:0:
448,192,80621,128,0,80974:0:0:0:0:
320,192,80974,128,0,81327:0:0:0:0:
64,192,80974,128,0,81327:0:0:0:0:
192,192,81503,128,0,81856:0:0:0:0:
320,192,81856,128,0,82033:0:0:0:0:
448,192,82209,128,0,82298:0:0:0:0:
64,192,82386,128,0,82474:0:0:0:0:
448,192,82562,128,0,82651:0:0:0:0:
320,192,82562,128,0,82739:0:0:0:0:
64,192,82915,128,0,83092:0:0:0:0:
192,192,83268,128,0,83445:0:0:0:0:
448,192,83621,128,0,83798:0:0:0:0:
64,192,83974,128,0,84327:0:0:0:0:
192,192,84503,128,0,85209:0:0:0:0:
320,192,85209,128,0,85562:0:0:0:0:
448,192,85209,1,0,0:0:0:0:
64,192,85298,1,0,0:0:0:0:
192,192,85386,1,0,0:0:0:0:
448,192,85474,1,0,0:0:0:0:
64,192,85562,128,0,85651:0:0:0:0:
192,192,85651,1,0,0:0:0:0:
320,192,85739,1,0,0:0:0:0:
64,192,85827,1,0,0:0:0:0:
448,192,85915,128,0,86445:0:0:0:0:
192,192,85915,1,0,0:0:0:0:
320,192,86003,1,0,0:0:0:0:
64,192,86092,1,0,0:0:0:0:
320,192,86180,1,0,0:0:0:0:
192,192,86268,1,0,0:0:0:0:
64,192,86356,1,0,0:0:0:0:
192,192,86445,1,0,0:0:0:0:
320,192,86445,128,0,86798:0:0:0:0:
64,192,86533,1,0,0:0:0:0:
448,192,86621,1,0,0:0:0:0:
192,192,86709,1,0,0:0:0:0:
64,192,86798,1,0,0:0:0:0:
448,192,86886,1,0,0:0:0:0:
320,192,86974,1,0,0:0:0:0:
64,192,87062,1,0,0:0:0:0:
192,192,87151,128,0,87327:0:0:0:0:
448,192,87151,1,0,0:0:0:0:
320,192,87239,1,0,0:0:0:0:
64,192,87327,1,0,0:0:0:0:
448,192,87415,1,0,0:0:0:0:
320,192,87503,128,0,87680:0:0:0:0:
192,192,87503,1,0,0:0:0:0:
448,192,87592,1,0,0:0:0:0:
64,192,87680,1,0,0:0:0:0:
192,192,87768,1,0,0:0:0:0:
448,192,87856,128,0,88033:0:0:0:0:
320,192,87856,1,0,0:0:0:0:
64,192,87945,1,0,0:0:0:0:
192,192,88033,1,0,0:0:0:0:
320,192,88121,1,0,0:0:0:0:
192,192,88209,1,0,0:0:0:0:
320,192,88298,1,0,0:0:0:0:
192,192,88386,1,0,0:0:0:0:
320,192,88474,1,0,0:0:0:0:
192,192,88562,1,0,0:0:0:0:
320,192,88651,1,0,0:0:0:0:
192,192,88739,1,0,0:0:0:0:
320,192,88827,1,0,0:0:0:0:
192,192,88915,5,0,0:0:0:0:
320,192,89003,1,0,0:0:0:0:
192,192,89092,1,0,0:0:0:0:
320,192,89180,1,0,0:0:0:0:
192,192,89268,1,0,0:0:0:0:
320,192,89356,1,0,0:0:0:0:
192,192,89445,5,0,0:0:0:0:
64,192,89445,1,0,0:0:0:0:
192,192,89798,1,0,0:0:0:0:
64,192,89798,1,0,0:0:0:0:
320,192,90062,5,0,0:0:0:0:
448,192,90062,1,0,0:0:0:0:
448,192,90151,1,0,0:0:0:0:
320,192,90151,1,0,0:0:0:0:
64,192,90239,1,0,0:0:0:0:
192,192,90239,1,0,0:0:0:0:
192,192,90327,1,0,0:0:0:0:
64,192,90327,1,0,0:0:0:0:
320,192,90415,1,0,0:0:0:0:
448,192,90415,1,0,0:0:0:0:
320,192,90503,1,0,0:0:0:0:
448,192,90503,1,0,0:0:0:0:
192,192,90592,1,0,0:0:0:0:
64,192,90592,1,0,0:0:0:0:
64,192,90680,1,0,0:0:0:0:
192,192,90680,1,0,0:0:0:0:
448,192,90768,1,0,0:0:0:0:
320,192,90768,1,0,0:0:0:0:
320,192,90856,1,0,0:0:0:0:
448,192,90856,1,0,0:0:0:0:
64,192,90856,1,0,0:0:0:0:
192,192,90945,1,0,0:0:0:0:
64,192,91033,1,0,0:0:0:0:
320,192,91121,1,0,0:0:0:0:
192,192,91209,1,0,0:0:0:0:
448,192,91209,1,0,0:0:0:0:
320,192,91298,1,0,0:0:0:0:
448,192,91386,1,0,0:0:0:0:
320,192,91474,1,0,0:0:0:0:
192,192,91562,1,0,0:0:0:0:
64,192,91562,1,0,0:0:0:0:
320,192,91651,1,0,0:0:0:0:
448,192,91739,1,0,0:0:0:0:
64,192,91827,1,0,0:0:0:0:
320,192,91915,1,0,0:0:0:0:
448,192,91915,1,0,0:0:0:0:
192,192,92003,1,0,0:0:0:0:
64,192,92092,1,0,0:0:0:0:
320,192,92180,1,0,0:0:0:0:
192,192,92268,1,0,0:0:0:0:
448,192,92268,1,0,0:0:0:0:
320,192,92356,1,0,0:0:0:0:
192,192,92445,1,0,0:0:0:0:
320,192,92533,1,0,0:0:0:0:
192,192,92621,1,0,0:0:0:0:
64,192,92621,1,0,0:0:0:0:
448,192,92709,1,0,0:0:0:0:
320,192,92798,1,0,0:0:0:0:
192,192,92886,1,0,0:0:0:0:
64,192,92974,1,0,0:0:0:0:
320,192,92974,1,0,0:0:0:0:
192,192,93062,1,0,0:0:0:0:
64,192,93151,1,0,0:0:0:0:
192,192,93239,1,0,0:0:0:0:
320,192,93327,1,0,0:0:0:0:
448,192,93327,1,0,0:0:0:0:
64,192,93415,1,0,0:0:0:0:
320,192,93503,1,0,0:0:0:0:
192,192,93592,1,0,0:0:0:0:
320,192,93680,1,0,0:0:0:0:
448,192,93680,1,0,0:0:0:0:
64,192,93768,1,0,0:0:0:0:
192,192,93856,1,0,0:0:0:0:
448,192,93945,1,0,0:0:0:0:
320,192,94033,1,0,0:0:0:0:
192,192,94033,1,0,0:0:0:0:
64,192,94121,1,0,0:0:0:0:
320,192,94209,1,0,0:0:0:0:
192,192,94298,1,0,0:0:0:0:
64,192,94386,1,0,0:0:0:0:
320,192,94386,1,0,0:0:0:0:
448,192,94474,1,0,0:0:0:0:
192,192,94562,1,0,0:0:0:0:
320,192,94651,1,0,0:0:0:0:
64,192,94739,1,0,0:0:0:0:
448,192,94739,1,0,0:0:0:0:
192,192,94827,1,0,0:0:0:0:
320,192,94915,1,0,0:0:0:0:
448,192,95003,1,0,0:0:0:0:
64,192,95092,1,0,0:0:0:0:
192,192,95092,1,0,0:0:0:0:
320,192,95180,1,0,0:0:0:0:
448,192,95268,1,0,0:0:0:0:
320,192,95356,1,0,0:0:0:0:
64,192,95445,1,0,0:0:0:0:
192,192,95445,1,0,0:0:0:0:
320,192,95533,1,0,0:0:0:0:
64,192,95621,1,0,0:0:0:0:
192,192,95709,1,0,0:0:0:0:
320,192,95798,1,0,0:0:0:0:
448,192,95798,1,0,0:0:0:0:
64,192,95886,1,0,0:0:0:0:
320,192,95974,1,0,0:0:0:0:
192,192,96062,1,0,0:0:0:0:
64,192,96151,1,0,0:0:0:0:
320,192,96151,1,0,0:0:0:0:
192,192,96239,1,0,0:0:0:0:
64,192,96327,1,0,0:0:0:0:
192,192,96415,1,0,0:0:0:0:
320,192,96503,1,0,0:0:0:0:
448,192,96503,1,0,0:0:0:0:
64,192,96592,1,0,0:0:0:0:
192,192,96680,1,0,0:0:0:0:
320,192,96768,1,0,0:0:0:0:
64,192,96856,1,0,0:0:0:0:
192,192,96856,1,0,0:0:0:0:
320,192,96945,1,0,0:0:0:0:
192,192,97033,1,0,0:0:0:0:
320,192,97121,1,0,0:0:0:0:
192,192,97209,1,0,0:0:0:0:
448,192,97209,1,0,0:0:0:0:
320,192,97298,1,0,0:0:0:0:
448,192,97386,1,0,0:0:0:0:
320,192,97474,1,0,0:0:0:0:
192,192,97562,1,0,0:0:0:0:
64,192,97562,1,0,0:0:0:0:
448,192,97651,1,0,0:0:0:0:
320,192,97739,1,0,0:0:0:0:
192,192,97827,1,0,0:0:0:0:
64,192,97915,1,0,0:0:0:0:
448,192,97915,1,0,0:0:0:0:
320,192,98003,1,0,0:0:0:0:
192,192,98092,1,0,0:0:0:0:
64,192,98180,1,0,0:0:0:0:
320,192,98268,1,0,0:0:0:0:
448,192,98268,1,0,0:0:0:0:
192,192,98356,1,0,0:0:0:0:
64,192,98445,1,0,0:0:0:0:
320,192,98533,1,0,0:0:0:0:
192,192,98621,1,0,0:0:0:0:
64,192,98621,1,0,0:0:0:0:
448,192,98709,1,0,0:0:0:0:
320,192,98798,1,0,0:0:0:0:
192,192,98886,1,0,0:0:0:0:
320,192,98974,1,0,0:0:0:0:
64,192,98974,1,0,0:0:0:0:
448,192,99062,1,0,0:0:0:0:
320,192,99151,1,0,0:0:0:0:
448,192,99239,1,0,0:0:0:0:
320,192,99327,1,0,0:0:0:0:
192,192,99327,1,0,0:0:0:0:
64,192,99415,1,0,0:0:0:0:
448,192,99503,1,0,0:0:0:0:
64,192,99592,1,0,0:0:0:0:
192,192,99680,1,0,0:0:0:0:
448,192,99680,1,0,0:0:0:0:
320,192,99768,1,0,0:0:0:0:
64,192,99856,1,0,0:0:0:0:
320,192,99945,1,0,0:0:0:0:
192,192,100033,1,0,0:0:0:0:
448,192,100033,1,0,0:0:0:0:
64,192,100121,1,0,0:0:0:0:
448,192,100209,1,0,0:0:0:0:
320,192,100298,1,0,0:0:0:0:
192,192,100386,1,0,0:0:0:0:
64,192,100386,1,0,0:0:0:0:
320,192,100474,1,0,0:0:0:0:
192,192,100562,1,0,0:0:0:0:
320,192,100651,1,0,0:0:0:0:
448,192,100739,1,0,0:0:0:0:
64,192,101092,1,0,0:0:0:0:
64,192,102151,1,0,0:0:0:0:
192,192,102151,1,0,0:0:0:0:
320,192,102239,1,0,0:0:0:0:
448,192,102327,1,0,0:0:0:0:
64,192,102415,1,0,0:0:0:0:
320,192,102503,1,0,0:0:0:0:
192,192,102503,1,0,0:0:0:0:
448,192,102592,1,0,0:0:0:0:
192,192,102680,1,0,0:0:0:0:
64,192,102768,1,0,0:0:0:0:
448,192,102856,1,0,0:0:0:0:
320,192,102856,1,0,0:0:0:0:
192,192,102945,1,0,0:0:0:0:
320,192,103033,1,0,0:0:0:0:
192,192,103121,1,0,0:0:0:0:
320,192,103209,1,0,0:0:0:0:
64,192,103209,1,0,0:0:0:0:
448,192,103298,1,0,0:0:0:0:
192,192,103386,1,0,0:0:0:0:
320,192,103474,1,0,0:0:0:0:
64,192,103562,1,0,0:0:0:0:
448,192,103562,1,0,0:0:0:0:
192,192,103651,1,0,0:0:0:0:
64,192,103739,1,0,0:0:0:0:
192,192,103827,1,0,0:0:0:0:
448,192,103915,1,0,0:0:0:0:
320,192,103915,1,0,0:0:0:0:
64,192,104003,1,0,0:0:0:0:
192,192,104092,1,0,0:0:0:0:
320,192,104180,1,0,0:0:0:0:
64,192,104268,1,0,0:0:0:0:
192,192,104268,1,0,0:0:0:0:
320,192,104356,1,0,0:0:0:0:
448,192,104445,1,0,0:0:0:0:
64,192,104533,1,0,0:0:0:0:
192,192,104621,1,0,0:0:0:0:
320,192,104621,1,0,0:0:0:0:
448,192,104709,1,0,0:0:0:0:
320,192,104798,1,0,0:0:0:0:
448,192,104886,1,0,0:0:0:0:
192,192,104974,1,0,0:0:0:0:
320,192,104974,1,0,0:0:0:0:
64,192,105062,1,0,0:0:0:0:
320,192,105151,1,0,0:0:0:0:
192,192,105239,1,0,0:0:0:0:
448,192,105327,1,0,0:0:0:0:
64,192,105327,1,0,0:0:0:0:
320,192,105415,1,0,0:0:0:0:
192,192,105503,1,0,0:0:0:0:
448,192,105592,1,0,0:0:0:0:
64,192,105680,1,0,0:0:0:0:
192,192,105680,1,0,0:0:0:0:
320,192,105768,1,0,0:0:0:0:
448,192,105856,1,0,0:0:0:0:
64,192,105945,1,0,0:0:0:0:
320,192,106033,1,0,0:0:0:0:
192,192,106033,1,0,0:0:0:0:
448,192,106121,1,0,0:0:0:0:
192,192,106209,1,0,0:0:0:0:
320,192,106298,1,0,0:0:0:0:
64,192,106386,1,0,0:0:0:0:
448,192,106386,1,0,0:0:0:0:
192,192,106474,1,0,0:0:0:0:
320,192,106562,1,0,0:0:0:0:
192,192,106651,1,0,0:0:0:0:
448,192,106739,1,0,0:0:0:0:
320,192,106739,1,0,0:0:0:0:
64,192,106827,1,0,0:0:0:0:
448,192,106915,1,0,0:0:0:0:
192,192,107003,1,0,0:0:0:0:
64,192,107092,1,0,0:0:0:0:
320,192,107092,1,0,0:0:0:0:
192,192,107180,1,0,0:0:0:0:
64,192,107268,1,0,0:0:0:0:
192,192,107356,1,0,0:0:0:0:
448,192,107445,1,0,0:0:0:0:
320,192,107445,1,0,0:0:0:0:
192,192,107533,1,0,0:0:0:0:
448,192,107621,1,0,0:0:0:0:
320,192,107621,1,0,0:0:0:0:
64,192,107621,1,0,0:0:0:0:
192,192,107709,1,0,0:0:0:0:
320,192,107798,1,0,0:0:0:0:
64,192,107798,1,0,0:0:0:0:
448,192,107798,1,0,0:0:0:0:
192,192,107886,1,0,0:0:0:0:
448,192,107974,1,0,0:0:0:0:
64,192,108062,1,0,0:0:0:0:
320,192,108151,1,0,0:0:0:0:
192,192,108151,1,0,0:0:0:0:
448,192,108239,1,0,0:0:0:0:
64,192,108327,1,0,0:0:0:0:
192,192,108415,1,0,0:0:0:0:
448,192,108503,1,0,0:0:0:0:
320,192,108503,1,0,0:0:0:0:
192,192,108592,1,0,0:0:0:0:
448,192,108680,1,0,0:0:0:0:
320,192,108768,1,0,0:0:0:0:
64,192,108856,1,0,0:0:0:0:
192,192,108856,1,0,0:0:0:0:
448,192,108945,1,0,0:0:0:0:
320,192,109033,1,0,0:0:0:0:
64,192,109121,1,0,0:0:0:0:
320,192,109209,1,0,0:0:0:0:
192,192,109209,1,0,0:0:0:0:
448,192,109298,1,0,0:0:0:0:
64,192,109386,1,0,0:0:0:0:
192,192,109474,1,0,0:0:0:0:
448,192,109562,1,0,0:0:0:0:
320,192,109562,1,0,0:0:0:0:
64,192,109651,1,0,0:0:0:0:
320,192,109739,1,0,0:0:0:0:
192,192,109827,1,0,0:0:0:0:
448,192,109915,1,0,0:0:0:0:
64,192,109915,1,0,0:0:0:0:
320,192,110003,1,0,0:0:0:0:
448,192,110092,1,0,0:0:0:0:
320,192,110180,1,0,0:0:0:0:
192,192,110268,1,0,0:0:0:0:
64,192,110268,1,0,0:0:0:0:
448,192,110356,1,0,0:0:0:0:
64,192,110445,1,0,0:0:0:0:
192,192,110533,1,0,0:0:0:0:
320,192,110621,1,0,0:0:0:0:
448,192,110621,1,0,0:0:0:0:
192,192,110709,1,0,0:0:0:0:
64,192,110709,1,0,0:0:0:0:
320,192,110798,1,0,0:0:0:0:
448,192,110798,1,0,0:0:0:0:
192,192,110886,1,0,0:0:0:0:
64,192,110886,1,0,0:0:0:0:
320,192,110974,1,0,0:0:0:0:
448,192,110974,1,0,0:0:0:0:
192,192,111062,1,0,0:0:0:0:
64,192,111062,1,0,0:0:0:0:
320,192,111151,1,0,0:0:0:0:
448,192,111151,1,0,0:0:0:0:
192,192,111239,1,0,0:0:0:0:
64,192,111239,1,0,0:0:0:0:
320,192,111327,1,0,0:0:0:0:
448,192,111327,1,0,0:0:0:0:
192,192,111415,1,0,0:0:0:0:
64,192,111415,1,0,0:0:0:0:
320,192,111503,1,0,0:0:0:0:
448,192,111503,1,0,0:0:0:0:
192,192,111592,1,0,0:0:0:0:
64,192,111592,1,0,0:0:0:0:
320,192,111680,1,0,0:0:0:0:
448,192,111680,1,0,0:0:0:0:
192,192,111768,1,0,0:0:0:0:
64,192,111768,1,0,0:0:0:0:
320,192,111856,1,0,0:0:0:0:
448,192,111856,1,0,0:0:0:0:
192,192,111945,1,0,0:0:0:0:
64,192,111945,1,0,0:0:0:0:
192,192,112739,1,0,0:0:0:0:
64,192,112739,1,0,0:0:0:0:
64,192,112827,1,0,0:0:0:0:
192,192,112827,1,0,0:0:0:0:
320,192,112915,1,0,0:0:0:0:
448,192,112915,1,0,0:0:0:0:
448,192,113003,1,0,0:0:0:0:
320,192,113003,1,0,0:0:0:0:
192,192,113092,1,0,0:0:0:0:
64,192,113092,1,0,0:0:0:0:
64,192,113180,1,0,0:0:0:0:
192,192,113180,1,0,0:0:0:0:
320,192,113268,1,0,0:0:0:0:
448,192,113268,1,0,0:0:0:0:
448,192,113356,1,0,0:0:0:0:
320,192,113356,1,0,0:0:0:0:
64,192,113445,128,0,119092:0:0:0:0:
192,192,113445,1,0,0:0:0:0:
448,192,113445,1,0,0:0:0:0:
320,192,113798,1,0,0:0:0:0:
448,192,113798,1,0,0:0:0:0:
192,192,114151,1,0,0:0:0:0:
448,192,114151,1,0,0:0:0:0:
320,192,114503,1,0,0:0:0:0:
448,192,114503,1,0,0:0:0:0:
192,192,114856,1,0,0:0:0:0:
448,192,114856,1,0,0:0:0:0:
320,192,115209,1,0,0:0:0:0:
448,192,115209,1,0,0:0:0:0:
192,192,115562,1,0,0:0:0:0:
448,192,115562,1,0,0:0:0:0:
320,192,115915,1,0,0:0:0:0:
448,192,115915,1,0,0:0:0:0:
448,192,116268,1,0,0:0:0:0:
192,192,116268,1,0,0:0:0:0:
320,192,116621,1,0,0:0:0:0:
448,192,116621,1,0,0:0:0:0:
192,192,116974,1,0,0:0:0:0:
448,192,116974,1,0,0:0:0:0:
320,192,117327,1,0,0:0:0:0:
448,192,117327,1,0,0:0:0:0:
192,192,117680,1,0,0:0:0:0:
448,192,117680,1,0,0:0:0:0:
320,192,118033,1,0,0:0:0:0:
448,192,118033,1,0,0:0:0:0:
192,192,118386,1,0,0:0:0:0:
448,192,118386,1,0,0:0:0:0:
320,192,118739,1,0,0:0:0:0:
448,192,118739,1,0,0:0:0:0:
192,192,119092,1,0,0:0:0:0:
448,192,119092,1,0,0:0:0:0:
320,192,119180,1,0,0:0:0:0:
448,192,119268,1,0,0:0:0:0:
320,192,119356,1,0,0:0:0:0:
448,192,119445,1,0,0:0:0:0:
320,192,119533,1,0,0:0:0:0:
192,192,119621,1,0,0:0:0:0:
320,192,119709,1,0,0:0:0:0:
192,192,119798,1,0,0:0:0:0:
320,192,119886,1,0,0:0:0:0:
192,192,119974,1,0,0:0:0:0:
64,192,120062,1,0,0:0:0:0:
192,192,120151,1,0,0:0:0:0:
64,192,120239,1,0,0:0:0:0:
192,192,120327,1,0,0:0:0:0:
64,192,120415,1,0,0:0:0:0:
192,192,120503,1,0,0:0:0:0:
320,192,120592,1,0,0:0:0:0:
192,192,120680,1,0,0:0:0:0:
320,192,120768,1,0,0:0:0:0:
192,192,120856,1,0,0:0:0:0:
320,192,120945,1,0,0:0:0:0:
448,192,121033,1,0,0:0:0:0:
320,192,121121,1,0,0:0:0:0:
448,192,121209,1,0,0:0:0:0:
320,192,121298,1,0,0:0:0:0:
192,192,121386,1,0,0:0:0:0:
320,192,121474,1,0,0:0:0:0:
192,192,121562,1,0,0:0:0:0:
320,192,121651,1,0,0:0:0:0:
192,192,121739,1,0,0:0:0:0:
320,192,121827,1,0,0:0:0:0:
64,192,121915,1,0,0:0:0:0:
192,192,121915,1,0,0:0:0:0:
320,192,122003,1,0,0:0:0:0:
448,192,122003,1,0,0:0:0:0:
192,192,122092,1,0,0:0:0:0:
64,192,122092,1,0,0:0:0:0:
320,192,122180,1,0,0:0:0:0:
448,192,122180,1,0,0:0:0:0:
192,192,122268,1,0,0:0:0:0:
64,192,122268,1,0,0:0:0:0:
320,192,122356,1,0,0:0:0:0:
448,192,122356,1,0,0:0:0:0:
192,192,122445,1,0,0:0:0:0:
64,192,122445,1,0,0:0:0:0:
320,192,122533,1,0,0:0:0:0:
448,192,122533,1,0,0:0:0:0:
192,192,122621,1,0,0:0:0:0:
64,192,122621,1,0,0:0:0:0:
320,192,122709,1,0,0:0:0:0:
448,192,122709,1,0,0:0:0:0:
192,192,122798,1,0,0:0:0:0:
64,192,122798,1,0,0:0:0:0:
320,192,122886,1,0,0:0:0:0:
448,192,122886,1,0,0:0:0:0:
192,192,122974,1,0,0:0:0:0:
64,192,122974,1,0,0:0:0:0:
320,192,123062,1,0,0:0:0:0:
448,192,123062,1,0,0:0:0:0:
192,192,123151,1,0,0:0:0:0:
64,192,123151,1,0,0:0:0:0:
320,192,123239,1,0,0:0:0:0:
448,192,123239,1,0,0:0:0:0:
192,192,123327,1,0,0:0:0:0:
64,192,123327,1,0,0:0:0:0:
64,192,124386,1,0,0:0:0:0:
320,192,124562,1,0,0:0:0:0:
448,192,124739,128,0,125445:0:0:0:0:
64,192,124739,128,0,125445:0:0:0:0:
192,192,124739,1,0,0:0:0:0:
192,192,124915,1,0,0:0:0:0:
320,192,125092,1,0,0:0:0:0:
192,192,125180,1,0,0:0:0:0:
320,192,125268,1,0,0:0:0:0:
192,192,125445,1,0,0:0:0:0:
64,192,125798,1,0,0:0:0:0:
448,192,125974,1,0,0:0:0:0:
192,192,126151,1,0,0:0:0:0:
192,192,126327,1,0,0:0:0:0:
320,192,126503,1,0,0:0:0:0:
64,192,126592,1,0,0:0:0:0:
448,192,126680,128,0,127209:0:0:0:0:
192,192,126856,1,0,0:0:0:0:
64,192,127209,1,0,0:0:0:0:
320,192,127298,1,0,0:0:0:0:
64,192,127386,1,0,0:0:0:0:
320,192,127474,1,0,0:0:0:0:
64,192,127562,128,0,128621:0:0:0:0:
448,192,127562,1,0,0:0:0:0:
448,192,127739,1,0,0:0:0:0:
448,192,127915,1,0,0:0:0:0:
448,192,128092,1,0,0:0:0:0:
448,192,128268,1,0,0:0:0:0:
448,192,128445,1,0,0:0:0:0:
448,192,128621,1,0,0:0:0:0:
320,192,128621,1,0,0:0:0:0:
192,192,128739,1,0,0:0:0:0:
448,192,128856,1,0,0:0:0:0:
192,192,128974,1,0,0:0:0:0:
320,192,129092,1,0,0:0:0:0:
448,192,129209,1,0,0:0:0:0:
192,192,129327,1,0,0:0:0:0:
320,192,129445,1,0,0:0:0:0:
64,192,129562,1,0,0:0:0:0:
448,192,129680,1,0,0:0:0:0:
320,192,129798,1,0,0:0:0:0:
64,192,129915,1,0,0:0:0:0:
320,192,130033,1,0,0:0:0:0:
192,192,130151,1,0,0:0:0:0:
448,192,130268,1,0,0:0:0:0:
64,192,130386,1,0,0:0:0:0:
320,192,130386,1,0,0:0:0:0:
192,192,130562,1,0,0:0:0:0:
320,192,130739,1,0,0:0:0:0:
64,192,130827,1,0,0:0:0:0:
320,192,130915,1,0,0:0:0:0:
64,192,131092,1,0,0:0:0:0:
192,192,131445,1,0,0:0:0:0:
448,192,131621,1,0,0:0:0:0:
320,192,131798,1,0,0:0:0:0:
320,192,131974,1,0,0:0:0:0:
64,192,132151,1,0,0:0:0:0:
192,192,132239,1,0,0:0:0:0:
64,192,132327,1,0,0:0:0:0:
192,192,132503,1,0,0:0:0:0:
64,192,132856,1,0,0:0:0:0:
192,192,132945,1,0,0:0:0:0:
320,192,133033,1,0,0:0:0:0:
448,192,133121,1,0,0:0:0:0:
64,192,133209,128,0,134268:0:0:0:0:
192,192,133209,1,0,0:0:0:0:
192,192,133386,1,0,0:0:0:0:
192,192,133562,1,0,0:0:0:0:
192,192,133739,1,0,0:0:0:0:
192,192,133915,1,0,0:0:0:0:
192,192,134092,1,0,0:0:0:0:
448,192,134268,1,0,0:0:0:0:
320,192,134356,1,0,0:0:0:0:
192,192,134445,1,0,0:0:0:0:
64,192,134533,1,0,0:0:0:0:
448,192,134621,128,0,136033:0:0:0:0:
320,192,134621,1,0,0:0:0:0:
320,192,134798,1,0,0:0:0:0:
320,192,134974,1,0,0:0:0:0:
320,192,135151,1,0,0:0:0:0:
320,192,135327,1,0,0:0:0:0:
320,192,135503,1,0,0:0:0:0:
320,192,135680,1,0,0:0:0:0:
320,192,135856,1,0,0:0:0:0:
320,192,136033,1,0,0:0:0:0:
192,192,136033,128,0,136739:0:0:0:0:
64,192,136033,128,0,136739:0:0:0:0:
448,192,136503,1,0,0:0:0:0:
320,192,136856,1,0,0:0:0:0:
192,192,137092,1,0,0:0:0:0:
64,192,137209,1,0,0:0:0:0:
320,192,137268,1,0,0:0:0:0:
64,192,137445,1,0,0:0:0:0:
320,192,137562,1,0,0:0:0:0:
64,192,137621,1,0,0:0:0:0:
192,192,137798,1,0,0:0:0:0:
320,192,137886,1,0,0:0:0:0:
192,192,137974,1,0,0:0:0:0:
448,192,138033,1,0,0:0:0:0:
320,192,138151,1,0,0:0:0:0:
64,192,138503,1,0,0:0:0:0:
448,192,138503,1,0,0:0:0:0:
320,192,138592,1,0,0:0:0:0:
192,192,138680,1,0,0:0:0:0:
448,192,138768,1,0,0:0:0:0:
64,192,138856,128,0,139915:0:0:0:0:
192,192,138856,1,0,0:0:0:0:
192,192,139033,1,0,0:0:0:0:
192,192,139209,1,0,0:0:0:0:
320,192,139327,1,0,0:0:0:0:
192,192,139386,1,0,0:0:0:0:
192,192,139562,1,0,0:0:0:0:
448,192,139680,1,0,0:0:0:0:
192,192,139739,1,0,0:0:0:0:
320,192,139915,1,0,0:0:0:0:
448,192,140033,1,0,0:0:0:0:
192,192,140033,1,0,0:0:0:0:
64,192,140151,1,0,0:0:0:0:
192,192,140268,1,0,0:0:0:0:
448,192,140386,1,0,0:0:0:0:
64,192,140386,1,0,0:0:0:0:
320,192,140503,1,0,0:0:0:0:
192,192,140621,1,0,0:0:0:0:
448,192,140739,1,0,0:0:0:0:
320,192,140856,1,0,0:0:0:0:
64,192,140974,1,0,0:0:0:0:
192,192,140974,1,0,0:0:0:0:
448,192,141092,1,0,0:0:0:0:
64,192,141209,1,0,0:0:0:0:
320,192,141327,1,0,0:0:0:0:
192,192,141327,1,0,0:0:0:0:
448,192,141445,1,0,0:0:0:0:
64,192,141562,1,0,0:0:0:0:
448,192,141680,1,0,0:0:0:0:
320,192,141680,1,0,0:0:0:0:
192,192,141680,1,0,0:0:0:0:
192,192,141856,1,0,0:0:0:0:
448,192,142033,1,0,0:0:0:0:
64,192,142121,1,0,0:0:0:0:
320,192,142151,1,0,0:0:0:0:
448,192,142209,1,0,0:0:0:0:
320,192,142386,1,0,0:0:0:0:
192,192,142503,1,0,0:0:0:0:
320,192,142739,1,0,0:0:0:0:
64,192,142856,1,0,0:0:0:0:
192,192,142915,1,0,0:0:0:0:
448,192,143092,1,0,0:0:0:0:
64,192,143209,1,0,0:0:0:0:
192,192,143268,1,0,0:0:0:0:
320,192,143445,1,0,0:0:0:0:
64,192,143445,1,0,0:0:0:0:
192,192,143533,1,0,0:0:0:0:
320,192,143621,1,0,0:0:0:0:
64,192,143798,1,0,0:0:0:0:
192,192,143798,1,0,0:0:0:0:
64,192,144151,1,0,0:0:0:0:
320,192,144151,1,0,0:0:0:0:
192,192,144239,1,0,0:0:0:0:
64,192,144327,1,0,0:0:0:0:
192,192,144415,1,0,0:0:0:0:
320,192,144503,128,0,145915:0:0:0:0:
448,192,144503,1,0,0:0:0:0:
64,192,144974,1,0,0:0:0:0:
64,192,145327,1,0,0:0:0:0:
192,192,145680,1,0,0:0:0:0:
448,192,145915,128,0,147327:0:0:0:0:
192,192,146033,128,0,146621:0:0:0:0:
320,192,146621,128,0,146974:0:0:0:0:
192,192,147327,1,0,0:0:0:0:
64,192,147327,1,0,0:0:0:0:
320,192,147327,1,0,0:0:0:0:
448,192,147503,1,0,0:0:0:0:
192,192,147680,1,0,0:0:0:0:
320,192,147680,1,0,0:0:0:0:
64,192,147680,1,0,0:0:0:0:
448,192,147768,1,0,0:0:0:0:
64,192,147856,1,0,0:0:0:0:
320,192,148033,1,0,0:0:0:0:
448,192,148033,1,0,0:0:0:0:
192,192,148033,1,0,0:0:0:0:
64,192,148386,1,0,0:0:0:0:
192,192,148386,1,0,0:0:0:0:
320,192,148386,1,0,0:0:0:0:
64,192,148562,1,0,0:0:0:0:
192,192,148739,1,0,0:0:0:0:
448,192,148739,1,0,0:0:0:0:
320,192,148739,1,0,0:0:0:0:
320,192,148915,1,0,0:0:0:0:
320,192,149092,1,0,0:0:0:0:
64,192,149092,1,0,0:0:0:0:
192,192,149092,1,0,0:0:0:0:
448,192,149180,1,0,0:0:0:0:
64,192,149268,1,0,0:0:0:0:
192,192,149445,1,0,0:0:0:0:
320,192,149445,1,0,0:0:0:0:
448,192,149445,1,0,0:0:0:0:
448,192,149798,1,0,0:0:0:0:
64,192,149798,1,0,0:0:0:0:
192,192,149798,1,0,0:0:0:0:
192,192,149974,1,0,0:0:0:0:
64,192,150151,1,0,0:0:0:0:
320,192,150151,1,0,0:0:0:0:
448,192,150151,1,0,0:0:0:0:
448,192,150327,1,0,0:0:0:0:
320,192,150503,1,0,0:0:0:0:
64,192,150503,1,0,0:0:0:0:
192,192,150503,1,0,0:0:0:0:
448,192,150592,1,0,0:0:0:0:
64,192,150680,1,0,0:0:0:0:
192,192,150856,1,0,0:0:0:0:
448,192,150856,1,0,0:0:0:0:
320,192,150856,1,0,0:0:0:0:
320,192,151209,1,0,0:0:0:0:
192,192,151209,1,0,0:0:0:0:
64,192,151209,1,0,0:0:0:0:
320,192,151386,1,0,0:0:0:0:
192,192,151562,1,0,0:0:0:0:
64,192,151562,1,0,0:0:0:0:
448,192,151562,1,0,0:0:0:0:
64,192,151739,1,0,0:0:0:0:
320,192,151915,1,0,0:0:0:0:
448,192,151915,1,0,0:0:0:0:
192,192,151915,1,0,0:0:0:0:
64,192,152003,1,0,0:0:0:0:
192,192,152092,1,0,0:0:0:0:
192,192,152268,1,0,0:0:0:0:
320,192,152268,1,0,0:0:0:0:
448,192,152268,1,0,0:0:0:0:
64,192,152621,1,0,0:0:0:0:
448,192,152621,1,0,0:0:0:0:
320,192,152621,1,0,0:0:0:0:
320,192,152798,1,0,0:0:0:0:
64,192,152974,1,0,0:0:0:0:
192,192,152974,1,0,0:0:0:0:
448,192,152974,1,0,0:0:0:0:
64,192,153151,1,0,0:0:0:0:
192,192,153327,1,0,0:0:0:0:
320,192,153327,1,0,0:0:0:0:
448,192,153327,1,0,0:0:0:0:
64,192,153415,1,0,0:0:0:0:
320,192,153503,1,0,0:0:0:0:
448,192,153680,1,0,0:0:0:0:
64,192,153680,1,0,0:0:0:0:
192,192,153680,1,0,0:0:0:0:
192,192,154033,1,0,0:0:0:0:
448,192,154033,1,0,0:0:0:0:
320,192,154033,1,0,0:0:0:0:
192,192,154209,1,0,0:0:0:0:
320,192,154386,1,0,0:0:0:0:
64,192,154386,1,0,0:0:0:0:
448,192,154386,1,0,0:0:0:0:
448,192,154562,1,0,0:0:0:0:
192,192,154739,1,0,0:0:0:0:
320,192,154739,1,0,0:0:0:0:
64,192,154739,1,0,0:0:0:0:
448,192,154827,1,0,0:0:0:0:
320,192,154915,1,0,0:0:0:0:
64,192,155092,1,0,0:0:0:0:
448,192,155092,1,0,0:0:0:0:
192,192,155092,1,0,0:0:0:0:
320,192,155445,1,0,0:0:0:0:
448,192,155445,1,0,0:0:0:0:
64,192,155445,1,0,0:0:0:0:
320,192,155621,1,0,0:0:0:0:
192,192,155798,1,0,0:0:0:0:
64,192,155798,1,0,0:0:0:0:
448,192,155798,1,0,0:0:0:0:
64,192,155974,1,0,0:0:0:0:
192,192,156151,1,0,0:0:0:0:
320,192,156151,1,0,0:0:0:0:
448,192,156151,1,0,0:0:0:0:
64,192,156239,1,0,0:0:0:0:
192,192,156327,1,0,0:0:0:0:
320,192,156503,1,0,0:0:0:0:
448,192,156503,1,0,0:0:0:0:
64,192,156503,1,0,0:0:0:0:
192,192,156856,1,0,0:0:0:0:
64,192,156856,1,0,0:0:0:0:
192,192,157209,1,0,0:0:0:0:
320,192,157386,1,0,0:0:0:0:
192,192,157562,1,0,0:0:0:0:
64,192,157739,1,0,0:0:0:0:
192,192,157915,1,0,0:0:0:0:
320,192,158092,1,0,0:0:0:0:
192,192,158268,1,0,0:0:0:0:
64,192,158445,1,0,0:0:0:0:
448,192,158621,1,0,0:0:0:0:
320,192,158621,1,0,0:0:0:0:
448,192,158798,1,0,0:0:0:0:
320,192,158798,1,0,0:0:0:0:
64,192,158886,1,0,0:0:0:0:
192,192,158886,1,0,0:0:0:0:
448,192,158974,1,0,0:0:0:0:
320,192,158974,1,0,0:0:0:0:
192,192,159327,1,0,0:0:0:0:
64,192,159327,1,0,0:0:0:0:
320,192,159680,1,0,0:0:0:0:
448,192,159680,1,0,0:0:0:0:
320,192,160033,1,0,0:0:0:0:
192,192,160033,1,0,0:0:0:0:
64,192,160386,1,0,0:0:0:0:
448,192,160386,1,0,0:0:0:0:
320,192,160739,1,0,0:0:0:0:
64,192,160739,1,0,0:0:0:0:
192,192,161092,1,0,0:0:0:0:
448,192,161092,1,0,0:0:0:0:
192,192,161445,1,0,0:0:0:0:
64,192,161445,1,0,0:0:0:0:
448,192,161445,1,0,0:0:0:0:
192,192,161621,1,0,0:0:0:0:
320,192,161798,1,0,0:0:0:0:
448,192,161798,1,0,0:0:0:0:
64,192,161798,1,0,0:0:0:0:
192,192,161886,1,0,0:0:0:0:
320,192,161974,1,0,0:0:0:0:
448,192,162151,1,0,0:0:0:0:
64,192,162151,1,0,0:0:0:0:
192,192,162151,1,0,0:0:0:0:
64,192,162327,1,0,0:0:0:0:
320,192,162503,1,0,0:0:0:0:
448,192,162503,1,0,0:0:0:0:
192,192,162503,1,0,0:0:0:0:
64,192,162592,1,0,0:0:0:0:
320,192,162680,1,0,0:0:0:0:
448,192,162856,1,0,0:0:0:0:
64,192,162856,1,0,0:0:0:0:
192,192,162856,1,0,0:0:0:0:
192,192,163033,1,0,0:0:0:0:
64,192,163209,1,0,0:0:0:0:
448,192,163209,1,0,0:0:0:0:
320,192,163209,1,0,0:0:0:0:
192,192,163298,1,0,0:0:0:0:
320,192,163386,1,0,0:0:0:0:
192,192,163562,1,0,0:0:0:0:
64,192,163562,1,0,0:0:0:0:
448,192,163562,1,0,0:0:0:0:
64,192,163739,1,0,0:0:0:0:
448,192,163915,1,0,0:0:0:0:
320,192,163915,1,0,0:0:0:0:
192,192,163915,1,0,0:0:0:0:
64,192,164003,1,0,0:0:0:0:
320,192,164092,1,0,0:0:0:0:
448,192,164268,1,0,0:0:0:0:
192,192,164268,1,0,0:0:0:0:
448,192,164445,1,0,0:0:0:0:
192,192,164445,1,0,0:0:0:0:
64,192,164621,1,0,0:0:0:0:
320,192,164621,1,0,0:0:0:0:
64,192,164798,1,0,0:0:0:0:
320,192,164798,1,0,0:0:0:0:
448,192,164974,1,0,0:0:0:0:
192,192,164974,1,0,0:0:0:0:
448,192,165151,1,0,0:0:0:0:
192,192,165151,1,0,0:0:0:0:
64,192,165327,1,0,0:0:0:0:
320,192,165327,1,0,0:0:0:0:
64,192,165503,1,0,0:0:0:0:
320,192,165503,1,0,0:0:0:0:
448,192,165680,1,0,0:0:0:0:
192,192,165680,1,0,0:0:0:0:
448,192,165856,1,0,0:0:0:0:
192,192,165856,1,0,0:0:0:0:
64,192,166033,1,0,0:0:0:0:
320,192,166033,1,0,0:0:0:0:
64,192,166209,1,0,0:0:0:0:
320,192,166209,1,0,0:0:0:0:
192,192,166386,1,0,0:0:0:0:
448,192,166386,1,0,0:0:0:0:
448,192,166562,1,0,0:0:0:0:
192,192,166562,1,0,0:0:0:0:
64,192,166739,1,0,0:0:0:0:
192,192,166739,1,0,0:0:0:0:
448,192,166915,1,0,0:0:0:0:
320,192,166915,1,0,0:0:0:0:
64,192,167092,1,0,0:0:0:0:
192,192,167092,1,0,0:0:0:0:
64,192,167180,1,0,0:0:0:0:
448,192,167268,1,0,0:0:0:0:
320,192,167268,1,0,0:0:0:0:
448,192,167356,1,0,0:0:0:0:
64,192,167445,1,0,0:0:0:0:
192,192,167445,1,0,0:0:0:0:
192,192,167533,1,0,0:0:0:0:
448,192,167621,1,0,0:0:0:0:
320,192,167621,1,0,0:0:0:0:
320,192,167709,1,0,0:0:0:0:
64,192,167798,1,0,0:0:0:0:
192,192,167798,1,0,0:0:0:0:
64,192,167886,1,0,0:0:0:0:
448,192,167974,1,0,0:0:0:0:
320,192,167974,1,0,0:0:0:0:
448,192,168062,1,0,0:0:0:0:
64,192,168151,1,0,0:0:0:0:
192,192,168151,1,0,0:0:0:0:
192,192,168239,1,0,0:0:0:0:
320,192,168327,1,0,0:0:0:0:
448,192,168327,1,0,0:0:0:0:
320,192,168415,1,0,0:0:0:0:
64,192,169209,128,0,169562:0:0:0:0:
320,192,169562,128,0,169915:0:0:0:0:
192,192,169915,1,0,0:0:0:0:
448,192,169915,1,0,0:0:0:0:
192,192,170092,1,0,0:0:0:0:
448,192,170092,1,0,0:0:0:0:
320,192,170180,1,0,0:0:0:0:
64,192,170180,1,0,0:0:0:0:
448,192,170268,1,0,0:0:0:0:
192,192,170268,1,0,0:0:0:0:
320,192,170621,1,0,0:0:0:0:
448,192,170621,1,0,0:0:0:0:
192,192,170974,1,0,0:0:0:0:
64,192,170974,1,0,0:0:0:0:
320,192,170974,1,0,0:0:0:0:
448,192,171151,1,0,0:0:0:0:
192,192,171327,1,0,0:0:0:0:
320,192,171327,1,0,0:0:0:0:
448,192,171327,1,0,0:0:0:0:
64,192,171503,1,0,0:0:0:0:
64,192,171680,1,0,0:0:0:0:
448,192,171680,1,0,0:0:0:0:
320,192,171768,1,0,0:0:0:0:
448,192,171856,1,0,0:0:0:0:
192,192,172033,1,0,0:0:0:0:
448,192,172033,1,0,0:0:0:0:
64,192,172033,1,0,0:0:0:0:
64,192,172386,1,0,0:0:0:0:
320,192,172386,1,0,0:0:0:0:
192,192,172474,1,0,0:0:0:0:
64,192,172562,1,0,0:0:0:0:
448,192,172739,1,0,0:0:0:0:
320,192,172739,128,0,173798:0:0:0:0:
64,192,173092,1,0,0:0:0:0:
192,192,173092,1,0,0:0:0:0:
192,192,173445,1,0,0:0:0:0:
448,192,173445,1,0,0:0:0:0:
64,192,173798,1,0,0:0:0:0:
448,192,173798,1,0,0:0:0:0:
192,192,173886,1,0,0:0:0:0:
448,192,173974,1,0,0:0:0:0:
192,192,174062,1,0,0:0:0:0:
64,192,174151,1,0,0:0:0:0:
320,192,174151,1,0,0:0:0:0:
448,192,174268,1,0,0:0:0:0:
192,192,174268,1,0,0:0:0:0:
320,192,174386,1,0,0:0:0:0:
64,192,174503,1,0,0:0:0:0:
448,192,174503,1,0,0:0:0:0:
192,192,174621,1,0,0:0:0:0:
320,192,174739,1,0,0:0:0:0:
64,192,174739,1,0,0:0:0:0:
192,192,174856,1,0,0:0:0:0:
448,192,174856,1,0,0:0:0:0:
64,192,174974,1,0,0:0:0:0:
320,192,174974,1,0,0:0:0:0:
192,192,175092,1,0,0:0:0:0:
64,192,175209,1,0,0:0:0:0:
448,192,175209,1,0,0:0:0:0:
320,192,175327,1,0,0:0:0:0:
192,192,175445,1,0,0:0:0:0:
448,192,175445,1,0,0:0:0:0:
64,192,175562,1,0,0:0:0:0:
320,192,175562,1,0,0:0:0:0:
448,192,175739,1,0,0:0:0:0:
192,192,175915,1,0,0:0:0:0:
320,192,175915,1,0,0:0:0:0:
64,192,176003,1,0,0:0:0:0:
320,192,176092,1,0,0:0:0:0:
192,192,176268,1,0,0:0:0:0:
448,192,176268,1,0,0:0:0:0:
192,192,176621,1,0,0:0:0:0:
64,192,176621,1,0,0:0:0:0:
64,192,176798,1,0,0:0:0:0:
320,192,176974,1,0,0:0:0:0:
448,192,176974,1,0,0:0:0:0:
320,192,177151,1,0,0:0:0:0:
192,192,177327,1,0,0:0:0:0:
64,192,177327,1,0,0:0:0:0:
448,192,177327,1,0,0:0:0:0:
320,192,177415,1,0,0:0:0:0:
448,192,177503,1,0,0:0:0:0:
192,192,177680,1,0,0:0:0:0:
320,192,178033,1,0,0:0:0:0:
64,192,178033,1,0,0:0:0:0:
192,192,178121,1,0,0:0:0:0:
448,192,178209,1,0,0:0:0:0:
64,192,178298,1,0,0:0:0:0:
320,192,178386,128,0,179445:0:0:0:0:
192,192,178386,1,0,0:0:0:0:
448,192,178739,1,0,0:0:0:0:
192,192,179092,1,0,0:0:0:0:
448,192,179445,1,0,0:0:0:0:
192,192,179445,1,0,0:0:0:0:
64,192,179533,1,0,0:0:0:0:
192,192,179621,1,0,0:0:0:0:
64,192,179709,1,0,0:0:0:0:
192,192,179798,128,0,181209:0:0:0:0:
320,192,179798,1,0,0:0:0:0:
64,192,180151,1,0,0:0:0:0:
64,192,180503,1,0,0:0:0:0:
64,192,180856,1,0,0:0:0:0:
320,192,181209,1,0,0:0:0:0:
448,192,181209,1,0,0:0:0:0:
320,192,181386,1,0,0:0:0:0:
448,192,181386,1,0,0:0:0:0:
192,192,181474,1,0,0:0:0:0:
64,192,181474,1,0,0:0:0:0:
448,192,181562,1,0,0:0:0:0:
320,192,181562,1,0,0:0:0:0:
64,192,181915,1,0,0:0:0:0:
192,192,181915,1,0,0:0:0:0:
192,192,182268,1,0,0:0:0:0:
64,192,182268,1,0,0:0:0:0:
192,192,182445,1,0,0:0:0:0:
320,192,182621,1,0,0:0:0:0:
448,192,182621,1,0,0:0:0:0:
64,192,182798,1,0,0:0:0:0:
320,192,182974,1,0,0:0:0:0:
448,192,182974,1,0,0:0:0:0:
64,192,183062,1,0,0:0:0:0:
448,192,183151,1,0,0:0:0:0:
192,192,183327,1,0,0:0:0:0:
320,192,183327,1,0,0:0:0:0:
64,192,183327,1,0,0:0:0:0:
64,192,183680,1,0,0:0:0:0:
448,192,183680,1,0,0:0:0:0:
320,192,183768,1,0,0:0:0:0:
192,192,183856,1,0,0:0:0:0:
64,192,183945,1,0,0:0:0:0:
192,192,184033,1,0,0:0:0:0:
320,192,184033,1,0,0:0:0:0:
448,192,184033,128,0,185092:0:0:0:0:
64,192,184386,1,0,0:0:0:0:
320,192,184386,1,0,0:0:0:0:
192,192,184739,1,0,0:0:0:0:
64,192,185092,1,0,0:0:0:0:
320,192,185092,1,0,0:0:0:0:
192,192,185180,1,0,0:0:0:0:
320,192,185268,1,0,0:0:0:0:
192,192,185356,1,0,0:0:0:0:
320,192,185445,1,0,0:0:0:0:
64,192,185445,1,0,0:0:0:0:
192,192,185562,1,0,0:0:0:0:
448,192,185562,1,0,0:0:0:0:
320,192,185680,1,0,0:0:0:0:
64,192,185798,1,0,0:0:0:0:
448,192,185798,1,0,0:0:0:0:
192,192,185915,1,0,0:0:0:0:
320,192,186033,1,0,0:0:0:0:
64,192,186033,1,0,0:0:0:0:
448,192,186151,1,0,0:0:0:0:
192,192,186151,1,0,0:0:0:0:
320,192,186268,1,0,0:0:0:0:
64,192,186268,1,0,0:0:0:0:
192,192,186386,1,0,0:0:0:0:
64,192,186503,1,0,0:0:0:0:
448,192,186503,1,0,0:0:0:0:
320,192,186621,1,0,0:0:0:0:
192,192,186739,1,0,0:0:0:0:
448,192,186739,1,0,0:0:0:0:
64,192,186856,1,0,0:0:0:0:
320,192,186856,1,0,0:0:0:0:
192,192,186945,1,0,0:0:0:0:
448,192,187033,1,0,0:0:0:0:
64,192,187121,1,0,0:0:0:0:
192,192,187209,1,0,0:0:0:0:
448,192,187209,1,0,0:0:0:0:
64,192,187298,1,0,0:0:0:0:
448,192,187386,1,0,0:0:0:0:
64,192,187474,1,0,0:0:0:0:
320,192,187562,1,0,0:0:0:0:
448,192,187562,1,0,0:0:0:0:
192,192,187651,1,0,0:0:0:0:
320,192,187739,1,0,0:0:0:0:
448,192,187827,1,0,0:0:0:0:
64,192,187915,1,0,0:0:0:0:
192,192,187915,1,0,0:0:0:0:
320,192,188003,1,0,0:0:0:0:
192,192,188092,1,0,0:0:0:0:
64,192,188180,1,0,0:0:0:0:
320,192,188268,1,0,0:0:0:0:
448,192,188268,1,0,0:0:0:0:
192,192,188356,1,0,0:0:0:0:
64,192,188445,1,0,0:0:0:0:
448,192,188533,1,0,0:0:0:0:
320,192,188621,1,0,0:0:0:0:
192,192,188621,1,0,0:0:0:0:
64,192,188709,1,0,0:0:0:0:
192,192,188798,1,0,0:0:0:0:
320,192,188886,1,0,0:0:0:0:
448,192,188974,1,0,0:0:0:0:
192,192,188974,1,0,0:0:0:0:
320,192,189062,1,0,0:0:0:0:
64,192,189151,1,0,0:0:0:0:
448,192,189239,1,0,0:0:0:0:
192,192,189327,1,0,0:0:0:0:
320,192,189327,1,0,0:0:0:0:
64,192,189415,1,0,0:0:0:0:
448,192,189503,1,0,0:0:0:0:
320,192,189592,1,0,0:0:0:0:
64,192,189680,1,0,0:0:0:0:
192,192,189680,1,0,0:0:0:0:
320,192,189768,1,0,0:0:0:0:
448,192,189768,1,0,0:0:0:0:
192,192,189856,1,0,0:0:0:0:
64,192,189856,1,0,0:0:0:0:
320,192,189945,1,0,0:0:0:0:
448,192,189945,1,0,0:0:0:0:
192,192,190033,1,0,0:0:0:0:
64,192,190033,1,0,0:0:0:0:
320,192,190121,1,0,0:0:0:0:
448,192,190121,1,0,0:0:0:0:
192,192,190209,1,0,0:0:0:0:
64,192,190209,1,0,0:0:0:0:
320,192,190298,1,0,0:0:0:0:
448,192,190298,1,0,0:0:0:0:
192,192,190386,1,0,0:0:0:0:
64,192,190386,1,0,0:0:0:0:
320,192,190474,1,0,0:0:0:0:
448,192,190474,1,0,0:0:0:0:
192,192,190562,1,0,0:0:0:0:
64,192,190562,1,0,0:0:0:0:
320,192,190651,1,0,0:0:0:0:
448,192,190651,1,0,0:0:0:0:
192,192,190739,1,0,0:0:0:0:
64,192,190739,1,0,0:0:0:0:
320,192,190827,1,0,0:0:0:0:
448,192,190827,1,0,0:0:0:0:
192,192,190915,1,0,0:0:0:0:
64,192,190915,1,0,0:0:0:0:
320,192,191003,1,0,0:0:0:0:
448,192,191003,1,0,0:0:0:0:
192,192,191092,1,0,0:0:0:0:
192,192,191445,1,0,0:0:0:0:
192,192,191798,1,0,0:0:0:0:
192,192,192151,1,0,0:0:0:0:
320,192,215092,5,0,0:0:0:0:
64,192,215092,1,0,0:0:0:0:
192,192,215445,1,0,0:0:0:0:
448,192,215445,1,0,0:0:0:0:
320,192,215798,1,0,0:0:0:0:
192,192,215798,1,0,0:0:0:0:
64,192,216151,1,0,0:0:0:0:
448,192,216151,1,0,0:0:0:0:
192,192,216503,1,0,0:0:0:0:
448,192,216503,1,0,0:0:0:0:
320,192,216856,1,0,0:0:0:0:
64,192,216856,1,0,0:0:0:0:
64,192,217209,1,0,0:0:0:0:
192,192,217209,1,0,0:0:0:0:
448,192,217562,1,0,0:0:0:0:
320,192,217562,1,0,0:0:0:0:
64,192,217915,1,0,0:0:0:0:
448,192,217915,1,0,0:0:0:0:
320,192,218268,1,0,0:0:0:0:
192,192,218268,1,0,0:0:0:0:
64,192,218621,1,0,0:0:0:0:
320,192,218621,1,0,0:0:0:0:
448,192,218974,1,0,0:0:0:0:
192,192,218974,1,0,0:0:0:0:
192,192,219327,1,0,0:0:0:0:
320,192,219327,1,0,0:0:0:0:
192,192,219680,1,0,0:0:0:0:
320,192,219680,1,0,0:0:0:0:
64,192,220033,1,0,0:0:0:0:
448,192,220033,1,0,0:0:0:0:
448,192,220386,1,0,0:0:0:0:
64,192,220386,1,0,0:0:0:0:
64,192,220739,1,0,0:0:0:0:
192,192,220739,1,0,0:0:0:0:
192,192,221092,1,0,0:0:0:0:
64,192,221092,1,0,0:0:0:0:
320,192,221445,1,0,0:0:0:0:
448,192,221445,1,0,0:0:0:0:
448,192,221798,1,0,0:0:0:0:
320,192,221798,1,0,0:0:0:0:
64,192,222151,1,0,0:0:0:0:
320,192,222151,1,0,0:0:0:0:
320,192,222503,1,0,0:0:0:0:
64,192,222503,1,0,0:0:0:0:
192,192,222856,1,0,0:0:0:0:
448,192,222856,1,0,0:0:0:0:
448,192,223209,1,0,0:0:0:0:
192,192,223209,1,0,0:0:0:0:
192,192,223562,1,0,0:0:0:0:
320,192,223562,1,0,0:0:0:0:
64,192,223915,1,0,0:0:0:0:
448,192,223915,1,0,0:0:0:0:
192,192,224268,1,0,0:0:0:0:
320,192,224268,1,0,0:0:0:0:
64,192,224621,1,0,0:0:0:0:
448,192,224621,1,0,0:0:0:0:
320,192,226033,128,0,226209:0:0:0:0:
64,192,226209,128,0,226386:0:0:0:0:
192,192,226386,1,0,0:0:0:0:
448,192,226386,1,0,0:0:0:0:
192,192,226562,1,0,0:0:0:0:
448,192,226562,1,0,0:0:0:0:
64,192,226651,1,0,0:0:0:0:
320,192,226651,1,0,0:0:0:0:
192,192,226739,1,0,0:0:0:0:
448,192,226739,1,0,0:0:0:0:
