osu file format v14

[General]
AudioFilename: Twin Rocket [EXH].mp3
AudioLeadIn: 0
PreviewTime: 64959
Countdown: 0
SampleSet: Soft
StackLeniency: 0.7
Mode: 3
LetterboxInBreaks: 0
SpecialStyle: 0
WidescreenStoryboard: 0

[Editor]
DistanceSpacing: 1.1
BeatDivisor: 4
GridSize: 4
TimelineZoom: 1.9

[Metadata]
Title:Twin Rocket
TitleUnicode:Twin Rocket
Artist:uno feat.Chiyoko(IOSYS)
ArtistUnicode:uno feat.ちよこ(IOSYS)
Creator:LevPrism-
Version:LevPrism- vs. LeiN- 4K EXH
Source:SOUND VOLTEX III GRAVITY WARS
Tags:SDVX LeiN- sirade Zan Original Song Contest 第一回ボルテキャラテーマ曲コンテスト Character Theme First NEAR NOAH
BeatmapID:556645
BeatmapSetID:240931

[Difficulty]
HPDrainRate:8
CircleSize:4
OverallDifficulty:8
ApproachRate:5
SliderMultiplier:1.4
SliderTickRate:1

[Events]
//Background and Video events
0,0,"BG.jpg",0,0
//Break Periods
//Storyboard Layer 0 (Background)
//Storyboard Layer 1 (Fail)
//Storyboard Layer 2 (Pass)
//Storyboard Layer 3 (Foreground)
//Storyboard Sound Samples

[TimingPoints]
1392,324.324324324324,4,2,1,20,1,0
66257,-100,4,2,1,20,0,1
76635,-100,4,2,1,20,0,0
87013,-100,4,2,1,20,0,1
107770,-100,4,2,1,20,0,0

[HitObjects]
448,192,1392,5,0,0:0:0:0:
64,192,1392,128,0,2527:0:0:0:0:
192,192,1878,1,0,0:0:0:0:
320,192,1959,1,0,0:0:0:0:
448,192,2040,1,0,0:0:0:0:
192,192,2202,128,0,2527:0:0:0:0:
320,192,2527,1,0,0:0:0:0:
448,192,2527,1,0,0:0:0:0:
64,192,2851,1,0,0:0:0:0:
320,192,2851,1,0,0:0:0:0:
448,192,2851,1,0,0:0:0:0:
64,192,3013,1,0,0:0:0:0:
320,192,3013,1,0,0:0:0:0:
448,192,3013,1,0,0:0:0:0:
192,192,3176,1,0,0:0:0:0:
192,192,3257,1,0,0:0:0:0:
192,192,3338,1,0,0:0:0:0:
448,192,3581,1,0,0:0:0:0:
192,192,3662,128,0,3824:0:0:0:0:
320,192,3662,128,0,3824:0:0:0:0:
64,192,3824,1,0,0:0:0:0:
448,192,3824,1,0,0:0:0:0:
320,192,3986,128,0,4149:0:0:0:0:
192,192,4149,1,0,0:0:0:0:
320,192,4311,128,0,4473:0:0:0:0:
448,192,4473,1,0,0:0:0:0:
192,192,4635,1,0,0:0:0:0:
320,192,4716,1,0,0:0:0:0:
448,192,4797,1,0,0:0:0:0:
320,192,5121,1,0,0:0:0:0:
448,192,5121,1,0,0:0:0:0:
192,192,5446,1,0,0:0:0:0:
448,192,5446,1,0,0:0:0:0:
320,192,5608,1,0,0:0:0:0:
192,192,5770,1,0,0:0:0:0:
320,192,5770,1,0,0:0:0:0:
448,192,5932,1,0,0:0:0:0:
64,192,5932,1,0,0:0:0:0:
320,192,6013,1,0,0:0:0:0:
448,192,6094,1,0,0:0:0:0:
320,192,6176,1,0,0:0:0:0:
448,192,6256,1,0,0:0:0:0:
192,192,6257,1,0,0:0:0:0:
320,192,6419,1,0,0:0:0:0:
64,192,6419,1,0,0:0:0:0:
192,192,6581,128,0,6743:0:0:0:0:
64,192,6743,1,0,0:0:0:0:
192,192,6905,128,0,7067:0:0:0:0:
320,192,7067,1,0,0:0:0:0:
448,192,7230,1,0,0:0:0:0:
320,192,7311,1,0,0:0:0:0:
192,192,7392,1,0,0:0:0:0:
192,192,7716,128,0,7878:0:0:0:0:
320,192,7878,1,0,0:0:0:0:
448,192,8040,1,0,0:0:0:0:
64,192,8040,128,0,8851:0:0:0:0:
192,192,8202,1,0,0:0:0:0:
448,192,8364,1,0,0:0:0:0:
320,192,8527,128,0,8851:0:0:0:0:
192,192,8851,1,0,0:0:0:0:
320,192,9176,128,0,9338:0:0:0:0:
192,192,9338,1,0,0:0:0:0:
320,192,9500,128,0,9662:0:0:0:0:
448,192,9662,1,0,0:0:0:0:
64,192,9824,1,0,0:0:0:0:
192,192,9905,1,0,0:0:0:0:
320,192,9986,1,0,0:0:0:0:
448,192,10311,128,0,10635:0:0:0:0:
192,192,10635,1,0,0:0:0:0:
192,192,10959,1,0,0:0:0:0:
192,192,11121,128,0,11446:0:0:0:0:
64,192,11446,1,0,0:0:0:0:
64,192,11770,128,0,11932:0:0:0:0:
448,192,11770,1,0,0:0:0:0:
320,192,11851,1,0,0:0:0:0:
448,192,11932,1,0,0:0:0:0:
320,192,12013,1,0,0:0:0:0:
64,192,12094,128,0,12256:0:0:0:0:
448,192,12094,1,0,0:0:0:0:
320,192,12175,1,0,0:0:0:0:
192,192,12256,128,0,12419:0:0:0:0:
448,192,12256,1,0,0:0:0:0:
320,192,12337,1,0,0:0:0:0:
448,192,12419,1,0,0:0:0:0:
320,192,12500,1,0,0:0:0:0:
192,192,12581,128,0,12743:0:0:0:0:
448,192,12581,1,0,0:0:0:0:
320,192,12662,1,0,0:0:0:0:
64,192,12743,1,0,0:0:0:0:
448,192,12743,128,0,13067:0:0:0:0:
192,192,12824,1,0,0:0:0:0:
64,192,12905,1,0,0:0:0:0:
192,192,12986,1,0,0:0:0:0:
64,192,13067,1,0,0:0:0:0:
192,192,13148,1,0,0:0:0:0:
320,192,13229,1,0,0:0:0:0:
448,192,13310,1,0,0:0:0:0:
64,192,13391,1,0,0:0:0:0:
192,192,13473,1,0,0:0:0:0:
320,192,13554,1,0,0:0:0:0:
448,192,13635,1,0,0:0:0:0:
192,192,13716,128,0,14040:0:0:0:0:
320,192,13716,128,0,14040:0:0:0:0:
64,192,14040,1,8,1:0:0:0:
448,192,14040,1,0,1:0:0:0:
64,192,14203,1,8,1:0:0:0:
448,192,14203,1,0,1:0:0:0:
192,192,14365,1,0,0:0:0:0:
320,192,14365,1,0,0:0:0:0:
64,192,14689,1,0,0:0:0:0:
192,192,14689,1,0,0:0:0:0:
192,192,14851,1,0,0:0:0:0:
448,192,14851,1,0,0:0:0:0:
64,192,15013,1,0,0:0:0:0:
192,192,15176,1,0,0:0:0:0:
448,192,15176,1,0,0:0:0:0:
192,192,15337,1,0,0:0:0:0:
64,192,15338,1,0,0:0:0:0:
320,192,15500,1,0,0:0:0:0:
448,192,15581,1,0,0:0:0:0:
64,192,15662,1,0,0:0:0:0:
192,192,15824,1,0,0:0:0:0:
448,192,15824,1,0,0:0:0:0:
64,192,15986,1,0,0:0:0:0:
448,192,15986,1,0,0:0:0:0:
192,192,16149,1,0,0:0:0:0:
448,192,16149,1,0,0:0:0:0:
64,192,16311,1,0,0:0:0:0:
192,192,16473,1,0,0:0:0:0:
448,192,16473,1,0,0:0:0:0:
64,192,16635,1,0,0:0:0:0:
448,192,16635,1,0,0:0:0:0:
192,192,16797,1,0,0:0:0:0:
320,192,16797,1,0,0:0:0:0:
448,192,16959,1,0,0:0:0:0:
64,192,16959,1,0,0:0:0:0:
320,192,17121,1,0,0:0:0:0:
64,192,17121,1,0,0:0:0:0:
192,192,17283,1,0,0:0:0:0:
448,192,17284,1,0,0:0:0:0:
320,192,17446,1,0,0:0:0:0:
64,192,17446,1,0,0:0:0:0:
448,192,17608,1,0,0:0:0:0:
64,192,17770,1,0,0:0:0:0:
192,192,17851,1,0,0:0:0:0:
448,192,17932,1,0,0:0:0:0:
320,192,17932,1,0,0:0:0:0:
64,192,18094,1,0,0:0:0:0:
320,192,18176,1,0,0:0:0:0:
448,192,18257,1,0,0:0:0:0:
192,192,18257,1,0,0:0:0:0:
64,192,18500,1,0,0:0:0:0:
320,192,18500,1,0,0:0:0:0:
192,192,18500,1,0,0:0:0:0:
192,192,18743,1,0,0:0:0:0:
448,192,18743,1,0,0:0:0:0:
320,192,18743,1,0,0:0:0:0:
64,192,18905,1,0,0:0:0:0:
320,192,18905,1,0,0:0:0:0:
64,192,19067,1,0,0:0:0:0:
320,192,19067,1,0,0:0:0:0:
192,192,19230,1,0,0:0:0:0:
320,192,19310,1,0,0:0:0:0:
192,192,19391,1,0,0:0:0:0:
320,192,19473,1,0,0:0:0:0:
64,192,19554,128,0,19878:0:0:0:0:
448,192,19554,1,0,0:0:0:0:
448,192,19878,1,0,0:0:0:0:
320,192,19878,1,0,0:0:0:0:
64,192,20040,1,0,0:0:0:0:
320,192,20040,1,0,0:0:0:0:
448,192,20202,1,0,0:0:0:0:
320,192,20364,1,0,0:0:0:0:
64,192,20364,1,0,0:0:0:0:
448,192,20527,1,0,0:0:0:0:
320,192,20689,1,0,0:0:0:0:
192,192,20770,1,0,0:0:0:0:
64,192,20851,1,0,0:0:0:0:
192,192,21013,1,0,0:0:0:0:
448,192,21013,1,0,0:0:0:0:
320,192,21175,1,0,0:0:0:0:
192,192,21175,1,0,0:0:0:0:
192,192,21338,1,0,0:0:0:0:
448,192,21338,1,0,0:0:0:0:
64,192,21500,1,0,0:0:0:0:
192,192,21662,1,0,0:0:0:0:
320,192,21662,1,0,0:0:0:0:
448,192,21824,1,0,0:0:0:0:
64,192,21824,1,0,0:0:0:0:
320,192,21986,1,0,0:0:0:0:
64,192,21986,1,0,0:0:0:0:
192,192,22149,128,0,22311:0:0:0:0:
64,192,22310,1,0,0:0:0:0:
448,192,22311,128,0,22473:0:0:0:0:
64,192,22473,128,0,22635:0:0:0:0:
192,192,22473,1,0,0:0:0:0:
320,192,22635,128,0,22797:0:0:0:0:
448,192,22635,1,0,0:0:0:0:
192,192,22797,1,0,0:0:0:0:
64,192,22797,1,0,0:0:0:0:
448,192,22959,1,0,0:0:0:0:
448,192,23040,1,0,0:0:0:0:
192,192,23121,1,0,0:0:0:0:
64,192,23121,1,0,0:0:0:0:
320,192,23284,1,0,0:0:0:0:
320,192,23365,1,0,0:0:0:0:
64,192,23446,128,0,23770:0:0:0:0:
448,192,23446,128,0,23770:0:0:0:0:
320,192,23770,1,0,0:0:0:0:
192,192,23851,1,0,0:0:0:0:
64,192,24013,1,0,0:0:0:0:
448,192,24013,1,0,0:0:0:0:
192,192,24094,128,0,24257:0:0:0:0:
320,192,24094,128,0,24257:0:0:0:0:
64,192,24257,1,0,0:0:0:0:
448,192,24257,1,0,0:0:0:0:
64,192,24419,128,0,24743:0:0:0:0:
448,192,24743,1,0,0:0:0:0:
320,192,24743,1,0,0:0:0:0:
320,192,25067,1,0,0:0:0:0:
64,192,25067,1,0,0:0:0:0:
192,192,25229,1,0,0:0:0:0:
64,192,25230,1,0,0:0:0:0:
320,192,25391,1,0,0:0:0:0:
64,192,25554,1,0,0:0:0:0:
192,192,25554,1,0,0:0:0:0:
320,192,25716,1,0,0:0:0:0:
64,192,25716,1,0,0:0:0:0:
448,192,25878,1,0,0:0:0:0:
320,192,25959,1,0,0:0:0:0:
192,192,26040,1,0,0:0:0:0:
320,192,26203,1,0,0:0:0:0:
448,192,26203,1,0,0:0:0:0:
448,192,26364,1,0,0:0:0:0:
192,192,26365,1,0,0:0:0:0:
320,192,26527,1,0,0:0:0:0:
448,192,26527,1,0,0:0:0:0:
64,192,26689,128,8,26851:1:0:0:0:
448,192,26689,128,8,26851:1:0:0:0:
192,192,26689,1,0,0:0:0:0:
320,192,26689,1,0,0:0:0:0:
64,192,27013,128,8,27176:1:0:0:0:
448,192,27013,128,8,27176:1:0:0:0:
320,192,27013,1,0,0:0:0:0:
192,192,27013,1,0,0:0:0:0:
448,192,27338,1,0,0:0:0:0:
192,192,27500,1,0,0:0:0:0:
64,192,27500,1,0,0:0:0:0:
448,192,27662,1,0,0:0:0:0:
64,192,27662,1,0,0:0:0:0:
192,192,27824,1,0,0:0:0:0:
64,192,27824,1,0,0:0:0:0:
448,192,27986,1,0,0:0:0:0:
192,192,28149,1,0,0:0:0:0:
64,192,28149,1,0,0:0:0:0:
448,192,28310,1,0,0:0:0:0:
320,192,28311,1,0,0:0:0:0:
192,192,28473,1,0,0:0:0:0:
448,192,28473,1,0,0:0:0:0:
64,192,28635,5,2,1:0:0:0:
192,192,28635,1,2,1:0:0:0:
448,192,28635,128,0,28959:0:0:0:0:
192,192,28743,1,2,1:0:0:0:
64,192,28743,1,2,1:0:0:0:
192,192,28851,1,2,1:0:0:0:
64,192,28851,1,2,1:0:0:0:
192,192,28959,1,2,1:0:0:0:
64,192,28959,1,2,1:0:0:0:
448,192,29284,1,2,1:0:0:0:
64,192,29284,128,0,29608:0:0:0:0:
320,192,29284,1,2,1:0:0:0:
448,192,29392,1,2,1:0:0:0:
320,192,29392,1,2,1:0:0:0:
448,192,29500,1,2,1:0:0:0:
320,192,29500,1,2,1:0:0:0:
448,192,29608,1,2,1:0:0:0:
320,192,29608,1,2,1:0:0:0:
192,192,29932,1,0,0:0:0:0:
448,192,29932,1,0,0:0:0:0:
64,192,30094,1,0,0:0:0:0:
192,192,30094,1,0,0:0:0:0:
320,192,30094,128,0,30419:0:0:0:0:
448,192,30419,1,0,0:0:0:0:
192,192,30419,1,0,0:0:0:0:
64,192,30419,128,0,30743:0:0:0:0:
320,192,30743,1,0,0:0:0:0:
448,192,30743,1,0,0:0:0:0:
192,192,30743,128,0,31067:0:0:0:0:
448,192,31067,1,0,0:0:0:0:
64,192,31067,1,0,0:0:0:0:
320,192,31067,128,0,31391:0:0:0:0:
64,192,31391,128,0,31716:0:0:0:0:
192,192,31392,1,0,0:0:0:0:
448,192,31392,1,0,0:0:0:0:
448,192,31716,1,0,0:0:0:0:
192,192,31716,128,0,32040:0:0:0:0:
320,192,31716,1,0,0:0:0:0:
320,192,32040,1,0,0:0:0:0:
64,192,32040,1,0,0:0:0:0:
448,192,32040,128,0,32364:0:0:0:0:
320,192,32364,1,0,0:0:0:0:
192,192,32364,1,0,0:0:0:0:
64,192,32364,128,0,32689:0:0:0:0:
192,192,32689,1,0,0:0:0:0:
448,192,32689,1,0,0:0:0:0:
320,192,32689,128,0,33013:0:0:0:0:
64,192,33013,1,0,0:0:0:0:
448,192,33013,1,0,0:0:0:0:
192,192,33013,128,0,33337:0:0:0:0:
320,192,33337,1,0,0:0:0:0:
64,192,33337,128,0,33662:0:0:0:0:
448,192,33338,1,0,0:0:0:0:
448,192,33662,1,0,0:0:0:0:
192,192,33662,1,0,0:0:0:0:
320,192,33662,128,0,34473:0:0:0:0:
64,192,34310,1,0,0:0:0:0:
64,192,34391,1,0,0:0:0:0:
192,192,34473,128,0,34959:0:0:0:0:
448,192,34797,1,0,0:0:0:0:
320,192,34797,1,0,0:0:0:0:
64,192,34959,1,0,0:0:0:0:
320,192,34959,1,0,0:0:0:0:
448,192,35121,128,0,35284:0:0:0:0:
320,192,35284,128,0,35446:0:0:0:0:
448,192,35446,128,0,35608:0:0:0:0:
320,192,35608,128,0,35770:0:0:0:0:
64,192,35770,1,0,0:0:0:0:
192,192,35851,1,0,0:0:0:0:
448,192,35932,128,0,36256:0:0:0:0:
64,192,36257,128,0,36581:0:0:0:0:
448,192,36581,128,0,37716:0:0:0:0:
192,192,36581,128,0,36905:0:0:0:0:
64,192,36905,1,0,0:0:0:0:
320,192,36905,1,0,0:0:0:0:
192,192,37067,128,0,37392:0:0:0:0:
64,192,37392,1,0,0:0:0:0:
320,192,37392,1,0,0:0:0:0:
192,192,37554,1,0,0:0:0:0:
64,192,37716,128,0,37878:0:0:0:0:
192,192,37878,128,0,38040:0:0:0:0:
64,192,38040,128,0,38203:0:0:0:0:
192,192,38203,128,0,38365:0:0:0:0:
448,192,38365,1,0,0:0:0:0:
320,192,38446,1,0,0:0:0:0:
64,192,38527,128,0,38851:0:0:0:0:
320,192,38851,1,0,0:0:0:0:
448,192,38851,1,0,0:0:0:0:
320,192,39176,1,0,0:0:0:0:
192,192,39500,1,0,0:0:0:0:
64,192,39662,128,0,39986:0:0:0:0:
448,192,39662,1,0,0:0:0:0:
320,192,39743,1,0,0:0:0:0:
448,192,39824,1,0,0:0:0:0:
320,192,39905,1,0,0:0:0:0:
192,192,39986,1,0,0:0:0:0:
64,192,40148,1,0,0:0:0:0:
320,192,40148,1,0,0:0:0:0:
448,192,40311,128,0,40473:0:0:0:0:
320,192,40473,128,0,40635:0:0:0:0:
192,192,40635,128,0,40797:0:0:0:0:
64,192,40797,128,0,40959:0:0:0:0:
192,192,40959,1,0,0:0:0:0:
320,192,41040,1,0,0:0:0:0:
448,192,41121,128,0,41446:0:0:0:0:
64,192,41446,1,0,0:0:0:0:
192,192,41446,1,0,0:0:0:0:
192,192,41770,1,0,0:0:0:0:
448,192,41770,1,0,0:0:0:0:
320,192,41932,1,0,0:0:0:0:
64,192,41932,1,0,0:0:0:0:
192,192,42094,1,0,0:0:0:0:
448,192,42094,1,0,0:0:0:0:
64,192,42257,128,0,42581:0:0:0:0:
320,192,42581,1,0,0:0:0:0:
192,192,42581,1,0,0:0:0:0:
192,192,42905,1,0,0:0:0:0:
448,192,42905,1,0,0:0:0:0:
192,192,43230,1,0,0:0:0:0:
448,192,43230,1,0,0:0:0:0:
320,192,43392,1,0,0:0:0:0:
64,192,43392,1,0,0:0:0:0:
192,192,43716,1,0,0:0:0:0:
64,192,43716,1,0,0:0:0:0:
320,192,43878,1,0,0:0:0:0:
448,192,43878,1,0,0:0:0:0:
64,192,44202,1,0,0:0:0:0:
192,192,44202,128,0,44527:0:0:0:0:
320,192,44202,128,0,44527:0:0:0:0:
64,192,44527,1,0,0:0:0:0:
448,192,44527,1,0,0:0:0:0:
64,192,44850,128,8,45012:1:0:0:0:
448,192,44850,128,8,45012:1:0:0:0:
192,192,44851,1,0,0:0:0:0:
320,192,44851,1,0,0:0:0:0:
64,192,45175,128,8,45337:1:0:0:0:
192,192,45175,1,0,0:0:0:0:
320,192,45175,1,0,0:0:0:0:
448,192,45176,128,8,45338:1:0:0:0:
64,192,45500,1,0,0:0:0:0:
192,192,45500,1,0,0:0:0:0:
448,192,45500,1,0,0:0:0:0:
320,192,45824,1,0,0:0:0:0:
448,192,45824,1,0,0:0:0:0:
64,192,45824,1,0,0:0:0:0:
192,192,46148,1,0,0:0:0:0:
64,192,46148,1,0,0:0:0:0:
320,192,46229,1,0,0:0:0:0:
64,192,46310,1,0,0:0:0:0:
192,192,46310,1,0,0:0:0:0:
448,192,46310,1,0,0:0:0:0:
320,192,46473,1,0,0:0:0:0:
320,192,46635,1,0,0:0:0:0:
448,192,46635,1,0,0:0:0:0:
192,192,46635,1,0,0:0:0:0:
64,192,46797,128,0,46959:0:0:0:0:
192,192,46959,128,0,47121:0:0:0:0:
64,192,47121,128,0,47284:0:0:0:0:
192,192,47284,128,0,47446:0:0:0:0:
64,192,47446,128,0,47608:0:0:0:0:
192,192,47608,128,0,47770:0:0:0:0:
320,192,47770,128,0,47932:0:0:0:0:
448,192,47932,128,0,48094:0:0:0:0:
192,192,48094,1,0,0:0:0:0:
64,192,48094,1,0,0:0:0:0:
320,192,48094,1,0,0:0:0:0:
448,192,48256,1,0,0:0:0:0:
64,192,48419,1,0,0:0:0:0:
192,192,48419,1,0,0:0:0:0:
320,192,48419,1,0,0:0:0:0:
448,192,48581,1,0,0:0:0:0:
192,192,48743,1,0,0:0:0:0:
64,192,48743,1,0,0:0:0:0:
320,192,48824,1,0,0:0:0:0:
192,192,48905,1,0,0:0:0:0:
64,192,48905,1,0,0:0:0:0:
448,192,48905,1,0,0:0:0:0:
320,192,49067,1,0,0:0:0:0:
320,192,49229,1,0,0:0:0:0:
64,192,49230,1,0,0:0:0:0:
192,192,49230,1,0,0:0:0:0:
448,192,49392,128,0,49554:0:0:0:0:
320,192,49554,128,0,49716:0:0:0:0:
448,192,49716,128,0,49878:0:0:0:0:
320,192,49878,128,0,50040:0:0:0:0:
448,192,50040,128,0,50203:0:0:0:0:
320,192,50203,128,0,50365:0:0:0:0:
192,192,50365,128,0,50527:0:0:0:0:
64,192,50527,128,0,50689:0:0:0:0:
192,192,50689,1,0,0:0:0:0:
320,192,50689,1,0,0:0:0:0:
448,192,50689,1,0,0:0:0:0:
64,192,50851,1,0,0:0:0:0:
192,192,51013,1,0,0:0:0:0:
320,192,51013,1,0,0:0:0:0:
448,192,51013,1,0,0:0:0:0:
64,192,51175,1,0,0:0:0:0:
448,192,51338,1,0,0:0:0:0:
320,192,51338,1,0,0:0:0:0:
192,192,51419,1,0,0:0:0:0:
448,192,51500,1,0,0:0:0:0:
320,192,51500,1,0,0:0:0:0:
64,192,51500,1,0,0:0:0:0:
192,192,51662,1,0,0:0:0:0:
64,192,51824,1,0,0:0:0:0:
448,192,51824,1,0,0:0:0:0:
320,192,51824,1,0,0:0:0:0:
192,192,51986,128,0,52149:0:0:0:0:
320,192,51986,128,0,52149:0:0:0:0:
64,192,52149,128,0,52311:0:0:0:0:
448,192,52149,128,0,52311:0:0:0:0:
320,192,52311,128,0,52473:0:0:0:0:
192,192,52311,128,0,52473:0:0:0:0:
64,192,52473,128,0,52635:0:0:0:0:
448,192,52473,128,0,52635:0:0:0:0:
192,192,52635,128,0,52797:0:0:0:0:
320,192,52635,128,0,52797:0:0:0:0:
64,192,52797,1,0,0:0:0:0:
448,192,52797,1,0,0:0:0:0:
192,192,52959,1,0,0:0:0:0:
320,192,53040,1,0,0:0:0:0:
192,192,53121,1,0,0:0:0:0:
320,192,53202,1,0,0:0:0:0:
64,192,53284,128,0,54581:0:0:0:0:
192,192,53284,1,0,0:0:0:0:
448,192,53284,1,0,0:0:0:0:
192,192,53608,1,0,0:0:0:0:
448,192,53608,1,0,0:0:0:0:
192,192,53770,1,0,0:0:0:0:
448,192,53770,1,0,0:0:0:0:
192,192,54094,1,0,0:0:0:0:
320,192,54094,1,0,0:0:0:0:
192,192,54257,1,0,0:0:0:0:
320,192,54257,1,0,0:0:0:0:
448,192,54581,128,0,55878:0:0:0:0:
192,192,54581,1,0,0:0:0:0:
320,192,54743,128,0,55067:0:0:0:0:
192,192,55067,1,0,0:0:0:0:
64,192,55230,128,0,55554:0:0:0:0:
192,192,55554,128,0,55878:0:0:0:0:
64,192,55878,128,0,56040:0:0:0:0:
320,192,55878,128,0,56040:0:0:0:0:
192,192,56040,128,0,56202:0:0:0:0:
320,192,56202,128,0,56364:0:0:0:0:
64,192,56202,128,0,56364:0:0:0:0:
192,192,56364,128,0,56527:0:0:0:0:
64,192,56527,1,0,0:0:0:0:
448,192,56527,1,0,0:0:0:0:
64,192,56689,1,0,0:0:0:0:
64,192,56851,1,0,0:0:0:0:
64,192,57013,1,0,0:0:0:0:
320,192,57176,128,0,57824:0:0:0:0:
448,192,57176,1,0,0:0:0:0:
448,192,57338,1,0,0:0:0:0:
448,192,57500,1,0,0:0:0:0:
64,192,57500,1,0,0:0:0:0:
448,192,57662,1,0,0:0:0:0:
192,192,57662,1,0,0:0:0:0:
192,192,57824,1,0,0:0:0:0:
64,192,57824,1,0,0:0:0:0:
448,192,57824,1,0,0:0:0:0:
320,192,57986,1,0,0:0:0:0:
192,192,58148,1,0,0:0:0:0:
64,192,58149,1,0,0:0:0:0:
448,192,58311,1,0,0:0:0:0:
64,192,58473,1,0,0:0:0:0:
192,192,58513,1,0,0:0:0:0:
320,192,58554,1,0,0:0:0:0:
448,192,58594,1,0,0:0:0:0:
64,192,58635,1,0,0:0:0:0:
64,192,58797,1,0,0:0:0:0:
64,192,58959,1,0,0:0:0:0:
192,192,59121,128,0,59446:0:0:0:0:
448,192,59121,1,0,0:0:0:0:
448,192,59284,1,0,0:0:0:0:
448,192,59446,1,0,0:0:0:0:
448,192,59608,1,0,0:0:0:0:
192,192,59770,1,0,0:0:0:0:
64,192,59770,1,0,0:0:0:0:
320,192,59770,128,0,60094:0:0:0:0:
448,192,59932,1,0,0:0:0:0:
192,192,60094,1,0,0:0:0:0:
64,192,60094,128,0,60419:0:0:0:0:
448,192,60257,1,0,0:0:0:0:
192,192,60419,1,0,0:0:0:0:
320,192,60419,1,0,0:0:0:0:
448,192,60419,1,0,0:0:0:0:
64,192,60581,1,0,0:0:0:0:
320,192,60743,1,0,0:0:0:0:
192,192,60905,1,0,0:0:0:0:
64,192,61067,128,0,61392:0:0:0:0:
448,192,61067,128,0,61392:0:0:0:0:
192,192,61391,1,0,0:0:0:0:
320,192,61391,128,0,61716:0:0:0:0:
64,192,61716,1,0,0:0:0:0:
448,192,61716,1,0,0:0:0:0:
192,192,61878,128,0,62040:0:0:0:0:
320,192,62040,128,0,62202:0:0:0:0:
64,192,62040,128,0,62202:0:0:0:0:
448,192,62202,128,0,62364:0:0:0:0:
64,192,62364,1,0,0:0:0:0:
192,192,62365,1,0,0:0:0:0:
320,192,62527,128,0,62689:0:0:0:0:
192,192,62689,128,0,62851:0:0:0:0:
448,192,62689,128,0,62851:0:0:0:0:
64,192,62851,128,0,63013:0:0:0:0:
448,192,63013,128,0,64959:0:0:0:0:
320,192,63013,1,0,0:0:0:0:
192,192,63176,1,0,0:0:0:0:
64,192,63338,1,0,0:0:0:0:
192,192,63500,1,0,0:0:0:0:
320,192,63662,1,0,0:0:0:0:
192,192,63662,1,0,0:0:0:0:
64,192,63662,128,0,64959:0:0:0:0:
192,192,63905,1,0,0:0:0:0:
320,192,63905,1,0,0:0:0:0:
192,192,64149,1,0,0:0:0:0:
320,192,64149,1,0,0:0:0:0:
192,192,64392,1,0,0:0:0:0:
320,192,64392,1,0,0:0:0:0:
192,192,64635,1,0,0:0:0:0:
320,192,64635,1,0,0:0:0:0:
192,192,64797,1,0,0:0:0:0:
320,192,64797,1,0,0:0:0:0:
192,192,64959,1,0,0:0:0:0:
320,192,65040,1,0,0:0:0:0:
448,192,65121,1,0,0:0:0:0:
64,192,65202,1,0,0:0:0:0:
192,192,65284,1,0,0:0:0:0:
320,192,65364,1,0,0:0:0:0:
192,192,65446,1,0,0:0:0:0:
320,192,65527,1,0,0:0:0:0:
448,192,65608,128,0,65932:0:0:0:0:
64,192,65608,1,0,0:0:0:0:
192,192,65689,1,0,0:0:0:0:
64,192,65770,1,0,0:0:0:0:
192,192,65851,1,0,0:0:0:0:
320,192,65932,1,0,0:0:0:0:
64,192,65932,1,0,0:0:0:0:
64,192,66094,1,0,0:0:0:0:
320,192,66094,1,0,0:0:0:0:
320,192,66256,1,0,0:0:0:0:
448,192,66257,128,0,66419:0:0:0:0:
192,192,66419,1,0,0:0:0:0:
448,192,66581,128,0,66743:0:0:0:0:
320,192,66581,1,0,0:0:0:0:
64,192,66743,1,0,0:0:0:0:
320,192,66824,1,0,0:0:0:0:
448,192,67067,1,0,0:0:0:0:
320,192,67230,1,0,0:0:0:0:
192,192,67311,1,0,0:0:0:0:
320,192,67392,1,0,0:0:0:0:
448,192,67392,1,0,0:0:0:0:
320,192,67554,1,0,0:0:0:0:
192,192,67635,1,0,0:0:0:0:
320,192,67716,1,0,0:0:0:0:
448,192,67716,1,0,0:0:0:0:
64,192,67878,1,0,0:0:0:0:
320,192,67959,1,0,0:0:0:0:
192,192,68121,1,0,0:0:0:0:
64,192,68203,1,0,0:0:0:0:
320,192,68203,1,0,0:0:0:0:
320,192,68363,1,0,0:0:0:0:
192,192,68364,1,0,0:0:0:0:
64,192,68527,1,0,0:0:0:0:
192,192,68608,1,0,0:0:0:0:
64,192,68689,1,0,0:0:0:0:
192,192,68770,1,0,0:0:0:0:
64,192,68851,1,0,0:0:0:0:
448,192,68851,128,0,69013:0:0:0:0:
64,192,69175,1,0,0:0:0:0:
320,192,69176,128,0,69338:0:0:0:0:
64,192,69337,1,0,0:0:0:0:
192,192,69419,1,0,0:0:0:0:
64,192,69662,1,0,0:0:0:0:
320,192,69824,1,0,0:0:0:0:
192,192,69905,1,0,0:0:0:0:
320,192,69986,1,0,0:0:0:0:
448,192,69986,128,0,70149:0:0:0:0:
192,192,70149,1,0,0:0:0:0:
320,192,70310,1,0,0:0:0:0:
448,192,70311,128,0,70473:0:0:0:0:
64,192,70473,1,0,0:0:0:0:
448,192,70554,128,0,70716:0:0:0:0:
192,192,70554,1,0,0:0:0:0:
192,192,70716,1,0,0:0:0:0:
320,192,70797,1,0,0:0:0:0:
64,192,70797,1,0,0:0:0:0:
320,192,70959,1,0,0:0:0:0:
64,192,70959,1,0,0:0:0:0:
448,192,71121,1,0,0:0:0:0:
320,192,71203,1,0,0:0:0:0:
448,192,71284,1,0,0:0:0:0:
320,192,71365,1,0,0:0:0:0:
448,192,71446,1,0,0:0:0:0:
192,192,71446,128,0,71608:0:0:0:0:
64,192,71608,1,0,0:0:0:0:
192,192,71770,128,0,71932:0:0:0:0:
448,192,71770,1,0,0:0:0:0:
64,192,71932,1,0,0:0:0:0:
320,192,72013,1,0,0:0:0:0:
448,192,72094,1,0,0:0:0:0:
192,192,72256,1,0,0:0:0:0:
448,192,72257,1,0,0:0:0:0:
192,192,72419,1,0,0:0:0:0:
64,192,72581,1,0,0:0:0:0:
320,192,72581,1,0,0:0:0:0:
448,192,72662,1,0,0:0:0:0:
192,192,72743,1,0,0:0:0:0:
64,192,72743,1,0,0:0:0:0:
320,192,72905,1,0,0:0:0:0:
320,192,73149,1,0,0:0:0:0:
192,192,73229,1,0,0:0:0:0:
64,192,73392,1,0,0:0:0:0:
320,192,73392,1,0,0:0:0:0:
64,192,73554,1,0,0:0:0:0:
320,192,73554,1,0,0:0:0:0:
64,192,73716,1,0,0:0:0:0:
320,192,73716,1,0,0:0:0:0:
192,192,73797,1,0,0:0:0:0:
448,192,73797,1,0,0:0:0:0:
64,192,73878,1,0,0:0:0:0:
320,192,73878,1,0,0:0:0:0:
192,192,73959,1,0,0:0:0:0:
448,192,73959,1,0,0:0:0:0:
64,192,74040,1,0,0:0:0:0:
320,192,74040,1,0,0:0:0:0:
64,192,74365,1,0,0:0:0:0:
448,192,74365,1,0,0:0:0:0:
64,192,74527,1,0,0:0:0:0:
320,192,74527,1,0,0:0:0:0:
192,192,74770,1,0,0:0:0:0:
320,192,74770,1,0,0:0:0:0:
448,192,74770,1,0,0:0:0:0:
192,192,75013,1,0,0:0:0:0:
64,192,75013,1,0,0:0:0:0:
320,192,75013,1,0,0:0:0:0:
448,192,75338,1,0,0:0:0:0:
320,192,75338,1,0,0:0:0:0:
64,192,75338,1,0,0:0:0:0:
320,192,75581,1,0,0:0:0:0:
448,192,75581,1,0,0:0:0:0:
64,192,75581,1,0,0:0:0:0:
192,192,75824,128,0,76149:0:0:0:0:
320,192,75824,128,0,76149:0:0:0:0:
64,192,76149,1,0,0:0:0:0:
448,192,76149,1,0,0:0:0:0:
320,192,76311,1,0,0:0:0:0:
192,192,76392,1,0,0:0:0:0:
320,192,76473,1,0,0:0:0:0:
192,192,76554,1,0,0:0:0:0:
448,192,76635,128,0,76959:0:0:0:0:
64,192,76635,128,0,77608:0:0:0:0:
192,192,76959,128,0,77608:0:0:0:0:
320,192,76959,1,0,0:0:0:0:
448,192,77608,128,0,78257:0:0:0:0:
320,192,77608,1,0,0:0:0:0:
192,192,77932,128,0,78257:0:0:0:0:
64,192,78257,1,0,0:0:0:0:
320,192,78257,128,0,78905:0:0:0:0:
192,192,78419,1,0,0:0:0:0:
448,192,78743,1,0,0:0:0:0:
192,192,78905,1,0,0:0:0:0:
64,192,78905,128,0,79554:0:0:0:0:
448,192,79067,1,0,0:0:0:0:
192,192,79230,1,0,0:0:0:0:
448,192,79554,1,0,0:0:0:0:
320,192,79554,128,0,80203:0:0:0:0:
192,192,79716,1,0,0:0:0:0:
448,192,80203,1,0,0:0:0:0:
192,192,80203,128,0,80689:0:0:0:0:
64,192,80689,1,0,0:0:0:0:
320,192,80689,1,0,0:0:0:0:
448,192,80689,1,0,0:0:0:0:
64,192,80932,1,0,0:0:0:0:
448,192,80932,1,0,0:0:0:0:
192,192,80932,1,0,0:0:0:0:
192,192,81176,128,0,81500:0:0:0:0:
320,192,81176,128,0,81500:0:0:0:0:
64,192,81500,1,0,0:0:0:0:
448,192,81500,1,0,0:0:0:0:
64,192,81824,128,0,82149:0:0:0:0:
448,192,81824,1,0,0:0:0:0:
192,192,82149,1,0,0:0:0:0:
320,192,82149,128,0,82797:0:0:0:0:
64,192,82311,128,0,82797:0:0:0:0:
448,192,82797,1,0,0:0:0:0:
192,192,82797,128,0,83446:0:0:0:0:
320,192,83121,128,0,84094:0:0:0:0:
64,192,83446,1,0,0:0:0:0:
448,192,83446,128,0,84094:0:0:0:0:
192,192,84094,1,0,0:0:0:0:
64,192,84419,1,0,0:0:0:0:
192,192,84419,1,0,0:0:0:0:
320,192,84419,1,0,0:0:0:0:
448,192,84419,128,0,84743:0:0:0:0:
192,192,84743,1,0,0:0:0:0:
320,192,84743,1,0,0:0:0:0:
64,192,84743,128,0,84905:0:0:0:0:
320,192,84905,1,0,0:0:0:0:
192,192,84905,1,0,0:0:0:0:
448,192,84905,128,0,85148:0:0:0:0:
192,192,85148,1,0,0:0:0:0:
320,192,85148,1,0,0:0:0:0:
192,192,85392,1,0,0:0:0:0:
320,192,85392,1,0,0:0:0:0:
64,192,85716,1,0,0:0:0:0:
320,192,85878,1,0,0:0:0:0:
192,192,86040,1,0,0:0:0:0:
448,192,86203,1,0,0:0:0:0:
64,192,86365,1,0,0:0:0:0:
192,192,86446,1,0,0:0:0:0:
320,192,86527,1,0,0:0:0:0:
448,192,86608,1,0,0:0:0:0:
64,192,86689,1,0,0:0:0:0:
192,192,86689,1,0,0:0:0:0:
64,192,86851,1,0,0:0:0:0:
192,192,86851,1,0,0:0:0:0:
64,192,87013,1,0,0:0:0:0:
192,192,87013,128,0,87094:0:0:0:0:
320,192,87013,128,0,87176:0:0:0:0:
448,192,87013,128,0,87176:0:0:0:0:
64,192,87338,1,0,0:0:0:0:
192,192,87338,1,0,0:0:0:0:
448,192,87338,1,0,0:0:0:0:
320,192,87419,1,0,0:0:0:0:
192,192,87500,1,0,0:0:0:0:
64,192,87581,1,0,0:0:0:0:
320,192,87662,1,0,0:0:0:0:
448,192,87662,1,0,0:0:0:0:
192,192,87743,1,0,0:0:0:0:
64,192,87824,1,0,0:0:0:0:
320,192,87905,1,0,0:0:0:0:
192,192,87986,1,0,0:0:0:0:
448,192,87986,1,0,0:0:0:0:
64,192,88067,1,0,0:0:0:0:
320,192,88149,128,0,88311:0:0:0:0:
64,192,88311,1,0,0:0:0:0:
448,192,88311,1,0,0:0:0:0:
192,192,88392,1,0,0:0:0:0:
320,192,88473,1,0,0:0:0:0:
192,192,88554,1,0,0:0:0:0:
64,192,88635,1,0,0:0:0:0:
448,192,88635,1,0,0:0:0:0:
192,192,88716,1,0,0:0:0:0:
448,192,88797,1,0,0:0:0:0:
192,192,88878,1,0,0:0:0:0:
64,192,88959,1,0,0:0:0:0:
320,192,88959,1,0,0:0:0:0:
448,192,89040,1,0,0:0:0:0:
192,192,89121,1,0,0:0:0:0:
320,192,89203,1,0,0:0:0:0:
64,192,89284,1,0,0:0:0:0:
448,192,89284,1,0,0:0:0:0:
192,192,89365,1,0,0:0:0:0:
448,192,89446,1,0,0:0:0:0:
320,192,89446,1,0,0:0:0:0:
192,192,89527,1,0,0:0:0:0:
64,192,89608,1,0,0:0:0:0:
448,192,89608,128,0,89770:0:0:0:0:
320,192,89770,1,0,0:0:0:0:
192,192,89851,1,0,0:0:0:0:
64,192,89932,1,0,0:0:0:0:
448,192,89932,1,0,0:0:0:0:
320,192,90013,1,0,0:0:0:0:
192,192,90094,1,0,0:0:0:0:
64,192,90176,1,0,0:0:0:0:
320,192,90257,1,0,0:0:0:0:
448,192,90257,1,0,0:0:0:0:
192,192,90338,1,0,0:0:0:0:
64,192,90419,1,0,0:0:0:0:
320,192,90500,1,0,0:0:0:0:
192,192,90581,1,0,0:0:0:0:
448,192,90581,1,0,0:0:0:0:
64,192,90662,1,0,0:0:0:0:
320,192,90743,128,0,90905:0:0:0:0:
64,192,90905,1,0,0:0:0:0:
448,192,90905,1,0,0:0:0:0:
192,192,90986,1,0,0:0:0:0:
320,192,91067,1,0,0:0:0:0:
192,192,91149,1,0,0:0:0:0:
64,192,91230,1,0,0:0:0:0:
448,192,91230,1,0,0:0:0:0:
320,192,91311,1,0,0:0:0:0:
192,192,91392,1,0,0:0:0:0:
64,192,91473,1,0,0:0:0:0:
320,192,91554,128,0,91716:0:0:0:0:
448,192,91554,128,0,91635:0:0:0:0:
64,192,91716,1,0,0:0:0:0:
192,192,91757,1,0,0:0:0:0:
320,192,91797,1,0,0:0:0:0:
448,192,91838,1,0,0:0:0:0:
64,192,91878,1,0,0:0:0:0:
192,192,91878,1,0,0:0:0:0:
64,192,92040,1,0,0:0:0:0:
192,192,92081,1,0,0:0:0:0:
320,192,92121,1,0,0:0:0:0:
448,192,92162,1,0,0:0:0:0:
64,192,92203,1,0,0:0:0:0:
192,192,92203,128,0,92365:0:0:0:0:
320,192,92365,1,0,0:0:0:0:
192,192,92446,1,0,0:0:0:0:
320,192,92527,1,0,0:0:0:0:
448,192,92527,1,0,0:0:0:0:
64,192,92608,1,0,0:0:0:0:
320,192,92689,1,0,0:0:0:0:
192,192,92770,1,0,0:0:0:0:
320,192,92851,1,0,0:0:0:0:
448,192,92851,1,0,0:0:0:0:
192,192,92932,1,0,0:0:0:0:
64,192,93013,1,0,0:0:0:0:
320,192,93094,1,0,0:0:0:0:
192,192,93176,1,0,0:0:0:0:
448,192,93176,1,0,0:0:0:0:
64,192,93257,1,0,0:0:0:0:
320,192,93338,128,0,93500:0:0:0:0:
64,192,93500,1,0,0:0:0:0:
448,192,93500,1,0,0:0:0:0:
192,192,93581,1,0,0:0:0:0:
320,192,93662,1,0,0:0:0:0:
192,192,93743,1,0,0:0:0:0:
64,192,93824,1,0,0:0:0:0:
448,192,93824,1,0,0:0:0:0:
320,192,93905,1,0,0:0:0:0:
64,192,93986,1,0,0:0:0:0:
320,192,94067,1,0,0:0:0:0:
64,192,94149,1,0,0:0:0:0:
192,192,94149,1,0,0:0:0:0:
320,192,94230,1,0,0:0:0:0:
448,192,94311,1,0,0:0:0:0:
192,192,94392,1,0,0:0:0:0:
64,192,94473,1,0,0:0:0:0:
320,192,94473,1,0,0:0:0:0:
448,192,94554,1,0,0:0:0:0:
192,192,94635,1,0,0:0:0:0:
64,192,94635,1,0,0:0:0:0:
320,192,94716,1,0,0:0:0:0:
64,192,94797,1,0,0:0:0:0:
448,192,94797,128,0,94959:0:0:0:0:
192,192,94797,1,0,0:0:0:0:
320,192,94959,1,0,0:0:0:0:
192,192,95040,1,0,0:0:0:0:
64,192,95121,1,0,0:0:0:0:
448,192,95121,1,0,0:0:0:0:
320,192,95203,1,0,0:0:0:0:
64,192,95284,1,0,0:0:0:0:
320,192,95365,1,0,0:0:0:0:
64,192,95446,1,0,0:0:0:0:
192,192,95446,1,0,0:0:0:0:
320,192,95527,1,0,0:0:0:0:
448,192,95608,1,0,0:0:0:0:
192,192,95689,1,0,0:0:0:0:
64,192,95770,1,0,0:0:0:0:
320,192,95770,1,0,0:0:0:0:
448,192,95851,1,0,0:0:0:0:
192,192,95932,128,0,96094:0:0:0:0:
64,192,96094,1,0,0:0:0:0:
448,192,96094,128,0,96338:0:0:0:0:
320,192,96094,1,0,0:0:0:0:
64,192,96338,128,0,96581:0:0:0:0:
192,192,96338,1,0,0:0:0:0:
320,192,96338,1,0,0:0:0:0:
320,192,96581,1,0,0:0:0:0:
448,192,96581,1,0,0:0:0:0:
64,192,96743,1,0,0:0:0:0:
320,192,96743,1,0,0:0:0:0:
192,192,96824,1,0,0:0:0:0:
64,192,96905,1,0,0:0:0:0:
320,192,96905,1,0,0:0:0:0:
192,192,96986,1,0,0:0:0:0:
64,192,97067,1,0,0:0:0:0:
320,192,97067,1,0,0:0:0:0:
192,192,97149,1,0,0:0:0:0:
320,192,97230,1,0,0:0:0:0:
448,192,97392,128,0,98689:0:0:0:0:
64,192,97392,1,0,0:0:0:0:
64,192,97716,1,0,0:0:0:0:
320,192,97716,1,0,0:0:0:0:
64,192,97878,1,0,0:0:0:0:
320,192,97878,1,0,0:0:0:0:
320,192,98203,1,0,0:0:0:0:
64,192,98203,1,0,0:0:0:0:
320,192,98365,1,0,0:0:0:0:
64,192,98365,1,0,0:0:0:0:
192,192,98446,1,0,0:0:0:0:
320,192,98527,1,0,0:0:0:0:
64,192,98527,1,0,0:0:0:0:
192,192,98689,128,0,98932:0:0:0:0:
320,192,98689,1,0,0:0:0:0:
64,192,98689,1,0,0:0:0:0:
448,192,98932,128,0,99176:0:0:0:0:
64,192,98932,1,0,0:0:0:0:
320,192,98932,1,0,0:0:0:0:
320,192,99176,128,0,99500:0:0:0:0:
64,192,99176,1,0,0:0:0:0:
192,192,99176,1,0,0:0:0:0:
448,192,99500,128,0,99986:0:0:0:0:
64,192,99500,1,0,0:0:0:0:
192,192,99500,1,0,0:0:0:0:
192,192,99662,1,0,0:0:0:0:
320,192,99743,1,0,0:0:0:0:
64,192,99743,1,0,0:0:0:0:
192,192,99824,1,0,0:0:0:0:
64,192,99986,128,0,101284:0:0:0:0:
448,192,100311,1,0,0:0:0:0:
192,192,100311,1,0,0:0:0:0:
192,192,100473,1,0,0:0:0:0:
448,192,100473,1,0,0:0:0:0:
192,192,100797,1,0,0:0:0:0:
448,192,100797,1,0,0:0:0:0:
192,192,100959,1,0,0:0:0:0:
448,192,100959,1,0,0:0:0:0:
320,192,101040,1,0,0:0:0:0:
192,192,101121,1,0,0:0:0:0:
448,192,101121,1,0,0:0:0:0:
320,192,101284,128,0,101527:0:0:0:0:
192,192,101284,1,0,0:0:0:0:
448,192,101284,1,0,0:0:0:0:
192,192,101527,128,0,101770:0:0:0:0:
64,192,101527,1,0,0:0:0:0:
448,192,101527,1,0,0:0:0:0:
64,192,101770,128,0,102094:0:0:0:0:
320,192,101770,1,0,0:0:0:0:
448,192,101770,1,0,0:0:0:0:
448,192,102094,1,0,0:0:0:0:
192,192,102094,1,0,0:0:0:0:
320,192,102094,128,0,102581:0:0:0:0:
448,192,102256,1,0,0:0:0:0:
64,192,102257,1,0,0:0:0:0:
192,192,102338,1,0,0:0:0:0:
64,192,102419,1,0,0:0:0:0:
448,192,102419,1,0,0:0:0:0:
192,192,102581,128,0,102743:0:0:0:0:
64,192,102743,1,0,0:0:0:0:
320,192,102824,128,0,102986:0:0:0:0:
192,192,102986,1,0,0:0:0:0:
448,192,103067,128,0,103229:0:0:0:0:
320,192,103229,1,0,0:0:0:0:
192,192,103310,128,0,103473:0:0:0:0:
64,192,103473,1,0,0:0:0:0:
320,192,103554,128,0,103716:0:0:0:0:
192,192,103716,1,0,0:0:0:0:
64,192,103797,128,0,103959:0:0:0:0:
192,192,103959,1,0,0:0:0:0:
320,192,104040,128,0,104202:0:0:0:0:
448,192,104202,1,0,0:0:0:0:
192,192,104283,128,0,104446:0:0:0:0:
320,192,104446,1,0,0:0:0:0:
64,192,104527,128,0,104689:0:0:0:0:
192,192,104689,1,0,0:0:0:0:
448,192,104689,128,0,104851:0:0:0:0:
320,192,104851,128,0,105013:0:0:0:0:
192,192,105013,128,0,105175:0:0:0:0:
64,192,105175,1,0,0:0:0:0:
448,192,105337,1,0,0:0:0:0:
320,192,105500,1,0,0:0:0:0:
192,192,105662,1,0,0:0:0:0:
64,192,105824,1,0,0:0:0:0:
192,192,105905,1,0,0:0:0:0:
64,192,105986,1,0,0:0:0:0:
192,192,106067,1,0,0:0:0:0:
320,192,106149,1,0,0:0:0:0:
448,192,106230,1,0,0:0:0:0:
320,192,106311,1,0,0:0:0:0:
448,192,106392,1,0,0:0:0:0:
320,192,106473,1,0,0:0:0:0:
64,192,106554,1,0,0:0:0:0:
320,192,106635,1,0,0:0:0:0:
64,192,106716,1,0,0:0:0:0:
320,192,106797,1,0,0:0:0:0:
64,192,106878,1,0,0:0:0:0:
320,192,106959,1,0,0:0:0:0:
64,192,107040,1,0,0:0:0:0:
320,192,107121,1,0,0:0:0:0:
448,192,107203,1,0,0:0:0:0:
64,192,107364,1,0,0:0:0:0:
320,192,107446,128,0,107608:0:0:0:0:
192,192,107446,128,0,107608:0:0:0:0:
64,192,107608,1,0,0:0:0:0:
448,192,107608,1,0,0:0:0:0:
192,192,107770,128,0,109716:0:0:0:0:
320,192,109392,1,0,0:0:0:0:
448,192,109473,1,0,0:0:0:0:
320,192,109554,1,0,0:0:0:0:
448,192,109635,1,0,0:0:0:0:
64,192,109716,1,0,0:0:0:0:
320,192,109716,128,0,110040:0:0:0:0:
64,192,110040,128,0,110365:0:0:0:0:
448,192,110040,1,0,0:0:0:0:
448,192,110365,1,0,0:0:0:0:
192,192,110365,1,0,0:0:0:0:
320,192,110446,1,0,0:0:0:0:
448,192,110527,1,0,0:0:0:0:
192,192,110527,1,0,0:0:0:0:
64,192,110851,1,0,0:0:0:0:
320,192,110851,1,0,0:0:0:0:
192,192,110932,1,0,0:0:0:0:
64,192,111013,1,0,0:0:0:0:
320,192,111013,1,0,0:0:0:0:
448,192,111338,1,0,0:0:0:0:
192,192,111338,1,0,0:0:0:0:
320,192,111419,1,0,0:0:0:0:
448,192,111500,1,0,0:0:0:0:
192,192,111500,1,0,0:0:0:0:
64,192,111824,1,0,0:0:0:0:
448,192,111824,1,0,0:0:0:0:
320,192,111824,1,0,0:0:0:0:
192,192,111986,128,0,112635:0:0:0:0:
320,192,111986,128,0,112635:0:0:0:0:
