osu file format v14

[General]
AudioFilename: Twin Rocket [EXH].mp3
AudioLeadIn: 0
PreviewTime: 64959
Countdown: 0
SampleSet: Soft
StackLeniency: 0.7
Mode: 3
LetterboxInBreaks: 0
SpecialStyle: 0
WidescreenStoryboard: 1

[Editor]
DistanceSpacing: 1.1
BeatDivisor: 4
GridSize: 4
TimelineZoom: 1.9

[Metadata]
Title:Twin Rocket
TitleUnicode:Twin Rocket
Artist:uno feat.Chiyoko(IOSYS)
ArtistUnicode:uno feat.ちよこ(IOSYS)
Creator:LevPrism-
Version:4K GRV
Source:SOUND VOLTEX III GRAVITY WARS
Tags:SDVX LeiN- sirade Zan Original Song Contest 第一回ボルテキャラテーマ曲コンテスト Character Theme First NEAR NOAH
BeatmapID:560902
BeatmapSetID:240931

[Difficulty]
HPDrainRate:8
CircleSize:4
OverallDifficulty:8
ApproachRate:5
SliderMultiplier:1.4
SliderTickRate:1

[Events]
//Background and Video events
0,0,"BG.jpg",0,0
//Break Periods
//Storyboard Layer 0 (Background)
//Storyboard Layer 1 (Fail)
//Storyboard Layer 2 (Pass)
//Storyboard Layer 3 (Foreground)
//Storyboard Sound Samples

[TimingPoints]
1392,324.324324324324,4,2,1,20,1,0
66257,-100,4,2,1,20,0,1
76635,-100,4,2,1,20,0,0
87013,-100,4,2,1,20,0,1
107770,-100,4,2,1,20,0,0

[HitObjects]
448,192,1392,5,0,0:0:0:0:
320,192,1473,1,0,0:0:0:0:
448,192,1554,1,0,0:0:0:0:
320,192,1635,1,0,0:0:0:0:
448,192,1716,1,0,0:0:0:0:
320,192,1797,1,0,0:0:0:0:
192,192,1878,1,0,0:0:0:0:
64,192,1959,1,0,0:0:0:0:
192,192,2040,1,0,0:0:0:0:
320,192,2202,1,0,0:0:0:0:
448,192,2527,1,0,0:0:0:0:
320,192,2527,1,0,0:0:0:0:
64,192,2527,1,0,0:0:0:0:
320,192,2851,1,0,0:0:0:0:
192,192,2851,1,0,0:0:0:0:
192,192,3013,1,0,0:0:0:0:
320,192,3013,1,0,0:0:0:0:
448,192,3175,1,0,0:0:0:0:
64,192,3175,1,0,0:0:0:0:
448,192,3256,1,0,0:0:0:0:
64,192,3256,1,0,0:0:0:0:
448,192,3337,128,0,3581:0:0:0:0:
64,192,3337,128,0,3581:0:0:0:0:
192,192,3581,1,0,0:0:0:0:
320,192,3662,1,0,0:0:0:0:
448,192,3662,1,0,0:0:0:0:
64,192,3824,1,0,0:0:0:0:
448,192,3824,1,0,0:0:0:0:
192,192,3986,1,0,0:0:0:0:
320,192,3986,1,0,0:0:0:0:
448,192,4148,1,0,0:0:0:0:
192,192,4310,1,0,0:0:0:0:
320,192,4310,1,0,0:0:0:0:
64,192,4473,1,0,0:0:0:0:
64,192,4635,1,0,0:0:0:0:
192,192,4716,1,0,0:0:0:0:
448,192,4797,1,0,0:0:0:0:
448,192,5121,1,0,0:0:0:0:
192,192,5121,1,0,0:0:0:0:
448,192,5446,1,0,0:0:0:0:
192,192,5608,1,0,0:0:0:0:
320,192,5770,1,0,0:0:0:0:
192,192,5770,1,0,0:0:0:0:
64,192,5932,1,0,0:0:0:0:
448,192,5932,1,0,0:0:0:0:
192,192,6013,1,0,0:0:0:0:
320,192,6013,1,0,0:0:0:0:
448,192,6094,1,0,0:0:0:0:
64,192,6094,1,0,0:0:0:0:
320,192,6175,1,0,0:0:0:0:
192,192,6175,1,0,0:0:0:0:
448,192,6256,128,0,6419:0:0:0:0:
64,192,6256,128,0,6419:0:0:0:0:
192,192,6419,1,0,0:0:0:0:
320,192,6419,1,0,0:0:0:0:
448,192,6581,1,0,0:0:0:0:
192,192,6581,1,0,0:0:0:0:
320,192,6743,1,0,0:0:0:0:
192,192,6905,1,0,0:0:0:0:
448,192,6905,1,0,0:0:0:0:
320,192,7067,1,0,0:0:0:0:
448,192,7229,1,0,0:0:0:0:
320,192,7310,1,0,0:0:0:0:
192,192,7391,1,0,0:0:0:0:
320,192,7716,1,0,0:0:0:0:
64,192,7716,1,0,0:0:0:0:
320,192,7878,1,0,0:0:0:0:
448,192,8040,1,0,0:0:0:0:
192,192,8040,1,0,0:0:0:0:
320,192,8202,1,0,0:0:0:0:
64,192,8202,1,0,0:0:0:0:
192,192,8364,1,0,0:0:0:0:
448,192,8364,1,0,0:0:0:0:
64,192,8527,1,0,0:0:0:0:
320,192,8527,1,0,0:0:0:0:
192,192,8527,128,0,8851:0:0:0:0:
448,192,8851,1,0,0:0:0:0:
320,192,8851,1,0,0:0:0:0:
320,192,9013,1,0,0:0:0:0:
448,192,9175,1,0,0:0:0:0:
64,192,9175,1,0,0:0:0:0:
192,192,9175,1,0,0:0:0:0:
320,192,9256,1,0,0:0:0:0:
448,192,9337,1,0,0:0:0:0:
64,192,9337,1,0,0:0:0:0:
320,192,9419,1,0,0:0:0:0:
448,192,9500,1,0,0:0:0:0:
64,192,9500,1,0,0:0:0:0:
192,192,9500,1,0,0:0:0:0:
320,192,9581,1,0,0:0:0:0:
448,192,9662,1,0,0:0:0:0:
192,192,9662,1,0,0:0:0:0:
320,192,9743,1,0,0:0:0:0:
448,192,9824,1,0,0:0:0:0:
64,192,9824,128,0,9986:0:0:0:0:
320,192,9905,1,0,0:0:0:0:
448,192,9986,1,0,0:0:0:0:
192,192,9986,1,0,0:0:0:0:
320,192,10067,1,0,0:0:0:0:
448,192,10148,1,0,0:0:0:0:
320,192,10229,1,0,0:0:0:0:
448,192,10310,1,0,0:0:0:0:
192,192,10310,1,0,0:0:0:0:
64,192,10310,1,0,0:0:0:0:
320,192,10391,1,0,0:0:0:0:
448,192,10473,1,0,0:0:0:0:
320,192,10554,1,0,0:0:0:0:
448,192,10635,1,0,0:0:0:0:
64,192,10635,1,0,0:0:0:0:
320,192,10716,1,0,0:0:0:0:
448,192,10797,1,0,0:0:0:0:
320,192,10878,1,0,0:0:0:0:
448,192,10959,1,0,0:0:0:0:
64,192,10959,1,0,0:0:0:0:
320,192,11040,1,0,0:0:0:0:
448,192,11121,1,0,0:0:0:0:
64,192,11121,128,0,11446:0:0:0:0:
320,192,11202,1,0,0:0:0:0:
448,192,11283,1,0,0:0:0:0:
320,192,11364,1,0,0:0:0:0:
448,192,11446,1,0,0:0:0:0:
192,192,11446,1,0,0:0:0:0:
320,192,11527,1,0,0:0:0:0:
448,192,11608,1,0,0:0:0:0:
320,192,11689,1,0,0:0:0:0:
192,192,11770,1,0,0:0:0:0:
448,192,11770,1,0,0:0:0:0:
320,192,11851,1,0,0:0:0:0:
192,192,11932,1,0,0:0:0:0:
320,192,12013,1,0,0:0:0:0:
448,192,12094,1,0,0:0:0:0:
64,192,12094,1,0,0:0:0:0:
320,192,12175,1,0,0:0:0:0:
192,192,12256,1,0,0:0:0:0:
64,192,12256,1,0,0:0:0:0:
320,192,12337,1,0,0:0:0:0:
448,192,12419,1,0,0:0:0:0:
320,192,12500,1,0,0:0:0:0:
192,192,12581,1,0,0:0:0:0:
64,192,12581,1,0,0:0:0:0:
320,192,12662,1,0,0:0:0:0:
448,192,12743,1,0,0:0:0:0:
64,192,12743,1,0,0:0:0:0:
320,192,12824,1,0,0:0:0:0:
192,192,12905,1,0,0:0:0:0:
320,192,12986,1,0,0:0:0:0:
448,192,13067,1,0,0:0:0:0:
320,192,13148,1,0,0:0:0:0:
192,192,13229,1,0,0:0:0:0:
64,192,13310,1,0,0:0:0:0:
192,192,13391,1,0,0:0:0:0:
320,192,13473,1,0,0:0:0:0:
448,192,13554,1,0,0:0:0:0:
320,192,13635,1,0,0:0:0:0:
192,192,13716,1,0,0:0:0:0:
64,192,13716,1,0,0:0:0:0:
448,192,13797,1,0,0:0:0:0:
320,192,13797,1,0,0:0:0:0:
192,192,13878,1,0,0:0:0:0:
64,192,13878,1,0,0:0:0:0:
448,192,13959,1,0,0:0:0:0:
320,192,13959,1,0,0:0:0:0:
192,192,14040,1,8,1:0:0:0:
320,192,14040,1,8,1:0:0:0:
64,192,14202,1,8,1:0:0:0:
448,192,14202,1,8,1:0:0:0:
192,192,14364,128,0,14689:0:0:0:0:
320,192,14364,128,0,14689:0:0:0:0:
64,192,14689,1,0,0:0:0:0:
448,192,14689,1,0,0:0:0:0:
320,192,14851,1,0,0:0:0:0:
448,192,15013,1,0,0:0:0:0:
192,192,15013,1,0,0:0:0:0:
320,192,15013,1,0,0:0:0:0:
64,192,15175,1,0,0:0:0:0:
320,192,15337,128,0,15500:0:0:0:0:
448,192,15500,1,0,0:0:0:0:
192,192,15500,1,0,0:0:0:0:
64,192,15581,1,0,0:0:0:0:
320,192,15662,1,0,0:0:0:0:
192,192,15662,1,0,0:0:0:0:
448,192,15662,1,0,0:0:0:0:
448,192,15824,1,0,0:0:0:0:
64,192,15986,1,0,0:0:0:0:
192,192,15986,1,0,0:0:0:0:
448,192,15986,1,0,0:0:0:0:
320,192,16148,1,0,0:0:0:0:
192,192,16310,1,0,0:0:0:0:
448,192,16310,1,0,0:0:0:0:
64,192,16310,1,0,0:0:0:0:
64,192,16473,1,0,0:0:0:0:
320,192,16635,1,0,0:0:0:0:
448,192,16635,1,0,0:0:0:0:
192,192,16635,1,0,0:0:0:0:
320,192,16797,1,0,0:0:0:0:
320,192,16959,1,0,0:0:0:0:
64,192,16959,1,0,0:0:0:0:
448,192,16959,1,0,0:0:0:0:
192,192,17121,1,0,0:0:0:0:
192,192,17283,1,0,0:0:0:0:
320,192,17283,1,0,0:0:0:0:
64,192,17283,1,0,0:0:0:0:
448,192,17446,1,0,0:0:0:0:
192,192,17608,1,0,0:0:0:0:
320,192,17608,1,0,0:0:0:0:
64,192,17608,1,0,0:0:0:0:
192,192,17770,1,0,0:0:0:0:
192,192,17851,1,0,0:0:0:0:
320,192,17932,1,0,0:0:0:0:
448,192,17932,1,0,0:0:0:0:
64,192,17932,1,0,0:0:0:0:
64,192,18094,1,0,0:0:0:0:
64,192,18175,1,0,0:0:0:0:
448,192,18256,1,0,0:0:0:0:
192,192,18256,1,0,0:0:0:0:
320,192,18256,1,0,0:0:0:0:
192,192,18500,1,0,0:0:0:0:
320,192,18500,1,0,0:0:0:0:
64,192,18743,1,0,0:0:0:0:
320,192,18743,1,0,0:0:0:0:
192,192,18743,1,0,0:0:0:0:
448,192,18905,1,0,0:0:0:0:
320,192,18905,1,0,0:0:0:0:
448,192,19067,1,0,0:0:0:0:
320,192,19067,1,0,0:0:0:0:
192,192,19229,1,0,0:0:0:0:
64,192,19310,1,0,0:0:0:0:
192,192,19391,1,0,0:0:0:0:
64,192,19473,1,0,0:0:0:0:
448,192,19554,128,0,19878:0:0:0:0:
320,192,19554,1,0,0:0:0:0:
192,192,19878,1,0,0:0:0:0:
64,192,19878,1,0,0:0:0:0:
320,192,20040,1,0,0:0:0:0:
192,192,20202,1,0,0:0:0:0:
320,192,20202,1,0,0:0:0:0:
64,192,20202,1,0,0:0:0:0:
448,192,20364,1,0,0:0:0:0:
320,192,20527,1,0,0:0:0:0:
448,192,20527,1,0,0:0:0:0:
64,192,20527,1,0,0:0:0:0:
192,192,20689,1,0,0:0:0:0:
320,192,20770,1,0,0:0:0:0:
192,192,20851,1,0,0:0:0:0:
64,192,20851,1,0,0:0:0:0:
448,192,20851,1,0,0:0:0:0:
448,192,21013,1,0,0:0:0:0:
192,192,21175,1,0,0:0:0:0:
320,192,21175,1,0,0:0:0:0:
448,192,21175,1,0,0:0:0:0:
192,192,21337,1,0,0:0:0:0:
64,192,21500,1,0,0:0:0:0:
320,192,21500,1,0,0:0:0:0:
448,192,21500,1,0,0:0:0:0:
320,192,21662,1,0,0:0:0:0:
192,192,21824,1,0,0:0:0:0:
448,192,21824,1,0,0:0:0:0:
320,192,21824,1,0,0:0:0:0:
192,192,21986,1,0,0:0:0:0:
448,192,22148,1,0,0:0:0:0:
320,192,22148,1,0,0:0:0:0:
192,192,22310,1,0,0:0:0:0:
320,192,22310,1,0,0:0:0:0:
192,192,22473,1,0,0:0:0:0:
64,192,22473,1,0,0:0:0:0:
320,192,22635,1,0,0:0:0:0:
192,192,22635,1,0,0:0:0:0:
320,192,22797,1,0,0:0:0:0:
448,192,22797,1,0,0:0:0:0:
320,192,22959,1,0,0:0:0:0:
320,192,23040,1,0,0:0:0:0:
192,192,23121,1,0,0:0:0:0:
64,192,23121,1,0,0:0:0:0:
448,192,23121,1,0,0:0:0:0:
192,192,23283,1,0,0:0:0:0:
192,192,23364,1,0,0:0:0:0:
448,192,23446,128,0,23770:0:0:0:0:
320,192,23446,128,0,23770:0:0:0:0:
192,192,23770,1,0,0:0:0:0:
64,192,23851,1,0,0:0:0:0:
320,192,23851,1,0,0:0:0:0:
320,192,24013,1,0,0:0:0:0:
448,192,24094,1,0,0:0:0:0:
192,192,24094,1,0,0:0:0:0:
64,192,24094,1,0,0:0:0:0:
64,192,24256,1,0,0:0:0:0:
448,192,24256,1,0,0:0:0:0:
192,192,24419,128,0,24743:0:0:0:0:
448,192,24419,128,0,24743:0:0:0:0:
320,192,24743,1,0,0:0:0:0:
64,192,24743,1,0,0:0:0:0:
192,192,25067,1,0,0:0:0:0:
320,192,25067,1,0,0:0:0:0:
448,192,25067,1,0,0:0:0:0:
192,192,25229,1,0,0:0:0:0:
320,192,25391,1,0,0:0:0:0:
448,192,25391,1,0,0:0:0:0:
64,192,25391,1,0,0:0:0:0:
448,192,25554,1,0,0:0:0:0:
192,192,25716,1,0,0:0:0:0:
320,192,25716,1,0,0:0:0:0:
448,192,25716,1,0,0:0:0:0:
64,192,25878,1,0,0:0:0:0:
192,192,25959,1,0,0:0:0:0:
64,192,26040,1,0,0:0:0:0:
320,192,26040,1,0,0:0:0:0:
448,192,26202,1,0,0:0:0:0:
320,192,26364,1,0,0:0:0:0:
448,192,26364,1,0,0:0:0:0:
64,192,26364,1,0,0:0:0:0:
64,192,26527,1,0,0:0:0:0:
192,192,26689,1,8,1:0:0:0:
448,192,26689,1,0,0:0:0:0:
320,192,26689,1,8,1:0:0:0:
192,192,26851,1,0,0:0:0:0:
64,192,27013,1,8,1:0:0:0:
320,192,27013,1,8,1:0:0:0:
448,192,27013,1,0,0:0:0:0:
320,192,27175,1,0,0:0:0:0:
192,192,27337,1,0,0:0:0:0:
448,192,27337,1,0,0:0:0:0:
320,192,27337,1,0,0:0:0:0:
448,192,27500,1,0,0:0:0:0:
320,192,27662,1,0,0:0:0:0:
64,192,27662,1,0,0:0:0:0:
192,192,27662,1,0,0:0:0:0:
64,192,27824,1,0,0:0:0:0:
192,192,27986,1,0,0:0:0:0:
320,192,27986,1,0,0:0:0:0:
64,192,27986,1,0,0:0:0:0:
448,192,28148,1,0,0:0:0:0:
192,192,28310,1,0,0:0:0:0:
64,192,28310,1,0,0:0:0:0:
448,192,28310,1,0,0:0:0:0:
320,192,28473,1,0,0:0:0:0:
448,192,28635,1,2,1:0:0:0:
320,192,28635,1,2,1:0:0:0:
320,192,28743,1,2,1:0:0:0:
192,192,28743,1,2,1:0:0:0:
64,192,28851,1,2,1:0:0:0:
192,192,28851,1,2,1:0:0:0:
192,192,28959,1,2,1:0:0:0:
320,192,28959,1,2,1:0:0:0:
64,192,29283,1,2,1:0:0:0:
192,192,29283,1,2,1:0:0:0:
192,192,29391,1,2,1:0:0:0:
320,192,29391,1,2,1:0:0:0:
320,192,29500,1,2,1:0:0:0:
448,192,29500,1,2,1:0:0:0:
320,192,29608,1,2,1:0:0:0:
192,192,29608,1,2,1:0:0:0:
192,192,29932,1,0,0:0:0:0:
448,192,29932,1,0,0:0:0:0:
64,192,30094,1,0,0:0:0:0:
192,192,30094,1,0,0:0:0:0:
448,192,30094,128,0,30256:0:0:0:0:
320,192,30256,1,0,0:0:0:0:
192,192,30419,1,0,0:0:0:0:
64,192,30419,1,0,0:0:0:0:
320,192,30419,128,0,30581:0:0:0:0:
448,192,30581,1,0,0:0:0:0:
192,192,30743,1,0,0:0:0:0:
64,192,30743,1,0,0:0:0:0:
448,192,30743,128,0,30905:0:0:0:0:
320,192,30905,1,0,0:0:0:0:
192,192,31067,1,0,0:0:0:0:
64,192,31067,1,0,0:0:0:0:
320,192,31067,128,0,31229:0:0:0:0:
448,192,31229,1,0,0:0:0:0:
64,192,31391,1,0,0:0:0:0:
448,192,31391,1,0,0:0:0:0:
320,192,31391,128,0,31554:0:0:0:0:
192,192,31554,1,0,0:0:0:0:
64,192,31716,1,0,0:0:0:0:
448,192,31716,1,0,0:0:0:0:
192,192,31716,128,0,31878:0:0:0:0:
320,192,31878,1,0,0:0:0:0:
64,192,32040,1,0,0:0:0:0:
448,192,32040,1,0,0:0:0:0:
320,192,32040,128,0,32202:0:0:0:0:
192,192,32202,1,0,0:0:0:0:
64,192,32364,1,0,0:0:0:0:
448,192,32364,1,0,0:0:0:0:
192,192,32364,128,0,32527:0:0:0:0:
320,192,32527,1,0,0:0:0:0:
448,192,32689,1,0,0:0:0:0:
192,192,32689,1,0,0:0:0:0:
64,192,32689,128,0,32851:0:0:0:0:
320,192,32851,1,0,0:0:0:0:
448,192,33013,1,0,0:0:0:0:
192,192,33013,1,0,0:0:0:0:
320,192,33013,128,0,33175:0:0:0:0:
64,192,33175,1,0,0:0:0:0:
448,192,33337,1,0,0:0:0:0:
192,192,33337,1,0,0:0:0:0:
64,192,33337,128,0,33500:0:0:0:0:
320,192,33500,1,0,0:0:0:0:
448,192,33662,1,0,0:0:0:0:
192,192,33662,1,0,0:0:0:0:
320,192,33662,128,0,33824:0:0:0:0:
64,192,33824,128,0,34473:0:0:0:0:
448,192,34310,1,0,0:0:0:0:
448,192,34391,1,0,0:0:0:0:
192,192,34473,128,0,34959:0:0:0:0:
320,192,34797,1,0,0:0:0:0:
64,192,34797,1,0,0:0:0:0:
64,192,34959,1,0,0:0:0:0:
448,192,34959,1,0,0:0:0:0:
320,192,35121,1,0,0:0:0:0:
448,192,35121,1,0,0:0:0:0:
192,192,35283,1,0,0:0:0:0:
64,192,35283,1,0,0:0:0:0:
320,192,35446,1,0,0:0:0:0:
448,192,35446,1,0,0:0:0:0:
64,192,35608,1,0,0:0:0:0:
192,192,35608,1,0,0:0:0:0:
448,192,35770,1,0,0:0:0:0:
320,192,35851,1,0,0:0:0:0:
192,192,35932,128,0,36256:0:0:0:0:
320,192,36256,1,0,0:0:0:0:
64,192,36256,128,0,36581:0:0:0:0:
192,192,36581,128,0,36905:0:0:0:0:
320,192,36581,128,0,36905:0:0:0:0:
64,192,36905,1,0,0:0:0:0:
448,192,36905,1,0,0:0:0:0:
192,192,37067,128,0,37391:0:0:0:0:
320,192,37067,128,0,37391:0:0:0:0:
448,192,37391,1,0,0:0:0:0:
64,192,37391,1,0,0:0:0:0:
192,192,37554,1,0,0:0:0:0:
64,192,37716,128,0,37878:0:0:0:0:
320,192,37716,128,0,37878:0:0:0:0:
192,192,37878,1,0,0:0:0:0:
448,192,37878,1,0,0:0:0:0:
64,192,38040,128,0,38202:0:0:0:0:
320,192,38040,128,0,38202:0:0:0:0:
192,192,38202,1,0,0:0:0:0:
448,192,38202,1,0,0:0:0:0:
448,192,38364,1,0,0:0:0:0:
320,192,38446,1,0,0:0:0:0:
192,192,38527,128,0,38851:0:0:0:0:
64,192,38851,1,0,0:0:0:0:
320,192,38851,1,0,0:0:0:0:
448,192,38851,1,0,0:0:0:0:
64,192,39175,1,0,0:0:0:0:
192,192,39175,1,0,0:0:0:0:
320,192,39175,1,0,0:0:0:0:
64,192,39500,1,0,0:0:0:0:
320,192,39500,1,0,0:0:0:0:
64,192,39662,1,0,0:0:0:0:
192,192,39743,1,0,0:0:0:0:
64,192,39824,1,0,0:0:0:0:
192,192,39905,1,0,0:0:0:0:
64,192,39986,1,0,0:0:0:0:
320,192,39986,1,0,0:0:0:0:
192,192,40148,1,0,0:0:0:0:
448,192,40148,1,0,0:0:0:0:
64,192,40310,128,0,40473:0:0:0:0:
448,192,40310,1,0,0:0:0:0:
320,192,40473,128,0,40635:0:0:0:0:
192,192,40473,1,0,0:0:0:0:
192,192,40635,128,0,40797:0:0:0:0:
64,192,40635,1,0,0:0:0:0:
448,192,40797,128,0,40959:0:0:0:0:
320,192,40797,1,0,0:0:0:0:
320,192,40959,1,0,0:0:0:0:
192,192,41040,1,0,0:0:0:0:
64,192,41121,128,0,41446:0:0:0:0:
320,192,41446,1,0,0:0:0:0:
448,192,41446,1,0,0:0:0:0:
192,192,41770,1,0,0:0:0:0:
320,192,41770,1,0,0:0:0:0:
320,192,41932,1,0,0:0:0:0:
448,192,41932,1,0,0:0:0:0:
192,192,42094,1,0,0:0:0:0:
320,192,42094,1,0,0:0:0:0:
64,192,42256,128,0,42581:0:0:0:0:
448,192,42256,128,0,42581:0:0:0:0:
320,192,42581,1,0,0:0:0:0:
192,192,42581,1,0,0:0:0:0:
192,192,42905,1,0,0:0:0:0:
320,192,42905,1,0,0:0:0:0:
320,192,43229,1,0,0:0:0:0:
192,192,43229,1,0,0:0:0:0:
192,192,43391,1,0,0:0:0:0:
448,192,43391,1,0,0:0:0:0:
64,192,43716,1,0,0:0:0:0:
192,192,43716,1,0,0:0:0:0:
320,192,43716,1,0,0:0:0:0:
192,192,43878,1,0,0:0:0:0:
320,192,43878,1,0,0:0:0:0:
448,192,43878,1,0,0:0:0:0:
64,192,44202,1,0,0:0:0:0:
320,192,44202,1,0,0:0:0:0:
448,192,44202,1,0,0:0:0:0:
192,192,44527,128,0,44851:0:0:0:0:
320,192,44527,128,0,44851:0:0:0:0:
64,192,44851,1,8,1:0:0:0:
448,192,44851,1,8,1:0:0:0:
64,192,45175,1,8,1:0:0:0:
192,192,45175,1,8,1:0:0:0:
448,192,45175,1,8,1:0:0:0:
64,192,45500,1,0,0:0:0:0:
320,192,45500,1,0,0:0:0:0:
448,192,45500,1,0,0:0:0:0:
320,192,45662,1,0,0:0:0:0:
64,192,45824,1,0,0:0:0:0:
192,192,45824,1,0,0:0:0:0:
448,192,45824,1,0,0:0:0:0:
192,192,45986,1,0,0:0:0:0:
320,192,46148,1,0,0:0:0:0:
448,192,46148,1,0,0:0:0:0:
64,192,46148,1,0,0:0:0:0:
320,192,46310,1,0,0:0:0:0:
448,192,46310,1,0,0:0:0:0:
192,192,46310,1,0,0:0:0:0:
320,192,46635,1,0,0:0:0:0:
448,192,46635,1,0,0:0:0:0:
64,192,46797,128,0,46959:0:0:0:0:
320,192,46797,128,0,46959:0:0:0:0:
192,192,46959,128,0,47121:0:0:0:0:
448,192,46959,1,0,0:0:0:0:
64,192,47121,128,0,47283:0:0:0:0:
320,192,47121,128,0,47283:0:0:0:0:
192,192,47283,128,0,47446:0:0:0:0:
448,192,47283,1,0,0:0:0:0:
64,192,47446,128,0,47608:0:0:0:0:
320,192,47446,128,0,47608:0:0:0:0:
192,192,47608,128,0,47770:0:0:0:0:
448,192,47608,1,0,0:0:0:0:
320,192,47770,128,0,48094:0:0:0:0:
64,192,48094,1,0,0:0:0:0:
192,192,48094,1,0,0:0:0:0:
448,192,48094,1,0,0:0:0:0:
192,192,48419,1,0,0:0:0:0:
64,192,48419,1,0,0:0:0:0:
448,192,48419,1,0,0:0:0:0:
192,192,48743,1,0,0:0:0:0:
320,192,48743,1,0,0:0:0:0:
448,192,48743,1,0,0:0:0:0:
320,192,48905,1,0,0:0:0:0:
192,192,48905,1,0,0:0:0:0:
64,192,48905,1,0,0:0:0:0:
64,192,49229,1,0,0:0:0:0:
320,192,49229,1,0,0:0:0:0:
192,192,49391,128,0,49554:0:0:0:0:
448,192,49391,128,0,49554:0:0:0:0:
64,192,49554,1,0,0:0:0:0:
320,192,49554,128,0,49716:0:0:0:0:
192,192,49716,128,0,49878:0:0:0:0:
448,192,49716,128,0,49878:0:0:0:0:
64,192,49878,1,0,0:0:0:0:
320,192,49878,128,0,50040:0:0:0:0:
448,192,50040,128,0,50202:0:0:0:0:
192,192,50040,128,0,50202:0:0:0:0:
64,192,50202,128,0,50689:0:0:0:0:
320,192,50202,128,0,50364:0:0:0:0:
320,192,50527,128,0,50689:0:0:0:0:
192,192,50689,1,0,0:0:0:0:
448,192,50689,1,0,0:0:0:0:
64,192,51013,1,0,0:0:0:0:
448,192,51013,1,0,0:0:0:0:
192,192,51013,1,0,0:0:0:0:
64,192,51337,1,0,0:0:0:0:
192,192,51337,1,0,0:0:0:0:
448,192,51337,1,0,0:0:0:0:
320,192,51500,1,0,0:0:0:0:
64,192,51500,1,0,0:0:0:0:
448,192,51500,1,0,0:0:0:0:
64,192,51824,1,0,0:0:0:0:
448,192,51824,1,0,0:0:0:0:
192,192,51986,128,0,52310:0:0:0:0:
64,192,52148,128,0,52310:0:0:0:0:
448,192,52148,128,0,52310:0:0:0:0:
320,192,52310,128,0,52635:0:0:0:0:
64,192,52473,128,0,52635:0:0:0:0:
448,192,52473,128,0,52635:0:0:0:0:
192,192,52635,128,0,52797:0:0:0:0:
64,192,52797,1,0,0:0:0:0:
448,192,52797,1,0,0:0:0:0:
448,192,52959,1,0,0:0:0:0:
64,192,52959,1,0,0:0:0:0:
320,192,52959,1,0,0:0:0:0:
192,192,53040,1,0,0:0:0:0:
320,192,53121,1,0,0:0:0:0:
448,192,53202,1,0,0:0:0:0:
192,192,53283,128,0,54581:0:0:0:0:
64,192,53283,1,0,0:0:0:0:
320,192,53283,1,0,0:0:0:0:
64,192,53608,1,0,0:0:0:0:
448,192,53608,1,0,0:0:0:0:
320,192,53770,1,0,0:0:0:0:
448,192,53770,1,0,0:0:0:0:
64,192,54094,1,0,0:0:0:0:
320,192,54094,1,0,0:0:0:0:
320,192,54256,1,0,0:0:0:0:
448,192,54256,1,0,0:0:0:0:
320,192,54581,1,0,0:0:0:0:
448,192,54581,128,0,55554:0:0:0:0:
192,192,54743,128,0,55067:0:0:0:0:
320,192,55067,1,0,0:0:0:0:
192,192,55229,1,0,0:0:0:0:
320,192,55229,1,0,0:0:0:0:
192,192,55554,1,0,0:0:0:0:
320,192,55554,128,0,55878:0:0:0:0:
448,192,55878,128,0,56202:0:0:0:0:
64,192,55878,128,0,56202:0:0:0:0:
192,192,55878,1,0,0:0:0:0:
192,192,56202,128,0,56364:0:0:0:0:
320,192,56202,128,0,56364:0:0:0:0:
64,192,56364,128,0,56689:0:0:0:0:
448,192,56364,128,0,56689:0:0:0:0:
320,192,56527,1,0,0:0:0:0:
192,192,56689,1,0,0:0:0:0:
320,192,56689,1,0,0:0:0:0:
64,192,56851,1,0,0:0:0:0:
448,192,56851,1,0,0:0:0:0:
64,192,57013,1,0,0:0:0:0:
448,192,57013,1,0,0:0:0:0:
448,192,57175,128,0,57824:0:0:0:0:
320,192,57175,1,0,0:0:0:0:
320,192,57337,1,0,0:0:0:0:
320,192,57500,1,0,0:0:0:0:
320,192,57662,1,0,0:0:0:0:
320,192,57824,1,0,0:0:0:0:
192,192,57824,1,0,0:0:0:0:
64,192,57824,1,0,0:0:0:0:
448,192,57986,1,0,0:0:0:0:
320,192,58148,1,0,0:0:0:0:
448,192,58310,1,0,0:0:0:0:
192,192,58473,1,0,0:0:0:0:
320,192,58473,1,0,0:0:0:0:
448,192,58473,128,0,59121:0:0:0:0:
64,192,58473,1,0,0:0:0:0:
64,192,58635,1,0,0:0:0:0:
192,192,58797,1,0,0:0:0:0:
320,192,58797,1,0,0:0:0:0:
64,192,58797,1,0,0:0:0:0:
64,192,58959,1,0,0:0:0:0:
192,192,59121,1,0,0:0:0:0:
320,192,59121,1,0,0:0:0:0:
64,192,59283,1,0,0:0:0:0:
192,192,59283,1,0,0:0:0:0:
320,192,59446,1,0,0:0:0:0:
448,192,59446,1,0,0:0:0:0:
192,192,59608,1,0,0:0:0:0:
320,192,59608,1,0,0:0:0:0:
64,192,59770,1,0,0:0:0:0:
192,192,59770,1,0,0:0:0:0:
320,192,59770,1,0,0:0:0:0:
448,192,59770,128,0,60094:0:0:0:0:
320,192,59932,1,0,0:0:0:0:
320,192,60094,1,0,0:0:0:0:
192,192,60094,1,0,0:0:0:0:
64,192,60094,128,0,60419:0:0:0:0:
192,192,60256,1,0,0:0:0:0:
192,192,60419,1,0,0:0:0:0:
320,192,60419,1,0,0:0:0:0:
448,192,60419,1,0,0:0:0:0:
448,192,60581,1,0,0:0:0:0:
192,192,60581,1,0,0:0:0:0:
64,192,60743,1,0,0:0:0:0:
320,192,60743,1,0,0:0:0:0:
64,192,60905,1,0,0:0:0:0:
448,192,60905,1,0,0:0:0:0:
64,192,60986,1,0,0:0:0:0:
448,192,60986,1,0,0:0:0:0:
320,192,61067,128,0,61391:0:0:0:0:
64,192,61229,1,0,0:0:0:0:
192,192,61229,1,0,0:0:0:0:
448,192,61229,1,0,0:0:0:0:
64,192,61391,1,0,0:0:0:0:
192,192,61391,128,0,61716:0:0:0:0:
448,192,61716,128,0,62364:0:0:0:0:
64,192,61716,1,0,0:0:0:0:
320,192,61716,1,0,0:0:0:0:
320,192,61878,1,0,0:0:0:0:
64,192,62040,1,0,0:0:0:0:
192,192,62040,1,0,0:0:0:0:
320,192,62040,1,0,0:0:0:0:
320,192,62202,1,0,0:0:0:0:
192,192,62364,1,0,0:0:0:0:
320,192,62364,1,0,0:0:0:0:
64,192,62364,128,0,62689:0:0:0:0:
192,192,62527,1,0,0:0:0:0:
192,192,62689,1,0,0:0:0:0:
320,192,62689,1,0,0:0:0:0:
448,192,62689,128,0,63013:0:0:0:0:
320,192,62851,1,0,0:0:0:0:
192,192,63013,1,0,0:0:0:0:
320,192,63013,1,0,0:0:0:0:
64,192,63013,128,0,63662:0:0:0:0:
320,192,63175,1,0,0:0:0:0:
192,192,63337,1,0,0:0:0:0:
448,192,63337,1,0,0:0:0:0:
320,192,63500,1,0,0:0:0:0:
192,192,63500,1,0,0:0:0:0:
320,192,63662,1,0,0:0:0:0:
448,192,63662,1,0,0:0:0:0:
192,192,63662,1,0,0:0:0:0:
64,192,63743,1,0,0:0:0:0:
192,192,63824,1,0,0:0:0:0:
320,192,63905,1,0,0:0:0:0:
448,192,63905,1,0,0:0:0:0:
64,192,63905,1,0,0:0:0:0:
192,192,63986,1,0,0:0:0:0:
64,192,64067,1,0,0:0:0:0:
320,192,64148,1,0,0:0:0:0:
448,192,64148,1,0,0:0:0:0:
192,192,64148,1,0,0:0:0:0:
64,192,64229,1,0,0:0:0:0:
192,192,64310,1,0,0:0:0:0:
320,192,64391,1,0,0:0:0:0:
448,192,64391,1,0,0:0:0:0:
64,192,64391,1,0,0:0:0:0:
192,192,64473,1,0,0:0:0:0:
64,192,64554,1,0,0:0:0:0:
320,192,64635,1,0,0:0:0:0:
448,192,64635,1,0,0:0:0:0:
192,192,64635,1,0,0:0:0:0:
64,192,64716,1,0,0:0:0:0:
320,192,64797,1,0,0:0:0:0:
448,192,64797,1,0,0:0:0:0:
192,192,64797,1,0,0:0:0:0:
64,192,64878,1,0,0:0:0:0:
192,192,64959,1,0,0:0:0:0:
320,192,65040,1,0,0:0:0:0:
192,192,65121,1,0,0:0:0:0:
64,192,65202,1,0,0:0:0:0:
192,192,65283,1,0,0:0:0:0:
320,192,65364,1,0,0:0:0:0:
192,192,65446,1,0,0:0:0:0:
64,192,65527,1,0,0:0:0:0:
192,192,65608,1,0,0:0:0:0:
320,192,65608,128,0,65932:0:0:0:0:
64,192,65689,1,0,0:0:0:0:
192,192,65770,1,0,0:0:0:0:
64,192,65851,1,0,0:0:0:0:
192,192,65932,1,8,1:0:0:0:
448,192,65932,1,8,1:0:0:0:
64,192,66094,1,0,0:0:0:0:
192,192,66094,1,8,1:0:0:0:
448,192,66094,1,8,1:0:0:0:
320,192,66256,1,0,0:0:0:0:
448,192,66256,128,0,66419:0:0:0:0:
320,192,66419,1,0,0:0:0:0:
192,192,66419,1,0,0:0:0:0:
320,192,66581,1,0,0:0:0:0:
448,192,66581,128,0,66743:0:0:0:0:
320,192,66743,1,0,0:0:0:0:
192,192,66743,1,0,0:0:0:0:
64,192,66824,128,0,67067:0:0:0:0:
448,192,66905,1,0,0:0:0:0:
320,192,67067,1,0,0:0:0:0:
448,192,67229,1,0,0:0:0:0:
192,192,67229,1,0,0:0:0:0:
320,192,67310,1,0,0:0:0:0:
448,192,67391,1,0,0:0:0:0:
192,192,67391,1,0,0:0:0:0:
64,192,67391,1,0,0:0:0:0:
448,192,67554,1,0,0:0:0:0:
192,192,67554,1,0,0:0:0:0:
320,192,67635,1,0,0:0:0:0:
448,192,67716,1,0,0:0:0:0:
192,192,67716,1,0,0:0:0:0:
64,192,67716,1,0,0:0:0:0:
64,192,67878,1,0,0:0:0:0:
320,192,67878,1,0,0:0:0:0:
448,192,67959,1,0,0:0:0:0:
320,192,68040,1,0,0:0:0:0:
64,192,68202,1,0,0:0:0:0:
192,192,68202,1,0,0:0:0:0:
448,192,68202,128,0,68364:0:0:0:0:
64,192,68364,1,0,0:0:0:0:
192,192,68364,1,0,0:0:0:0:
64,192,68527,1,0,0:0:0:0:
192,192,68608,1,0,0:0:0:0:
64,192,68689,1,0,0:0:0:0:
192,192,68770,1,0,0:0:0:0:
64,192,68851,1,0,0:0:0:0:
448,192,68851,128,0,69013:0:0:0:0:
320,192,68851,1,0,0:0:0:0:
320,192,69013,1,0,0:0:0:0:
192,192,69013,1,0,0:0:0:0:
448,192,69175,128,0,69337:0:0:0:0:
320,192,69175,1,0,0:0:0:0:
192,192,69337,1,0,0:0:0:0:
320,192,69337,1,0,0:0:0:0:
64,192,69419,1,0,0:0:0:0:
320,192,69500,1,0,0:0:0:0:
448,192,69500,1,0,0:0:0:0:
192,192,69662,1,0,0:0:0:0:
64,192,69824,1,0,0:0:0:0:
320,192,69824,1,0,0:0:0:0:
192,192,69905,1,0,0:0:0:0:
64,192,69986,1,0,0:0:0:0:
320,192,69986,128,0,70148:0:0:0:0:
448,192,69986,1,0,0:0:0:0:
192,192,70148,1,0,0:0:0:0:
64,192,70148,1,0,0:0:0:0:
320,192,70310,128,0,70473:0:0:0:0:
64,192,70473,1,0,0:0:0:0:
320,192,70554,128,0,70716:0:0:0:0:
448,192,70716,1,0,0:0:0:0:
64,192,70797,1,0,0:0:0:0:
192,192,70797,1,0,0:0:0:0:
192,192,70959,1,0,0:0:0:0:
320,192,70959,1,0,0:0:0:0:
320,192,71121,1,0,0:0:0:0:
192,192,71202,1,0,0:0:0:0:
320,192,71283,1,0,0:0:0:0:
192,192,71364,1,0,0:0:0:0:
320,192,71446,1,0,0:0:0:0:
64,192,71446,128,0,71608:0:0:0:0:
192,192,71608,1,0,0:0:0:0:
320,192,71608,1,0,0:0:0:0:
64,192,71770,128,0,71932:0:0:0:0:
320,192,71770,1,0,0:0:0:0:
192,192,71932,1,0,0:0:0:0:
320,192,71932,1,0,0:0:0:0:
448,192,72013,1,0,0:0:0:0:
320,192,72094,1,0,0:0:0:0:
192,192,72256,1,0,0:0:0:0:
64,192,72256,1,0,0:0:0:0:
320,192,72419,1,0,0:0:0:0:
448,192,72419,1,0,0:0:0:0:
320,192,72581,1,0,0:0:0:0:
192,192,72743,1,0,0:0:0:0:
320,192,72743,1,0,0:0:0:0:
192,192,72905,1,0,0:0:0:0:
64,192,73067,1,0,0:0:0:0:
448,192,73067,1,0,0:0:0:0:
320,192,73148,1,0,0:0:0:0:
448,192,73229,1,0,0:0:0:0:
64,192,73391,1,0,0:0:0:0:
192,192,73391,1,0,0:0:0:0:
64,192,73554,1,0,0:0:0:0:
192,192,73554,1,0,0:0:0:0:
64,192,73716,1,0,0:0:0:0:
448,192,73797,1,0,0:0:0:0:
64,192,73878,1,0,0:0:0:0:
448,192,73959,1,0,0:0:0:0:
64,192,74040,1,0,0:0:0:0:
320,192,74040,1,0,0:0:0:0:
64,192,74364,1,0,0:0:0:0:
192,192,74364,1,0,0:0:0:0:
192,192,74527,1,0,0:0:0:0:
320,192,74527,1,0,0:0:0:0:
320,192,74770,1,0,0:0:0:0:
192,192,74770,1,0,0:0:0:0:
448,192,74770,1,0,0:0:0:0:
320,192,75013,1,0,0:0:0:0:
448,192,75013,1,0,0:0:0:0:
64,192,75013,1,0,0:0:0:0:
64,192,75337,1,0,0:0:0:0:
192,192,75337,1,0,0:0:0:0:
320,192,75337,1,0,0:0:0:0:
64,192,75581,1,0,0:0:0:0:
192,192,75581,1,0,0:0:0:0:
320,192,75581,1,0,0:0:0:0:
64,192,75824,128,0,76148:0:0:0:0:
320,192,75824,128,0,76148:0:0:0:0:
192,192,75824,1,0,0:0:0:0:
448,192,76148,1,0,0:0:0:0:
192,192,76148,1,0,0:0:0:0:
320,192,76310,1,0,0:0:0:0:
192,192,76391,1,0,0:0:0:0:
64,192,76473,1,0,0:0:0:0:
192,192,76554,1,0,0:0:0:0:
448,192,76635,128,0,77608:0:0:0:0:
320,192,76635,1,0,0:0:0:0:
64,192,76797,1,0,0:0:0:0:
192,192,76797,1,0,0:0:0:0:
320,192,76959,1,0,0:0:0:0:
64,192,76959,1,0,0:0:0:0:
192,192,77121,1,0,0:0:0:0:
64,192,77121,1,0,0:0:0:0:
320,192,77283,1,0,0:0:0:0:
192,192,77446,1,0,0:0:0:0:
64,192,77446,1,0,0:0:0:0:
320,192,77608,128,0,77932:0:0:0:0:
192,192,77608,1,0,0:0:0:0:
192,192,77770,1,0,0:0:0:0:
448,192,77770,1,0,0:0:0:0:
192,192,77932,128,0,78419:0:0:0:0:
64,192,77932,1,0,0:0:0:0:
320,192,78094,1,0,0:0:0:0:
448,192,78094,1,0,0:0:0:0:
64,192,78256,1,0,0:0:0:0:
320,192,78256,1,0,0:0:0:0:
64,192,78419,128,0,78743:0:0:0:0:
320,192,78419,1,0,0:0:0:0:
448,192,78419,1,0,0:0:0:0:
448,192,78581,1,0,0:0:0:0:
192,192,78743,128,0,78905:0:0:0:0:
320,192,78743,1,0,0:0:0:0:
448,192,78743,1,0,0:0:0:0:
320,192,78905,128,0,79067:0:0:0:0:
448,192,78905,1,0,0:0:0:0:
448,192,79067,128,0,79229:0:0:0:0:
64,192,79067,1,0,0:0:0:0:
192,192,79067,1,0,0:0:0:0:
192,192,79229,128,0,79716:0:0:0:0:
64,192,79229,1,0,0:0:0:0:
320,192,79391,1,0,0:0:0:0:
448,192,79391,1,0,0:0:0:0:
64,192,79554,1,0,0:0:0:0:
448,192,79554,1,0,0:0:0:0:
64,192,79716,128,0,80202:0:0:0:0:
320,192,79716,1,0,0:0:0:0:
448,192,79716,1,0,0:0:0:0:
320,192,79878,1,0,0:0:0:0:
320,192,80040,1,0,0:0:0:0:
192,192,80040,1,0,0:0:0:0:
448,192,80202,128,0,80689:0:0:0:0:
192,192,80202,1,0,0:0:0:0:
320,192,80283,1,0,0:0:0:0:
192,192,80364,1,0,0:0:0:0:
64,192,80689,1,0,0:0:0:0:
192,192,80689,1,0,0:0:0:0:
320,192,80689,1,0,0:0:0:0:
192,192,80932,1,0,0:0:0:0:
320,192,80932,1,0,0:0:0:0:
448,192,80932,1,0,0:0:0:0:
192,192,81175,1,0,0:0:0:0:
320,192,81175,128,0,81500:0:0:0:0:
64,192,81175,128,0,81500:0:0:0:0:
448,192,81500,1,0,0:0:0:0:
192,192,81500,1,0,0:0:0:0:
64,192,81824,128,0,82310:0:0:0:0:
448,192,81824,1,0,0:0:0:0:
320,192,81986,1,0,0:0:0:0:
192,192,81986,1,0,0:0:0:0:
448,192,82148,1,0,0:0:0:0:
192,192,82310,128,0,82797:0:0:0:0:
320,192,82310,1,0,0:0:0:0:
448,192,82310,1,0,0:0:0:0:
64,192,82473,1,0,0:0:0:0:
64,192,82635,1,0,0:0:0:0:
320,192,82635,1,0,0:0:0:0:
320,192,82797,128,0,83121:0:0:0:0:
64,192,82797,1,0,0:0:0:0:
192,192,82959,1,0,0:0:0:0:
448,192,82959,1,0,0:0:0:0:
448,192,83121,128,0,84419:0:0:0:0:
192,192,83121,1,0,0:0:0:0:
64,192,83283,1,0,0:0:0:0:
320,192,83283,1,0,0:0:0:0:
192,192,83446,1,0,0:0:0:0:
320,192,83446,1,0,0:0:0:0:
64,192,83608,1,0,0:0:0:0:
320,192,83608,1,0,0:0:0:0:
192,192,83770,1,0,0:0:0:0:
64,192,83932,1,0,0:0:0:0:
320,192,83932,1,0,0:0:0:0:
192,192,84094,1,0,0:0:0:0:
64,192,84094,1,0,0:0:0:0:
64,192,84256,1,0,0:0:0:0:
320,192,84256,1,0,0:0:0:0:
192,192,84419,1,0,0:0:0:0:
320,192,84419,1,0,0:0:0:0:
64,192,84419,1,0,0:0:0:0:
192,192,84743,1,0,0:0:0:0:
320,192,84743,1,0,0:0:0:0:
448,192,84743,1,0,0:0:0:0:
320,192,84905,1,0,0:0:0:0:
192,192,84905,1,0,0:0:0:0:
64,192,84905,1,0,0:0:0:0:
192,192,85148,1,0,0:0:0:0:
320,192,85148,1,0,0:0:0:0:
448,192,85148,1,0,0:0:0:0:
320,192,85391,1,0,0:0:0:0:
448,192,85391,1,0,0:0:0:0:
64,192,85391,1,0,0:0:0:0:
320,192,85716,128,0,85878:0:0:0:0:
192,192,85878,128,0,86040:0:0:0:0:
64,192,86040,128,0,86202:0:0:0:0:
448,192,86202,1,0,0:0:0:0:
320,192,86364,1,0,0:0:0:0:
192,192,86446,1,0,0:0:0:0:
320,192,86527,1,0,0:0:0:0:
448,192,86608,1,0,0:0:0:0:
320,192,86689,1,8,1:0:0:0:
64,192,86689,1,8,1:0:0:0:
192,192,86689,1,8,1:0:0:0:
64,192,86851,1,8,1:0:0:0:
192,192,86851,1,8,1:0:0:0:
320,192,86851,1,8,1:0:0:0:
448,192,87013,128,0,87175:0:0:0:0:
320,192,87013,128,0,87175:0:0:0:0:
192,192,87013,1,0,0:0:0:0:
64,192,87337,1,0,0:0:0:0:
448,192,87337,1,0,0:0:0:0:
320,192,87419,1,0,0:0:0:0:
192,192,87500,1,0,0:0:0:0:
64,192,87581,1,0,0:0:0:0:
320,192,87662,1,0,0:0:0:0:
448,192,87662,1,0,0:0:0:0:
192,192,87743,1,0,0:0:0:0:
448,192,87824,1,0,0:0:0:0:
192,192,87905,1,0,0:0:0:0:
320,192,87986,1,0,0:0:0:0:
448,192,87986,1,0,0:0:0:0:
64,192,88067,1,0,0:0:0:0:
448,192,88148,128,0,88310:0:0:0:0:
192,192,88310,1,0,0:0:0:0:
64,192,88310,1,0,0:0:0:0:
320,192,88391,1,0,0:0:0:0:
192,192,88473,1,0,0:0:0:0:
64,192,88554,1,0,0:0:0:0:
320,192,88635,1,0,0:0:0:0:
192,192,88635,1,0,0:0:0:0:
448,192,88716,1,0,0:0:0:0:
192,192,88797,1,0,0:0:0:0:
320,192,88878,1,0,0:0:0:0:
64,192,88959,1,0,0:0:0:0:
448,192,88959,1,0,0:0:0:0:
192,192,89040,1,0,0:0:0:0:
448,192,89121,1,0,0:0:0:0:
320,192,89202,1,0,0:0:0:0:
192,192,89283,1,0,0:0:0:0:
64,192,89283,1,0,0:0:0:0:
448,192,89364,1,0,0:0:0:0:
320,192,89446,1,0,0:0:0:0:
64,192,89446,1,0,0:0:0:0:
192,192,89527,1,0,0:0:0:0:
64,192,89608,1,0,0:0:0:0:
320,192,89608,128,0,89770:0:0:0:0:
448,192,89608,1,0,0:0:0:0:
448,192,89770,1,0,0:0:0:0:
192,192,89851,1,0,0:0:0:0:
64,192,89932,1,0,0:0:0:0:
448,192,89932,1,0,0:0:0:0:
320,192,90013,1,0,0:0:0:0:
448,192,90094,1,0,0:0:0:0:
320,192,90175,1,0,0:0:0:0:
192,192,90256,1,0,0:0:0:0:
64,192,90256,1,0,0:0:0:0:
320,192,90337,1,0,0:0:0:0:
192,192,90419,1,0,0:0:0:0:
64,192,90500,1,0,0:0:0:0:
192,192,90581,1,0,0:0:0:0:
320,192,90581,1,0,0:0:0:0:
448,192,90662,1,0,0:0:0:0:
64,192,90743,128,0,90905:0:0:0:0:
448,192,90905,1,0,0:0:0:0:
192,192,90905,1,0,0:0:0:0:
320,192,90986,1,0,0:0:0:0:
448,192,91067,1,0,0:0:0:0:
192,192,91148,1,0,0:0:0:0:
64,192,91229,1,0,0:0:0:0:
448,192,91229,1,0,0:0:0:0:
320,192,91310,1,0,0:0:0:0:
448,192,91391,1,0,0:0:0:0:
64,192,91473,1,0,0:0:0:0:
192,192,91554,128,0,91716:0:0:0:0:
320,192,91554,128,0,91716:0:0:0:0:
448,192,91554,1,0,0:0:0:0:
64,192,91716,1,0,0:0:0:0:
448,192,91756,1,0,0:0:0:0:
320,192,91797,1,0,0:0:0:0:
192,192,91837,1,0,0:0:0:0:
448,192,91878,1,0,0:0:0:0:
64,192,91878,1,0,0:0:0:0:
64,192,92040,1,0,0:0:0:0:
192,192,92081,1,0,0:0:0:0:
320,192,92121,1,0,0:0:0:0:
448,192,92162,1,0,0:0:0:0:
64,192,92202,128,0,92364:0:0:0:0:
192,192,92202,1,0,0:0:0:0:
192,192,92364,1,0,0:0:0:0:
320,192,92446,1,0,0:0:0:0:
448,192,92527,1,0,0:0:0:0:
64,192,92527,1,0,0:0:0:0:
192,192,92608,1,0,0:0:0:0:
64,192,92689,1,0,0:0:0:0:
320,192,92770,1,0,0:0:0:0:
192,192,92851,1,0,0:0:0:0:
448,192,92851,1,0,0:0:0:0:
320,192,92932,1,0,0:0:0:0:
64,192,93013,1,0,0:0:0:0:
192,192,93094,1,0,0:0:0:0:
320,192,93175,1,0,0:0:0:0:
64,192,93175,1,0,0:0:0:0:
448,192,93256,1,0,0:0:0:0:
192,192,93337,1,0,0:0:0:0:
64,192,93419,1,0,0:0:0:0:
192,192,93500,1,0,0:0:0:0:
320,192,93500,1,0,0:0:0:0:
448,192,93581,1,0,0:0:0:0:
320,192,93662,1,0,0:0:0:0:
192,192,93743,1,0,0:0:0:0:
64,192,93824,1,0,0:0:0:0:
320,192,93824,1,0,0:0:0:0:
192,192,93905,1,0,0:0:0:0:
64,192,93986,1,0,0:0:0:0:
192,192,94067,1,0,0:0:0:0:
320,192,94148,1,0,0:0:0:0:
448,192,94148,1,0,0:0:0:0:
64,192,94229,1,0,0:0:0:0:
448,192,94310,1,0,0:0:0:0:
192,192,94391,1,0,0:0:0:0:
320,192,94473,1,0,0:0:0:0:
64,192,94473,1,0,0:0:0:0:
192,192,94554,1,0,0:0:0:0:
448,192,94635,1,0,0:0:0:0:
192,192,94716,1,0,0:0:0:0:
64,192,94797,1,0,0:0:0:0:
448,192,94797,128,0,94959:0:0:0:0:
320,192,94797,1,0,0:0:0:0:
320,192,94959,1,0,0:0:0:0:
192,192,95040,1,0,0:0:0:0:
64,192,95121,1,0,0:0:0:0:
320,192,95121,1,0,0:0:0:0:
448,192,95202,1,0,0:0:0:0:
320,192,95283,1,0,0:0:0:0:
448,192,95364,1,0,0:0:0:0:
192,192,95446,1,0,0:0:0:0:
64,192,95446,1,0,0:0:0:0:
320,192,95527,1,0,0:0:0:0:
64,192,95608,1,0,0:0:0:0:
192,192,95689,1,0,0:0:0:0:
320,192,95770,1,0,0:0:0:0:
64,192,95770,1,0,0:0:0:0:
448,192,95851,1,0,0:0:0:0:
192,192,95932,1,0,0:0:0:0:
320,192,96013,1,0,0:0:0:0:
64,192,96094,1,0,0:0:0:0:
448,192,96094,1,0,0:0:0:0:
192,192,96094,1,0,0:0:0:0:
192,192,96337,1,0,0:0:0:0:
320,192,96337,1,0,0:0:0:0:
448,192,96337,1,0,0:0:0:0:
320,192,96581,1,0,0:0:0:0:
448,192,96581,1,0,0:0:0:0:
64,192,96581,1,0,0:0:0:0:
320,192,96743,1,0,0:0:0:0:
192,192,96824,1,0,0:0:0:0:
320,192,96905,1,0,0:0:0:0:
192,192,96986,1,0,0:0:0:0:
320,192,97067,1,0,0:0:0:0:
64,192,97067,1,0,0:0:0:0:
192,192,97148,1,0,0:0:0:0:
448,192,97148,1,0,0:0:0:0:
64,192,97229,1,0,0:0:0:0:
320,192,97229,1,0,0:0:0:0:
192,192,97391,128,0,97473:0:0:0:0:
320,192,97473,128,0,97554:0:0:0:0:
448,192,97554,128,0,98689:0:0:0:0:
64,192,97716,1,0,0:0:0:0:
192,192,97716,1,0,0:0:0:0:
64,192,97878,1,0,0:0:0:0:
192,192,97878,1,0,0:0:0:0:
64,192,98202,1,0,0:0:0:0:
192,192,98202,1,0,0:0:0:0:
320,192,98364,1,0,0:0:0:0:
64,192,98364,1,0,0:0:0:0:
320,192,98446,1,0,0:0:0:0:
64,192,98446,1,0,0:0:0:0:
320,192,98527,1,0,0:0:0:0:
64,192,98527,1,0,0:0:0:0:
192,192,98689,1,0,0:0:0:0:
320,192,98689,1,0,0:0:0:0:
64,192,98932,1,0,0:0:0:0:
192,192,98932,1,0,0:0:0:0:
320,192,98932,1,0,0:0:0:0:
192,192,99175,1,0,0:0:0:0:
448,192,99175,1,0,0:0:0:0:
64,192,99175,1,0,0:0:0:0:
192,192,99500,1,0,0:0:0:0:
320,192,99500,1,0,0:0:0:0:
64,192,99662,1,0,0:0:0:0:
448,192,99662,1,0,0:0:0:0:
64,192,99743,1,0,0:0:0:0:
448,192,99743,1,0,0:0:0:0:
64,192,99824,1,0,0:0:0:0:
448,192,99824,1,0,0:0:0:0:
320,192,99986,128,0,100067:0:0:0:0:
192,192,100067,128,0,100148:0:0:0:0:
64,192,100148,128,0,101283:0:0:0:0:
448,192,100310,1,0,0:0:0:0:
320,192,100310,1,0,0:0:0:0:
320,192,100473,1,0,0:0:0:0:
448,192,100473,1,0,0:0:0:0:
320,192,100797,1,0,0:0:0:0:
448,192,100797,1,0,0:0:0:0:
192,192,100959,1,0,0:0:0:0:
448,192,100959,1,0,0:0:0:0:
192,192,101040,1,0,0:0:0:0:
448,192,101040,1,0,0:0:0:0:
192,192,101121,1,0,0:0:0:0:
448,192,101121,1,0,0:0:0:0:
320,192,101283,1,0,0:0:0:0:
448,192,101283,1,0,0:0:0:0:
192,192,101527,1,0,0:0:0:0:
64,192,101527,1,0,0:0:0:0:
320,192,101527,1,0,0:0:0:0:
192,192,101770,1,0,0:0:0:0:
320,192,101770,1,0,0:0:0:0:
448,192,101770,1,0,0:0:0:0:
448,192,102094,1,0,0:0:0:0:
64,192,102094,1,0,0:0:0:0:
192,192,102256,1,0,0:0:0:0:
320,192,102256,1,0,0:0:0:0:
192,192,102337,1,0,0:0:0:0:
320,192,102337,1,0,0:0:0:0:
192,192,102419,1,0,0:0:0:0:
320,192,102419,1,0,0:0:0:0:
64,192,102581,128,0,102743:0:0:0:0:
320,192,102581,128,0,102743:0:0:0:0:
192,192,102743,1,0,0:0:0:0:
448,192,102824,128,0,102986:0:0:0:0:
192,192,102824,128,0,102986:0:0:0:0:
320,192,102986,1,0,0:0:0:0:
64,192,103067,128,0,103229:0:0:0:0:
320,192,103067,128,0,103229:0:0:0:0:
192,192,103229,1,0,0:0:0:0:
448,192,103310,128,0,103473:0:0:0:0:
192,192,103310,128,0,103473:0:0:0:0:
320,192,103473,1,0,0:0:0:0:
64,192,103554,128,0,103716:0:0:0:0:
320,192,103554,128,0,103716:0:0:0:0:
192,192,103716,1,0,0:0:0:0:
64,192,103797,128,0,103959:0:0:0:0:
448,192,103797,128,0,103959:0:0:0:0:
320,192,103959,1,0,0:0:0:0:
64,192,104040,128,0,104202:0:0:0:0:
448,192,104040,128,0,104202:0:0:0:0:
192,192,104202,1,0,0:0:0:0:
64,192,104283,128,0,104446:0:0:0:0:
448,192,104283,128,0,104446:0:0:0:0:
320,192,104446,1,0,0:0:0:0:
64,192,104527,128,0,104689:0:0:0:0:
448,192,104527,128,0,104689:0:0:0:0:
320,192,104689,1,0,0:0:0:0:
192,192,104689,128,0,104851:0:0:0:0:
320,192,104851,128,0,105013:0:0:0:0:
64,192,104851,1,0,0:0:0:0:
448,192,105013,128,0,105175:0:0:0:0:
64,192,105013,1,0,0:0:0:0:
64,192,105175,1,0,0:0:0:0:
192,192,105337,1,0,0:0:0:0:
320,192,105500,1,0,0:0:0:0:
192,192,105662,1,0,0:0:0:0:
320,192,105743,1,0,0:0:0:0:
448,192,105743,1,0,0:0:0:0:
192,192,105824,1,0,0:0:0:0:
64,192,105824,1,0,0:0:0:0:
320,192,105905,1,0,0:0:0:0:
448,192,105905,1,0,0:0:0:0:
192,192,105986,1,0,0:0:0:0:
64,192,105986,1,0,0:0:0:0:
320,192,106067,1,0,0:0:0:0:
448,192,106067,1,0,0:0:0:0:
192,192,106148,1,0,0:0:0:0:
64,192,106148,1,0,0:0:0:0:
320,192,106229,1,0,0:0:0:0:
448,192,106229,1,0,0:0:0:0:
192,192,106310,1,0,0:0:0:0:
64,192,106310,1,0,0:0:0:0:
320,192,106391,1,0,0:0:0:0:
448,192,106391,1,0,0:0:0:0:
64,192,106473,1,0,0:0:0:0:
448,192,106473,1,0,0:0:0:0:
192,192,106554,1,0,0:0:0:0:
320,192,106554,1,0,0:0:0:0:
64,192,106635,1,0,0:0:0:0:
448,192,106635,1,0,0:0:0:0:
192,192,106716,1,0,0:0:0:0:
320,192,106716,1,0,0:0:0:0:
64,192,106797,1,0,0:0:0:0:
448,192,106797,1,0,0:0:0:0:
192,192,106878,1,0,0:0:0:0:
320,192,106878,1,0,0:0:0:0:
64,192,106959,1,0,0:0:0:0:
448,192,106959,1,0,0:0:0:0:
192,192,107040,1,0,0:0:0:0:
320,192,107040,1,0,0:0:0:0:
64,192,107121,1,0,0:0:0:0:
448,192,107121,1,0,0:0:0:0:
320,192,107202,1,0,0:0:0:0:
192,192,107364,1,0,0:0:0:0:
320,192,107446,1,0,0:0:0:0:
64,192,107446,1,0,0:0:0:0:
64,192,107608,1,0,0:0:0:0:
192,192,107608,1,0,0:0:0:0:
448,192,107608,1,0,0:0:0:0:
320,192,107608,1,0,0:0:0:0:
64,192,107770,128,0,109716:0:0:0:0:
448,192,107770,128,0,109716:0:0:0:0:
320,192,109229,1,0,0:0:0:0:
192,192,109310,1,0,0:0:0:0:
320,192,109391,1,0,0:0:0:0:
192,192,109473,1,0,0:0:0:0:
320,192,109554,1,0,0:0:0:0:
192,192,109635,1,0,0:0:0:0:
320,192,109716,1,0,0:0:0:0:
64,192,110040,1,0,0:0:0:0:
192,192,110040,1,0,0:0:0:0:
448,192,110040,1,0,0:0:0:0:
64,192,110364,1,0,0:0:0:0:
448,192,110364,1,0,0:0:0:0:
320,192,110446,1,0,0:0:0:0:
192,192,110446,1,0,0:0:0:0:
64,192,110527,1,0,0:0:0:0:
448,192,110527,1,0,0:0:0:0:
192,192,110851,1,0,0:0:0:0:
320,192,110851,1,0,0:0:0:0:
64,192,110932,1,0,0:0:0:0:
448,192,110932,1,0,0:0:0:0:
192,192,111013,1,0,0:0:0:0:
320,192,111013,1,0,0:0:0:0:
448,192,111337,1,0,0:0:0:0:
64,192,111337,1,0,0:0:0:0:
192,192,111419,1,0,0:0:0:0:
320,192,111419,1,0,0:0:0:0:
64,192,111500,1,0,0:0:0:0:
448,192,111500,1,0,0:0:0:0:
64,192,111824,1,0,0:0:0:0:
448,192,111824,1,0,0:0:0:0:
320,192,111824,1,0,0:0:0:0:
64,192,111986,128,0,112635:0:0:0:0:
448,192,111986,128,0,112635:0:0:0:0:
320,192,111986,128,0,112635:0:0:0:0:
