osu file format v14

[General]
AudioFilename: audio.mp3
AudioLeadIn: 0
PreviewTime: 65977
Countdown: 0
SampleSet: Soft
StackLeniency: 0.7
Mode: 3
LetterboxInBreaks: 0
SpecialStyle: 0
WidescreenStoryboard: 1

[Editor]
DistanceSpacing: 0.5
BeatDivisor: 4
GridSize: 32
TimelineZoom: 1.3

[Metadata]
Title:Twin Rocket
TitleUnicode:Twin Rocket
Artist:uno feat. Chiyoko (IOSYS)
ArtistUnicode:uno feat. ちよこ (IOSYS)
Creator:Tofu1222
Version:NOVICE
Source:SOUND VOLTEX III GRAVITY WARS
Tags:_Stan Fresh_Chicken KONAMI BEMANI SDVX near noah 第一回ボルテキャラテーマ曲コンテスト VOLTEX Character Theme First Contest
BeatmapID:1673119
BeatmapSetID:796663

[Difficulty]
HPDrainRate:7
CircleSize:4
OverallDifficulty:7
ApproachRate:5
SliderMultiplier:1.4
SliderTickRate:1

[Events]
//Background and Video events
0,0,"bg.png",0,0
//Break Periods
//Storyboard Layer 0 (Background)
//Storyboard Layer 1 (Fail)
//Storyboard Layer 2 (Pass)
//Storyboard Layer 3 (Foreground)
//Storyboard Sound Samples

[TimingPoints]
1437,324.324324324324,4,2,1,50,1,0
66301,-100,4,2,1,50,0,1
85761,-100,4,2,1,50,0,0
87382,-100,4,2,1,50,0,1
106518,-100,4,2,1,50,0,0

[HitObjects]
64,192,1437,128,2,2572:0:0:0:0:
448,192,1437,1,4,0:0:0:0:
320,192,2572,1,4,0:0:0:0:
448,192,2572,1,2,0:0:0:0:
64,192,2896,1,2,0:0:0:0:
192,192,2896,1,4,0:0:0:0:
320,192,3058,1,4,0:0:0:0:
448,192,3058,1,2,0:0:0:0:
64,192,3220,1,2,0:0:0:0:
192,192,3220,1,4,0:0:0:0:
64,192,4031,1,0,0:0:0:0:
448,192,4031,1,0,0:0:0:0:
64,192,4355,1,0,0:0:0:0:
64,192,4680,128,0,4842:0:0:0:0:
320,192,4842,128,0,5166:0:0:0:0:
192,192,5166,128,0,5491:0:0:0:0:
448,192,5491,1,0,0:0:0:0:
64,192,5653,1,0,0:0:0:0:
192,192,5815,1,0,0:0:0:0:
320,192,5977,128,0,6301:0:0:0:0:
64,192,6301,1,0,0:0:0:0:
448,192,6464,1,0,0:0:0:0:
192,192,6626,1,0,0:0:0:0:
192,192,6950,1,0,0:0:0:0:
192,192,7274,128,0,7436:0:0:0:0:
448,192,7436,128,0,7761:0:0:0:0:
64,192,7761,1,0,0:0:0:0:
448,192,8085,1,0,0:0:0:0:
64,192,8247,1,0,0:0:0:0:
320,192,8409,1,0,0:0:0:0:
192,192,8572,128,0,8896:0:0:0:0:
64,192,8896,1,0,0:0:0:0:
320,192,9220,1,0,0:0:0:0:
320,192,9545,1,0,0:0:0:0:
320,192,9869,128,0,10031:0:0:0:0:
448,192,10031,128,0,10355:0:0:0:0:
192,192,10355,1,0,0:0:0:0:
192,192,10680,1,0,0:0:0:0:
192,192,11004,1,0,0:0:0:0:
320,192,11166,128,0,11491:0:0:0:0:
64,192,11491,1,0,0:0:0:0:
192,192,11815,1,0,0:0:0:0:
64,192,11977,1,0,0:0:0:0:
320,192,12139,1,0,0:0:0:0:
448,192,12301,1,0,0:0:0:0:
64,192,12464,1,0,0:0:0:0:
192,192,12626,1,0,0:0:0:0:
448,192,12788,128,0,13112:0:0:0:0:
320,192,13112,1,0,0:0:0:0:
192,192,13274,1,0,0:0:0:0:
64,192,13436,1,0,0:0:0:0:
448,192,13599,1,0,0:0:0:0:
320,192,13761,128,0,14085:0:0:0:0:
64,192,14085,1,0,0:0:0:0:
448,192,14247,1,8,0:0:0:0:
64,192,14409,1,2,0:0:0:0:
192,192,14409,1,4,0:0:0:0:
320,192,14734,1,2,0:0:0:0:
448,192,14734,1,8,0:0:0:0:
64,192,14896,1,0,0:0:0:0:
320,192,15058,1,2,0:0:0:0:
192,192,15220,1,0,0:0:0:0:
64,192,15382,1,8,0:0:0:0:
448,192,15382,1,2,0:0:0:0:
320,192,15707,1,2,0:0:0:0:
448,192,15869,1,0,0:0:0:0:
64,192,16031,1,2,0:0:0:0:
192,192,16031,1,8,0:0:0:0:
320,192,16193,1,0,0:0:0:0:
64,192,16355,1,2,0:0:0:0:
192,192,16518,1,0,0:0:0:0:
320,192,16680,1,8,0:0:0:0:
448,192,16680,1,2,0:0:0:0:
64,192,16842,1,2,0:0:0:0:
192,192,16842,1,0,0:0:0:0:
320,192,17004,1,4,0:0:0:0:
448,192,17004,1,2,0:0:0:0:
192,192,17166,1,0,0:0:0:0:
64,192,17328,1,8,0:0:0:0:
448,192,17328,1,2,0:0:0:0:
320,192,17491,1,0,0:0:0:0:
192,192,17653,1,2,0:0:0:0:
64,192,17815,128,0,17977:0:0:0:0:
320,192,17977,1,2,0:0:0:0:
448,192,17977,1,8,0:0:0:0:
192,192,18139,128,0,18301:0:0:0:0:
64,192,18301,1,2,0:0:0:0:
448,192,18301,1,4,0:0:0:0:
64,192,18545,1,2,0:0:0:0:
448,192,18545,1,4,0:0:0:0:
64,192,18788,1,2,0:0:0:0:
448,192,18788,1,4,0:0:0:0:
192,192,18950,1,2,0:0:0:0:
320,192,18950,1,4,0:0:0:0:
64,192,19112,1,2,0:0:0:0:
448,192,19112,1,4,0:0:0:0:
192,192,19274,1,2,0:0:0:0:
320,192,19274,1,4,0:0:0:0:
64,192,19599,1,2,0:0:0:0:
448,192,19599,1,0,0:0:0:0:
192,192,19923,1,14,0:0:0:0:
448,192,20085,1,0,0:0:0:0:
64,192,20247,1,2,0:0:0:0:
192,192,20409,1,0,0:0:0:0:
320,192,20572,1,2,0:0:0:0:
448,192,20572,1,8,0:0:0:0:
64,192,20896,1,2,0:0:0:0:
192,192,20896,1,4,0:0:0:0:
320,192,21058,1,0,0:0:0:0:
64,192,21220,1,8,0:0:0:0:
448,192,21220,1,2,0:0:0:0:
192,192,21382,1,0,0:0:0:0:
320,192,21545,1,2,0:0:0:0:
64,192,21707,1,0,0:0:0:0:
320,192,21869,1,8,0:0:0:0:
448,192,21869,1,2,0:0:0:0:
64,192,22031,1,2,0:0:0:0:
192,192,22031,1,0,0:0:0:0:
320,192,22193,1,2,0:0:0:0:
448,192,22193,1,4,0:0:0:0:
192,192,22355,1,0,0:0:0:0:
64,192,22518,1,2,0:0:0:0:
448,192,22518,1,4,0:0:0:0:
320,192,22680,1,0,0:0:0:0:
64,192,22842,1,2,0:0:0:0:
192,192,22842,1,4,0:0:0:0:
320,192,23004,128,0,23166:0:0:0:0:
64,192,23166,1,2,0:0:0:0:
448,192,23166,1,4,0:0:0:0:
192,192,23328,128,0,23491:0:0:0:0:
64,192,23491,1,0,0:0:0:0:
448,192,23491,1,0,0:0:0:0:
320,192,23653,1,0,0:0:0:0:
192,192,23815,1,0,0:0:0:0:
64,192,23977,1,0,0:0:0:0:
320,192,24139,128,0,24464:0:0:0:0:
192,192,24464,128,2,24788:0:0:0:0:
320,192,24788,1,2,0:0:0:0:
448,192,24788,1,0,0:0:0:0:
64,192,25112,1,14,0:0:0:0:
320,192,25274,1,0,0:0:0:0:
64,192,25436,1,2,0:0:0:0:
192,192,25599,1,0,0:0:0:0:
320,192,25761,1,2,0:0:0:0:
448,192,25761,1,8,0:0:0:0:
192,192,26085,1,2,0:0:0:0:
320,192,26247,1,0,0:0:0:0:
64,192,26409,1,8,0:0:0:0:
448,192,26409,1,2,0:0:0:0:
192,192,26572,1,0,0:0:0:0:
320,192,26734,1,2,0:0:0:0:
448,192,26734,1,4,0:0:0:0:
64,192,27058,1,4,0:0:0:0:
192,192,27058,1,2,0:0:0:0:
320,192,27382,1,2,0:0:0:0:
448,192,27382,1,0,0:0:0:0:
192,192,27545,1,0,0:0:0:0:
64,192,27707,1,2,0:0:0:0:
448,192,27707,1,8,0:0:0:0:
320,192,27869,1,0,0:0:0:0:
192,192,28031,1,2,0:0:0:0:
448,192,28193,1,0,0:0:0:0:
64,192,28355,1,2,0:0:0:0:
320,192,28355,1,8,0:0:0:0:
192,192,28518,1,0,0:0:0:0:
448,192,28680,1,2,0:0:0:0:
320,192,28788,1,2,0:0:0:0:
64,192,28896,1,2,0:0:0:0:
192,192,29004,1,2,0:0:0:0:
448,192,29004,1,4,0:0:0:0:
320,192,29328,1,2,0:0:0:0:
448,192,29436,1,2,0:0:0:0:
192,192,29545,1,2,0:0:0:0:
64,192,29653,1,2,0:0:0:0:
320,192,29653,1,4,0:0:0:0:
192,192,29977,1,6,0:0:0:0:
320,192,30139,1,0,0:0:0:0:
64,192,30301,1,2,0:0:0:0:
448,192,30301,1,8,0:0:0:0:
192,192,30464,1,0,0:0:0:0:
320,192,30626,1,2,0:0:0:0:
64,192,30788,1,0,0:0:0:0:
192,192,30950,1,2,0:0:0:0:
448,192,30950,1,8,0:0:0:0:
320,192,31112,1,0,0:0:0:0:
64,192,31274,1,2,0:0:0:0:
192,192,31274,1,4,0:0:0:0:
448,192,31518,1,6,0:0:0:0:
64,192,31599,1,6,0:0:0:0:
320,192,31761,1,6,0:0:0:0:
448,192,32085,1,6,0:0:0:0:
64,192,32166,1,6,0:0:0:0:
320,192,32409,1,6,0:0:0:0:
64,192,32572,1,6,0:0:0:0:
448,192,32653,1,6,0:0:0:0:
192,192,32977,1,6,0:0:0:0:
320,192,33058,1,6,0:0:0:0:
64,192,33301,1,6,0:0:0:0:
448,192,33464,1,6,0:0:0:0:
192,192,33707,1,6,0:0:0:0:
64,192,33869,128,4,34355:0:0:0:0:
320,192,34355,1,0,0:0:0:0:
192,192,34518,1,0,0:0:0:0:
448,192,34680,1,0,0:0:0:0:
64,192,34842,1,2,0:0:0:0:
192,192,35004,1,8,0:0:0:0:
320,192,35166,1,2,0:0:0:0:
448,192,35166,1,4,0:0:0:0:
64,192,35328,1,0,0:0:0:0:
448,192,35491,1,0,0:0:0:0:
64,192,35653,1,0,0:0:0:0:
320,192,35815,128,0,36301:0:0:0:0:
192,192,36301,128,0,36626:0:0:0:0:
448,192,36626,128,0,36950:0:0:0:0:
64,192,36950,1,0,0:0:0:0:
320,192,37112,128,0,37436:0:0:0:0:
192,192,37436,1,0,0:0:0:0:
448,192,37599,1,0,0:0:0:0:
320,192,37761,1,0,0:0:0:0:
64,192,37923,1,0,0:0:0:0:
320,192,38085,1,0,0:0:0:0:
64,192,38247,1,0,0:0:0:0:
448,192,38409,128,0,38896:0:0:0:0:
192,192,38896,1,0,0:0:0:0:
320,192,39058,1,0,0:0:0:0:
64,192,39220,1,0,0:0:0:0:
320,192,39382,1,0,0:0:0:0:
448,192,39545,1,0,0:0:0:0:
192,192,39707,128,0,40031:0:0:0:0:
448,192,40031,1,0,0:0:0:0:
320,192,40193,1,0,0:0:0:0:
192,192,40355,1,0,0:0:0:0:
448,192,40518,1,0,0:0:0:0:
192,192,40680,1,0,0:0:0:0:
448,192,40842,1,0,0:0:0:0:
64,192,41004,128,0,41491:0:0:0:0:
320,192,41491,1,0,0:0:0:0:
192,192,41653,1,0,0:0:0:0:
448,192,41815,1,0,0:0:0:0:
64,192,41977,1,0,0:0:0:0:
448,192,42139,1,0,0:0:0:0:
192,192,42301,128,0,42626:0:0:0:0:
448,192,42626,1,0,0:0:0:0:
320,192,42788,1,0,0:0:0:0:
64,192,42950,1,0,0:0:0:0:
448,192,43112,1,0,0:0:0:0:
192,192,43274,1,0,0:0:0:0:
320,192,43436,1,0,0:0:0:0:
64,192,43599,1,0,0:0:0:0:
192,192,43761,1,0,0:0:0:0:
448,192,43923,128,0,44247:0:0:0:0:
64,192,44247,1,0,0:0:0:0:
320,192,44572,128,0,44896:0:0:0:0:
192,192,44896,1,0,0:0:0:0:
320,192,45220,1,2,0:0:0:0:
64,192,45545,1,2,0:0:0:0:
448,192,45545,1,4,0:0:0:0:
192,192,45869,1,2,0:0:0:0:
320,192,45869,1,4,0:0:0:0:
64,192,46193,1,2,0:0:0:0:
192,192,46193,1,4,0:0:0:0:
320,192,46355,1,2,0:0:0:0:
448,192,46355,1,4,0:0:0:0:
64,192,46680,1,2,0:0:0:0:
192,192,46680,1,4,0:0:0:0:
64,192,48139,1,2,0:0:0:0:
448,192,48139,1,4,0:0:0:0:
192,192,48464,1,2,0:0:0:0:
320,192,48464,1,4,0:0:0:0:
320,192,48788,1,2,0:0:0:0:
448,192,48788,1,4,0:0:0:0:
64,192,48950,1,2,0:0:0:0:
192,192,48950,1,4,0:0:0:0:
320,192,49274,1,2,0:0:0:0:
448,192,49274,1,4,0:0:0:0:
64,192,50734,1,4,0:0:0:0:
192,192,50734,1,2,0:0:0:0:
320,192,51058,1,4,0:0:0:0:
448,192,51058,1,2,0:0:0:0:
192,192,51382,1,4,0:0:0:0:
320,192,51382,1,2,0:0:0:0:
64,192,51545,1,4,0:0:0:0:
448,192,51545,1,2,0:0:0:0:
192,192,51869,1,4,0:0:0:0:
320,192,51869,1,2,0:0:0:0:
320,192,53328,1,2,0:0:0:0:
448,192,53328,1,4,0:0:0:0:
64,192,53653,1,2,0:0:0:0:
192,192,53653,1,4,0:0:0:0:
320,192,53815,1,2,0:0:0:0:
448,192,53815,1,4,0:0:0:0:
64,192,54139,1,2,0:0:0:0:
192,192,54139,1,4,0:0:0:0:
320,192,54301,1,2,0:0:0:0:
448,192,54301,1,4,0:0:0:0:
192,192,54626,1,0,0:0:0:0:
64,192,54788,1,0,0:0:0:0:
320,192,54950,1,0,0:0:0:0:
448,192,55112,1,0,0:0:0:0:
64,192,55274,1,0,0:0:0:0:
192,192,55436,1,0,0:0:0:0:
320,192,55599,128,2,55923:0:0:0:0:
64,192,55923,1,4,0:0:0:0:
448,192,55923,1,2,0:0:0:0:
192,192,56247,1,2,0:0:0:0:
320,192,56409,1,2,0:0:0:0:
64,192,56572,1,2,0:0:0:0:
192,192,56734,1,2,0:0:0:0:
448,192,56896,1,2,0:0:0:0:
320,192,57058,1,2,0:0:0:0:
64,192,57220,1,4,0:0:0:0:
192,192,57220,1,2,0:0:0:0:
320,192,57545,1,2,0:0:0:0:
448,192,57707,1,2,0:0:0:0:
192,192,57869,1,2,0:0:0:0:
320,192,58031,1,2,0:0:0:0:
448,192,58193,1,2,0:0:0:0:
64,192,58355,1,2,0:0:0:0:
192,192,58518,1,4,0:0:0:0:
320,192,58518,1,2,0:0:0:0:
64,192,58842,1,2,0:0:0:0:
192,192,59004,1,2,0:0:0:0:
320,192,59166,1,2,0:0:0:0:
448,192,59328,1,2,0:0:0:0:
192,192,59491,1,2,0:0:0:0:
64,192,59653,1,2,0:0:0:0:
320,192,59815,1,4,0:0:0:0:
448,192,59815,1,2,0:0:0:0:
192,192,60139,1,2,0:0:0:0:
320,192,60301,1,2,0:0:0:0:
448,192,60464,1,2,0:0:0:0:
192,192,60626,1,2,0:0:0:0:
320,192,60788,1,2,0:0:0:0:
64,192,60950,1,2,0:0:0:0:
320,192,61112,1,2,0:0:0:0:
448,192,61112,1,4,0:0:0:0:
64,192,61436,1,2,0:0:0:0:
192,192,61436,1,4,0:0:0:0:
320,192,61599,1,0,0:0:0:0:
64,192,61761,1,4,0:0:0:0:
448,192,61761,1,2,0:0:0:0:
192,192,61923,1,0,0:0:0:0:
320,192,62085,1,2,0:0:0:0:
448,192,62085,1,4,0:0:0:0:
64,192,62409,1,2,0:0:0:0:
192,192,62409,1,4,0:0:0:0:
320,192,62734,1,2,0:0:0:0:
448,192,62734,1,4,0:0:0:0:
192,192,62896,1,0,0:0:0:0:
64,192,63058,1,4,0:0:0:0:
448,192,63058,1,2,0:0:0:0:
320,192,63220,1,0,0:0:0:0:
64,192,63382,1,2,0:0:0:0:
192,192,63382,1,4,0:0:0:0:
320,192,63707,1,4,0:0:0:0:
448,192,63707,1,2,0:0:0:0:
64,192,63950,1,4,0:0:0:0:
192,192,63950,1,2,0:0:0:0:
320,192,64193,1,2,0:0:0:0:
448,192,64193,1,4,0:0:0:0:
64,192,64436,1,4,0:0:0:0:
192,192,64436,1,2,0:0:0:0:
320,192,64680,1,2,0:0:0:0:
448,192,64680,1,4,0:0:0:0:
64,192,64842,1,2,0:0:0:0:
192,192,64842,1,4,0:0:0:0:
448,192,65004,128,0,65977:0:0:0:0:
64,192,65653,128,0,65977:0:0:0:0:
192,192,65977,1,0,0:0:0:0:
320,192,66139,1,8,0:0:0:0:
64,192,66301,1,2,0:0:0:0:
448,192,66301,1,4,0:0:0:0:
192,192,66464,1,0,0:0:0:0:
320,192,66626,1,2,0:0:0:0:
448,192,66626,1,8,0:0:0:0:
64,192,66869,1,0,0:0:0:0:
192,192,67112,1,0,0:0:0:0:
320,192,67274,1,2,0:0:0:0:
448,192,67274,128,8,67436:0:0:0:0:
64,192,67436,1,0,0:0:0:0:
448,192,67599,128,2,67761:0:0:0:0:
64,192,67761,1,0,0:0:0:0:
192,192,67923,128,2,68085:0:0:0:0:
320,192,67923,1,8,0:0:0:0:
448,192,68247,1,2,0:0:0:0:
64,192,68572,1,2,0:0:0:0:
192,192,68572,1,8,0:0:0:0:
320,192,68734,1,2,0:0:0:0:
448,192,68734,1,0,0:0:0:0:
64,192,68896,1,4,0:0:0:0:
192,192,68896,1,2,0:0:0:0:
320,192,69058,1,0,0:0:0:0:
64,192,69220,1,8,0:0:0:0:
448,192,69220,1,2,0:0:0:0:
192,192,69464,1,0,0:0:0:0:
320,192,69707,1,0,0:0:0:0:
64,192,69869,128,8,70031:0:0:0:0:
448,192,69869,1,2,0:0:0:0:
320,192,70031,1,0,0:0:0:0:
64,192,70193,1,2,0:0:0:0:
192,192,70193,1,4,0:0:0:0:
320,192,70355,1,0,0:0:0:0:
64,192,70518,1,2,0:0:0:0:
448,192,70518,1,0,0:0:0:0:
320,192,70842,1,2,0:0:0:0:
448,192,70842,1,4,0:0:0:0:
64,192,71004,1,2,0:0:0:0:
192,192,71004,1,4,0:0:0:0:
320,192,71328,1,2,0:0:0:0:
448,192,71328,1,4,0:0:0:0:
64,192,71491,1,4,0:0:0:0:
192,192,71491,1,2,0:0:0:0:
320,192,71653,1,0,0:0:0:0:
64,192,71815,1,8,0:0:0:0:
448,192,71815,1,2,0:0:0:0:
192,192,72058,1,0,0:0:0:0:
320,192,72301,1,0,0:0:0:0:
64,192,72464,1,8,0:0:0:0:
448,192,72464,1,2,0:0:0:0:
192,192,72626,1,0,0:0:0:0:
320,192,72788,1,2,0:0:0:0:
448,192,72788,1,4,0:0:0:0:
192,192,72950,1,0,0:0:0:0:
64,192,73112,1,2,0:0:0:0:
448,192,73112,1,8,0:0:0:0:
320,192,73436,1,2,0:0:0:0:
64,192,73761,1,2,0:0:0:0:
192,192,73761,1,8,0:0:0:0:
320,192,73923,1,2,0:0:0:0:
64,192,74085,1,2,0:0:0:0:
448,192,74085,1,4,0:0:0:0:
320,192,74409,1,2,0:0:0:0:
64,192,74572,1,2,0:0:0:0:
192,192,74572,1,4,0:0:0:0:
320,192,74815,1,4,0:0:0:0:
448,192,74815,1,2,0:0:0:0:
64,192,75058,1,2,0:0:0:0:
192,192,75058,1,4,0:0:0:0:
64,192,75382,1,4,0:0:0:0:
192,192,75382,1,2,0:0:0:0:
320,192,75626,1,2,0:0:0:0:
448,192,75626,1,4,0:0:0:0:
64,192,75869,1,4,0:0:0:0:
192,192,75869,1,2,0:0:0:0:
320,192,76193,1,2,0:0:0:0:
448,192,76193,1,4,0:0:0:0:
64,192,76355,1,2,0:0:0:0:
192,192,76355,128,4,76680:0:0:0:0:
320,192,76680,1,2,0:0:0:0:
448,192,76680,128,4,77653:0:0:0:0:
64,192,77004,1,2,0:0:0:0:
192,192,77004,1,8,0:0:0:0:
320,192,77328,1,2,0:0:0:0:
64,192,77653,128,2,77977:0:0:0:0:
192,192,77653,1,8,0:0:0:0:
320,192,77977,128,2,78464:0:0:0:0:
64,192,78301,1,2,0:0:0:0:
192,192,78301,1,8,0:0:0:0:
448,192,78464,128,0,78788:0:0:0:0:
192,192,78626,1,2,0:0:0:0:
320,192,78788,1,0,0:0:0:0:
64,192,78950,1,2,0:0:0:0:
192,192,78950,1,8,0:0:0:0:
320,192,79112,1,2,0:0:0:0:
448,192,79112,1,0,0:0:0:0:
64,192,79274,1,2,0:0:0:0:
192,192,79274,128,4,79761:0:0:0:0:
64,192,79599,1,8,0:0:0:0:
448,192,79599,1,2,0:0:0:0:
320,192,79761,128,0,80247:0:0:0:0:
448,192,79923,1,2,0:0:0:0:
64,192,80247,1,8,0:0:0:0:
192,192,80247,128,2,80572:0:0:0:0:
320,192,80572,1,2,0:0:0:0:
64,192,80734,1,2,0:0:0:0:
448,192,80734,1,4,0:0:0:0:
192,192,80977,1,2,0:0:0:0:
320,192,80977,1,4,0:0:0:0:
64,192,81220,1,2,0:0:0:0:
448,192,81220,1,4,0:0:0:0:
192,192,81545,1,2,0:0:0:0:
320,192,81545,1,4,0:0:0:0:
448,192,81707,1,2,0:0:0:0:
64,192,81869,1,2,0:0:0:0:
192,192,81869,1,4,0:0:0:0:
320,192,82031,1,0,0:0:0:0:
64,192,82193,1,2,0:0:0:0:
448,192,82193,1,8,0:0:0:0:
192,192,82355,1,0,0:0:0:0:
320,192,82518,1,2,0:0:0:0:
448,192,82680,1,0,0:0:0:0:
64,192,82842,1,2,0:0:0:0:
192,192,82842,1,8,0:0:0:0:
320,192,83004,1,2,0:0:0:0:
448,192,83004,1,0,0:0:0:0:
64,192,83166,1,2,0:0:0:0:
192,192,83166,1,4,0:0:0:0:
320,192,83328,1,0,0:0:0:0:
64,192,83491,1,2,0:0:0:0:
448,192,83491,1,8,0:0:0:0:
192,192,83653,1,0,0:0:0:0:
320,192,83815,1,2,0:0:0:0:
448,192,83977,1,0,0:0:0:0:
64,192,84139,1,2,0:0:0:0:
192,192,84139,1,8,0:0:0:0:
448,192,84301,128,0,84464:0:0:0:0:
192,192,84464,1,2,0:0:0:0:
320,192,84464,1,4,0:0:0:0:
64,192,84788,1,4,0:0:0:0:
448,192,84788,1,2,0:0:0:0:
192,192,84950,1,2,0:0:0:0:
320,192,84950,1,4,0:0:0:0:
64,192,85193,1,2,0:0:0:0:
448,192,85193,1,4,0:0:0:0:
192,192,85436,1,2,0:0:0:0:
320,192,85436,1,4,0:0:0:0:
448,192,85761,1,0,0:0:0:0:
320,192,85923,1,0,0:0:0:0:
192,192,86085,1,0,0:0:0:0:
64,192,86247,1,0,0:0:0:0:
448,192,86409,128,0,86734:0:0:0:0:
192,192,86734,1,0,0:0:0:0:
320,192,86896,1,8,0:0:0:0:
64,192,87058,1,2,0:0:0:0:
448,192,87058,1,4,0:0:0:0:
192,192,87382,1,2,0:0:0:0:
320,192,87382,1,8,0:0:0:0:
448,192,87545,1,0,0:0:0:0:
64,192,87707,1,2,0:0:0:0:
192,192,87869,1,0,0:0:0:0:
320,192,88031,1,2,0:0:0:0:
448,192,88031,1,8,0:0:0:0:
64,192,88193,1,0,0:0:0:0:
192,192,88355,1,2,0:0:0:0:
320,192,88518,1,0,0:0:0:0:
64,192,88680,1,2,0:0:0:0:
448,192,88680,1,8,0:0:0:0:
192,192,88842,1,0,0:0:0:0:
320,192,89004,1,2,0:0:0:0:
448,192,89166,1,0,0:0:0:0:
64,192,89328,1,2,0:0:0:0:
192,192,89328,1,8,0:0:0:0:
320,192,89491,1,2,0:0:0:0:
448,192,89491,1,0,0:0:0:0:
64,192,89653,1,4,0:0:0:0:
192,192,89653,1,2,0:0:0:0:
448,192,89815,1,0,0:0:0:0:
192,192,89977,1,8,0:0:0:0:
320,192,89977,1,2,0:0:0:0:
64,192,90139,1,0,0:0:0:0:
448,192,90301,1,2,0:0:0:0:
320,192,90464,1,0,0:0:0:0:
64,192,90626,1,8,0:0:0:0:
192,192,90626,1,2,0:0:0:0:
448,192,90788,1,0,0:0:0:0:
320,192,90950,1,2,0:0:0:0:
192,192,91112,1,0,0:0:0:0:
64,192,91274,1,2,0:0:0:0:
448,192,91274,1,8,0:0:0:0:
320,192,91436,1,0,0:0:0:0:
64,192,91599,1,2,0:0:0:0:
192,192,91599,1,4,0:0:0:0:
320,192,91761,128,0,91923:0:0:0:0:
64,192,91923,1,2,0:0:0:0:
448,192,91923,1,4,0:0:0:0:
192,192,92085,128,0,92247:0:0:0:0:
64,192,92247,1,4,0:0:0:0:
448,192,92247,1,2,0:0:0:0:
320,192,92409,1,0,0:0:0:0:
64,192,92572,1,8,0:0:0:0:
192,192,92572,1,2,0:0:0:0:
448,192,92734,1,0,0:0:0:0:
320,192,92896,1,2,0:0:0:0:
192,192,93058,1,0,0:0:0:0:
64,192,93220,1,8,0:0:0:0:
448,192,93220,1,2,0:0:0:0:
320,192,93382,1,0,0:0:0:0:
192,192,93545,1,2,0:0:0:0:
64,192,93707,1,0,0:0:0:0:
320,192,93869,1,2,0:0:0:0:
448,192,93869,1,8,0:0:0:0:
192,192,94031,1,0,0:0:0:0:
64,192,94193,1,2,0:0:0:0:
320,192,94355,1,0,0:0:0:0:
64,192,94518,1,2,0:0:0:0:
192,192,94518,1,8,0:0:0:0:
320,192,94680,1,2,0:0:0:0:
448,192,94680,1,0,0:0:0:0:
64,192,94842,1,4,0:0:0:0:
192,192,94842,1,2,0:0:0:0:
320,192,95004,1,0,0:0:0:0:
64,192,95166,1,8,0:0:0:0:
448,192,95166,1,2,0:0:0:0:
192,192,95328,1,0,0:0:0:0:
320,192,95491,1,2,0:0:0:0:
448,192,95653,1,0,0:0:0:0:
64,192,95815,1,8,0:0:0:0:
192,192,95815,1,2,0:0:0:0:
320,192,95977,1,0,0:0:0:0:
64,192,96139,1,2,0:0:0:0:
448,192,96139,1,4,0:0:0:0:
192,192,96382,1,2,0:0:0:0:
320,192,96382,1,4,0:0:0:0:
64,192,96626,1,2,0:0:0:0:
448,192,96626,1,4,0:0:0:0:
192,192,96950,1,2,0:0:0:0:
320,192,96950,1,4,0:0:0:0:
448,192,97112,128,6,97274:0:0:0:0:
64,192,97274,1,2,0:0:0:0:
192,192,97274,1,4,0:0:0:0:
320,192,97436,128,0,97761:0:0:0:0:
64,192,97761,1,2,0:0:0:0:
192,192,97761,1,4,0:0:0:0:
320,192,97923,1,2,0:0:0:0:
448,192,97923,1,4,0:0:0:0:
64,192,98247,1,2,0:0:0:0:
192,192,98247,1,4,0:0:0:0:
448,192,98409,128,6,98572:0:0:0:0:
64,192,98572,1,2,0:0:0:0:
192,192,98572,1,4,0:0:0:0:
320,192,98734,1,2,0:0:0:0:
448,192,98734,1,4,0:0:0:0:
64,192,98977,1,4,0:0:0:0:
192,192,98977,1,2,0:0:0:0:
320,192,99220,1,2,0:0:0:0:
448,192,99220,1,4,0:0:0:0:
64,192,99545,1,4,0:0:0:0:
192,192,99545,1,2,0:0:0:0:
320,192,99707,128,6,99869:0:0:0:0:
64,192,99869,1,4,0:0:0:0:
448,192,99869,1,2,0:0:0:0:
192,192,100031,128,2,100355:0:0:0:0:
320,192,100355,1,2,0:0:0:0:
448,192,100355,1,4,0:0:0:0:
64,192,100518,1,2,0:0:0:0:
192,192,100518,1,4,0:0:0:0:
320,192,100842,1,2,0:0:0:0:
448,192,100842,1,4,0:0:0:0:
64,192,101004,128,6,101166:0:0:0:0:
320,192,101166,1,2,0:0:0:0:
448,192,101166,1,4,0:0:0:0:
64,192,101328,1,2,0:0:0:0:
192,192,101328,1,4,0:0:0:0:
320,192,101572,1,4,0:0:0:0:
448,192,101572,1,2,0:0:0:0:
64,192,101815,1,2,0:0:0:0:
192,192,101815,1,4,0:0:0:0:
320,192,102139,1,4,0:0:0:0:
448,192,102139,1,2,0:0:0:0:
64,192,102301,1,2,0:0:0:0:
192,192,102301,1,4,0:0:0:0:
320,192,102464,128,6,102626:0:0:0:0:
64,192,102626,1,2,0:0:0:0:
448,192,102626,1,4,0:0:0:0:
192,192,102869,1,2,0:0:0:0:
320,192,102869,1,4,0:0:0:0:
64,192,103112,1,2,0:0:0:0:
448,192,103112,1,4,0:0:0:0:
192,192,103355,1,2,0:0:0:0:
320,192,103355,1,4,0:0:0:0:
64,192,103599,1,2,0:0:0:0:
448,192,103599,1,4,0:0:0:0:
320,192,103842,1,2,0:0:0:0:
448,192,103842,1,4,0:0:0:0:
64,192,104085,1,2,0:0:0:0:
192,192,104085,1,4,0:0:0:0:
320,192,104328,1,2,0:0:0:0:
448,192,104328,1,4,0:0:0:0:
64,192,104572,1,2,0:0:0:0:
192,192,104572,1,4,0:0:0:0:
448,192,104734,128,0,104896:0:0:0:0:
192,192,104896,1,2,0:0:0:0:
320,192,104896,1,4,0:0:0:0:
64,192,105058,128,0,105220:0:0:0:0:
320,192,105220,1,2,0:0:0:0:
448,192,105220,1,4,0:0:0:0:
192,192,105382,1,6,0:0:0:0:
64,192,105545,1,6,0:0:0:0:
448,192,105707,1,6,0:0:0:0:
192,192,105869,1,2,0:0:0:0:
320,192,106031,1,2,0:0:0:0:
64,192,106193,1,2,0:0:0:0:
192,192,106355,1,2,0:0:0:0:
448,192,106518,128,0,107166:0:0:0:0:
192,192,107166,128,0,107491:0:0:0:0:
320,192,107491,128,2,107815:0:0:0:0:
64,192,107815,128,2,110409:0:0:0:0:
448,192,107815,1,4,0:0:0:0:
320,192,109761,1,0,0:0:0:0:
448,192,110085,1,0,0:0:0:0:
192,192,110409,1,2,0:0:0:0:
320,192,110409,1,0,0:0:0:0:
64,192,110572,1,4,0:0:0:0:
448,192,110572,1,2,0:0:0:0:
64,192,110896,1,2,0:0:0:0:
192,192,110896,1,0,0:0:0:0:
320,192,111058,1,2,0:0:0:0:
448,192,111058,1,4,0:0:0:0:
192,192,111382,1,2,0:0:0:0:
320,192,111382,1,0,0:0:0:0:
64,192,111545,1,4,0:0:0:0:
448,192,111545,1,2,0:0:0:0:
64,192,111869,1,2,0:0:0:0:
192,192,111869,1,0,0:0:0:0:
320,192,112031,1,2,0:0:0:0:
448,192,112031,1,4,0:0:0:0:
