osu file format v14

[General]
AudioFilename: audio.mp3
AudioLeadIn: 0
PreviewTime: 66197
Countdown: 0
SampleSet: Normal
StackLeniency: 0.2
Mode: 1
LetterboxInBreaks: 0
WidescreenStoryboard: 0

[Editor]
Bookmarks: 3929,14307,35064,55821,66199,86956,107712
DistanceSpacing: 1
BeatDivisor: 4
GridSize: 32
TimelineZoom: 3.399998

[Metadata]
Title:Twin Rocket
TitleUnicode:Twin Rocket
Artist:uno feat. Chiyoko (IOSYS)
ArtistUnicode:uno feat. ちよこ (IOSYS)
Creator:Genjuro
Version:Outer Oni
Source:SOUND VOLTEX III GRAVITY WARS
Tags:electronic instrumental rhythm video game sdvx konami bemani near noah 第一回ボルテキャラテーマ曲コンテスト first character theme song contest nifty
BeatmapID:2260361
BeatmapSetID:1080416

[Difficulty]
HPDrainRate:6
CircleSize:2
OverallDifficulty:7
ApproachRate:10
SliderMultiplier:1.4
SliderTickRate:1

[Events]
//Background and Video events
0,0,"bg.jpg",0,-69
//Break Periods
//Storyboard Layer 0 (Background)
//Storyboard Layer 1 (Fail)
//Storyboard Layer 2 (Pass)
//Storyboard Layer 3 (Foreground)
//Storyboard Layer 4 (Overlay)
//Storyboard Sound Samples

[TimingPoints]
-1260,324.324324324324,4,1,0,80,1,0
1334,-86.9565217391304,4,1,0,80,0,0
1821,-94.2734533497243,4,1,0,80,0,0
1902,-95.614360512034,4,1,0,80,0,0
1983,-96.9939630957369,4,1,0,80,0,0
2145,-99.8761535695737,4,1,0,80,0,0
2469,-90.9090909090909,4,1,0,80,0,0
2631,-87.9420075225593,4,1,0,80,0,0
2794,-85.1624089720301,4,1,0,80,0,0
2956,-82.5532055409711,4,1,0,80,0,0
3118,-80.0990665254787,4,1,0,80,0,0
3929,-125,4,1,0,80,0,0
9037,-121.212121212121,4,1,0,80,0,0
9118,-117.647058823529,4,1,0,80,0,0
9280,-116.363636363636,4,1,0,80,0,0
9442,-115.107913669065,4,1,0,80,0,0
9523,-114.490095461842,4,1,0,80,0,0
9604,-113.879003558719,4,1,0,80,0,0
9685,-113.274400438598,4,1,0,80,0,0
9767,-112.676056338028,4,1,0,80,0,0
9929,-111.498257839721,4,1,0,80,0,0
10091,-110.344827586207,4,1,0,80,0,0
10253,-109.215017064846,4,1,0,80,0,0
10334,-108.658802666922,4,1,0,80,0,0
10415,-108.108108108108,4,1,0,80,0,0
10577,-107.023411371237,4,1,0,80,0,0
10739,-105.960264900662,4,1,0,80,0,0
10821,-105.436517727042,4,1,0,80,0,0
10902,-104.918032786885,4,1,0,80,0,0
10983,-104.404622201434,4,1,0,80,0,0
11064,-103.896103896104,4,1,0,80,0,0
11145,-103.392515209039,4,1,0,80,0,0
11226,-102.893890675241,4,1,0,80,0,0
11388,-101.910828025478,4,1,0,80,0,0
11550,-100.946372239748,4,1,0,80,0,0
11712,-95.2380952380952,4,1,0,80,0,0
12037,-92.3273225168797,4,1,0,80,0,0
12361,-89.5891174307275,4,1,0,80,0,0
12685,-87.0087269753156,4,1,0,80,0,0
13658,-133.333333333333,4,1,0,80,0,0
14145,-100,4,1,0,80,0,0
14307,-80,4,1,0,80,0,0
14631,-100,4,1,0,80,0,0
19496,-80,4,1,0,80,0,0
19821,-100,4,1,0,80,0,0
24037,-133.333333333333,4,1,0,80,0,0
24685,-79.9999999999999,4,1,0,80,0,0
25010,-100,4,1,0,80,0,0
26631,-80,4,1,0,80,0,0
26956,-88.8888888888889,4,1,0,80,0,0
27280,-100,4,1,0,80,0,0
28577,-80,4,1,0,80,0,0
28685,-83.2625601571997,4,1,0,80,0,0
28794,-86.8024662316706,4,1,0,80,0,0
28902,-90.6568177099906,4,1,0,80,0,0
29226,-80,4,1,0,80,0,0
29334,-83.2625601571997,4,1,0,80,0,0
29442,-86.8024662316706,4,1,0,80,0,0
29550,-90.6568177099906,4,1,0,80,0,0
29875,-80,4,1,0,80,0,0
30037,-86.9565217391304,4,1,0,80,0,0
30199,-95.2380952380952,4,1,0,80,0,0
32469,-90.9090909090909,4,1,0,80,0,0
32794,-89.5614355623383,4,1,0,80,0,0
33118,-88.2532302888616,4,1,0,80,0,0
33442,-86.9826165240877,4,1,0,80,0,0
34253,-90.9090909090909,4,1,0,80,0,0
34334,-92.3077207100679,4,1,0,80,0,0
34415,-93.7499707031342,4,1,0,80,0,0
34496,-95.2380952380952,4,1,0,80,0,0
34577,-96.774224765879,4,1,0,80,0,0
34658,-98.3606234883202,4,1,0,80,0,0
34739,-100,4,1,0,80,0,0
34902,-107.412308591266,4,1,0,80,0,0
34983,-109.156482366862,4,1,0,80,0,0
35064,-110.958235320225,4,1,0,80,0,0
44469,-105.263157894737,4,1,0,80,0,0
45442,-80,4,1,0,80,0,0
45767,-84.2105263157895,4,1,0,80,0,0
46091,-88.8888888888889,4,1,0,80,0,0
46253,-91.4285714285714,4,1,0,80,0,0
46577,-96.969696969697,4,1,0,80,0,0
46739,-100,4,1,0,80,0,0
48037,-80,4,1,0,80,0,0
48361,-84.2105263157895,4,1,0,80,0,0
48685,-88.8888888888889,4,1,0,80,0,0
48848,-91.4285714285714,4,1,0,80,0,0
49172,-96.969696969697,4,1,0,80,0,0
49334,-100,4,1,0,80,0,0
50631,-80,4,1,0,80,0,0
50794,-82.0403769919403,4,1,0,80,0,0
50956,-84.1875564056628,4,1,0,80,0,0
51118,-86.4501493858581,4,1,0,80,0,0
51280,-88.8377183631117,4,1,0,80,0,0
51442,-91.3609121473469,4,1,0,80,0,0
51767,-96.8632765165641,4,1,0,80,0,0
51929,-99.8706674856061,4,1,0,80,0,0
53550,-94.1176470588235,4,1,0,80,0,0
53712,-91.4285714285714,4,1,0,80,0,0
54037,-86.4864864864865,4,1,0,80,0,0
54199,-84.2105263157895,4,1,0,80,0,0
54523,-100,4,1,0,80,0,0
55496,-125,4,1,0,80,0,0
55821,-100,4,1,0,80,0,0
57118,-97.5609756097561,4,1,0,80,0,0
58415,-95.2380952380952,4,1,0,80,0,0
59712,-93.0232558139535,4,1,0,80,0,0
61010,-90.9090909090909,4,1,0,80,0,0
61658,-88.8888888888889,4,1,0,80,0,0
62307,-86.9565217391304,4,1,0,80,0,0
62956,-85.1063829787234,4,1,0,80,0,0
63604,-83.3333333333333,4,1,0,80,0,0
65875,-111.111111111111,4,1,0,80,0,0
66037,-105.263157894737,4,1,0,80,0,0
66199,-100,4,1,0,80,0,1
70739,-100,4,1,0,80,0,0
70902,-102.564102564103,4,1,0,80,0,0
71226,-108.108108108108,4,1,0,80,0,0
71388,-100,4,1,0,80,0,1
73658,-90.9090909090909,4,1,0,80,0,1
73739,-92.4690436759034,4,1,0,80,0,1
73821,-94.0833785717579,4,1,0,80,0,1
73902,-95.7551731732307,4,1,0,80,0,1
73983,-97.4874558016247,4,1,0,80,0,1
74307,-105.092134274118,4,1,0,80,0,1
74469,-80,4,1,0,80,0,1
74712,-85.0320613387278,4,1,0,80,0,1
74956,-90.9090909090909,4,1,0,80,0,1
75280,-83.3333333333333,4,1,0,80,0,1
75523,-88.8078172193029,4,1,0,80,0,1
75767,-95.0520647684769,4,1,0,80,0,1
76091,-105.263157894737,4,1,0,80,0,0
76253,-101.694949727102,4,1,0,80,0,0
76334,-100,4,1,0,80,0,0
76415,-98.3606234883202,4,1,0,80,0,0
76577,-95.2380952380952,4,1,0,80,0,1
80631,-80,4,1,0,80,0,1
80875,-85.0320613387278,4,1,0,80,0,1
81118,-90.7395728888304,4,1,0,80,0,1
81442,-105.263157894737,4,1,0,80,0,1
81604,-100,4,1,0,80,0,1
81767,-95.2380952380952,4,1,0,80,0,1
84253,-94.861630083279,4,1,0,80,0,1
84307,-94.4882187364469,4,1,0,80,0,1
84361,-94.1176470588235,4,1,0,80,0,1
84442,-93.5672514619883,4,1,0,80,0,1
84523,-93.0232558139535,4,1,0,80,0,1
84604,-92.485549132948,4,1,0,80,0,1
84685,-91.9540229885058,4,1,0,80,0,1
84739,-91.6030254647251,4,1,0,80,0,1
84794,-91.2547806098192,4,1,0,80,0,1
84848,-90.9090909090909,4,1,0,80,0,1
84929,-90.3954802259887,4,1,0,80,0,1
85010,-89.8876404494382,4,1,0,80,0,1
85091,-89.3854748603352,4,1,0,80,0,1
85145,-89.0537769042592,4,1,0,80,0,1
85199,-88.7246103436925,4,1,0,80,0,1
85253,-88.3977900552486,4,1,0,80,0,1
85334,-87.9120879120879,4,1,0,80,0,1
85388,-87.591215301835,4,1,0,80,0,1
85442,-87.2727526611644,4,1,0,80,0,1
85496,-86.9565217391304,4,1,0,80,0,1
85658,-95.2380952380952,4,1,0,80,0,0
86631,-100,4,1,0,80,0,0
86794,-88.8888888888889,4,1,0,80,0,0
86956,-80,4,1,0,80,0,0
87280,-90.9090909090909,4,1,0,80,0,1
96037,-80,4,1,0,80,0,1
96280,-85.1063829787234,4,1,0,80,0,1
96523,-90.9090909090909,4,1,0,80,0,1
96848,-100,4,1,0,80,0,1
97010,-95.2380952380952,4,1,0,80,0,1
97091,-93.0232558139535,4,1,0,80,0,1
97172,-90.9090909090909,4,1,0,80,0,1
97334,-80,4,1,0,80,0,0
97658,-90.9090909090909,4,1,0,80,0,1
99929,-80,4,1,0,80,0,0
100253,-90.9090909090909,4,1,0,80,0,1
102415,-89.5522120739665,4,1,0,80,0,1
102469,-88.2353200692118,4,1,0,80,0,1
102523,-86.9565217391304,4,1,0,80,0,1
103658,-83.3333333333333,4,1,0,80,0,1
104631,-80,4,1,0,80,0,1
105280,-82.0512820512821,4,1,0,80,0,1
105442,-84.2105263157895,4,1,0,80,0,1
105604,-86.4864864864865,4,1,0,80,0,1
105767,-88.8888888888889,4,1,0,80,0,1
105848,-90.1408450704225,4,1,0,80,0,1
105929,-91.4285714285714,4,1,0,80,0,1
106010,-92.7536231884058,4,1,0,80,0,1
106091,-94.1176470588235,4,1,0,80,0,1
106172,-95.5223880597015,4,1,0,80,0,1
106253,-96.969696969697,4,1,0,80,0,1
106334,-98.4615384615385,4,1,0,80,0,1
106415,-100,4,1,0,80,0,0
107388,-125,4,1,0,80,0,0
107712,-100,4,1,0,80,0,0
109010,-133.333333333333,4,1,0,80,0,0
110307,-100,4,1,0,80,0,0
111929,-90.9090909090909,4,1,0,80,0,0

[HitObjects]
256,192,1334,5,4,0:0:0:0:
256,192,1821,1,8,0:0:0:0:
256,192,1902,1,8,0:0:0:0:
256,192,1983,1,0,0:0:0:0:
256,192,2145,1,8,0:0:0:0:
256,192,2469,1,4,0:0:0:0:
256,192,2794,1,12,0:0:0:0:
256,192,2956,1,12,0:0:0:0:
256,192,3118,1,4,0:0:0:0:
256,192,3929,1,8,0:0:0:0:
256,192,4253,1,8,0:0:0:0:
256,192,4577,1,0,0:0:0:0:
256,192,4739,1,8,0:0:0:0:
256,192,5064,1,0,0:0:0:0:
256,192,5388,1,0,0:0:0:0:
256,192,5712,1,0,0:0:0:0:
256,192,5875,1,0,0:0:0:0:
256,192,6199,1,0,0:0:0:0:
256,192,6523,1,8,0:0:0:0:
256,192,6848,1,8,0:0:0:0:
256,192,7172,1,0,0:0:0:0:
256,192,7334,1,8,0:0:0:0:
256,192,7658,1,0,0:0:0:0:
256,192,7983,1,8,0:0:0:0:
256,192,8145,1,0,0:0:0:0:
256,192,8307,1,8,0:0:0:0:
256,192,8469,1,8,0:0:0:0:
256,192,8631,1,0,0:0:0:0:
256,192,8794,1,8,0:0:0:0:
256,192,8956,1,0,0:0:0:0:
256,192,9037,1,0,0:0:0:0:
256,192,9118,1,8,0:0:0:0:
256,192,9280,1,0,0:0:0:0:
256,192,9442,1,8,0:0:0:0:
256,192,9523,1,8,0:0:0:0:
256,192,9604,1,0,0:0:0:0:
256,192,9685,1,0,0:0:0:0:
256,192,9767,1,8,0:0:0:0:
256,192,9929,1,8,0:0:0:0:
256,192,10091,1,0,0:0:0:0:
256,192,10253,1,8,0:0:0:0:
256,192,10334,1,8,0:0:0:0:
256,192,10415,1,0,0:0:0:0:
256,192,10577,1,8,0:0:0:0:
256,192,10739,1,0,0:0:0:0:
256,192,10821,1,0,0:0:0:0:
256,192,10902,1,8,0:0:0:0:
256,192,10983,1,0,0:0:0:0:
256,192,11064,1,8,0:0:0:0:
256,192,11145,1,8,0:0:0:0:
256,192,11226,1,0,0:0:0:0:
256,192,11388,1,8,0:0:0:0:
256,192,11550,1,0,0:0:0:0:
256,192,11712,1,8,0:0:0:0:
256,192,11767,1,8,0:0:0:0:
256,192,11821,1,8,0:0:0:0:
256,192,11875,1,0,0:0:0:0:
256,192,12037,1,8,0:0:0:0:
256,192,12091,1,0,0:0:0:0:
256,192,12145,1,0,0:0:0:0:
256,192,12199,1,8,0:0:0:0:
256,192,12361,1,0,0:0:0:0:
256,192,12415,1,0,0:0:0:0:
256,192,12469,1,0,0:0:0:0:
256,192,12523,1,8,0:0:0:0:
256,192,12685,1,8,0:0:0:0:
256,192,12739,1,8,0:0:0:0:
256,192,12794,1,8,0:0:0:0:
256,192,12848,1,8,0:0:0:0:
256,192,12902,1,8,0:0:0:0:
256,192,12956,1,8,0:0:0:0:
256,192,13010,1,0,0:0:0:0:
256,192,13658,8,0,13983,0:0:0:0:
256,192,14145,5,0,0:0:0:0:
256,192,14307,1,12,0:0:0:0:
256,192,14631,1,0,0:0:0:0:
256,192,14794,1,8,0:0:0:0:
256,192,14956,1,0,0:0:0:0:
256,192,15118,1,8,0:0:0:0:
256,192,15199,1,8,0:0:0:0:
256,192,15280,1,0,0:0:0:0:
256,192,15523,1,8,0:0:0:0:
256,192,15604,1,0,0:0:0:0:
256,192,15767,1,8,0:0:0:0:
256,192,15929,1,0,0:0:0:0:
256,192,16010,1,0,0:0:0:0:
256,192,16091,1,8,0:0:0:0:
256,192,16172,1,8,0:0:0:0:
256,192,16253,1,0,0:0:0:0:
256,192,16415,1,8,0:0:0:0:
256,192,16577,1,0,0:0:0:0:
256,192,16658,1,0,0:0:0:0:
256,192,16739,1,8,0:0:0:0:
256,192,16902,1,0,0:0:0:0:
256,192,17064,1,8,0:0:0:0:
256,192,17226,1,0,0:0:0:0:
256,192,17307,1,8,0:0:0:0:
256,192,17388,1,8,0:0:0:0:
256,192,17550,1,0,0:0:0:0:
256,192,17712,1,8,0:0:0:0:
256,192,17794,1,8,0:0:0:0:
256,192,17875,1,0,0:0:0:0:
256,192,18037,1,0,0:0:0:0:
256,192,18118,1,0,0:0:0:0:
256,192,18199,1,8,0:0:0:0:
256,192,18442,1,8,0:0:0:0:
256,192,18685,1,8,0:0:0:0:
256,192,18848,1,0,0:0:0:0:
256,192,19010,1,0,0:0:0:0:
256,192,19172,1,0,0:0:0:0:
256,192,19496,1,12,0:0:0:0:
256,192,19821,1,0,0:0:0:0:
256,192,19983,1,8,0:0:0:0:
256,192,20145,1,0,0:0:0:0:
256,192,20226,1,0,0:0:0:0:
256,192,20307,1,8,0:0:0:0:
256,192,20388,1,8,0:0:0:0:
256,192,20469,1,0,0:0:0:0:
256,192,20712,1,8,0:0:0:0:
256,192,20794,1,0,0:0:0:0:
256,192,20956,1,8,0:0:0:0:
256,192,21118,1,0,0:0:0:0:
256,192,21199,1,0,0:0:0:0:
256,192,21280,1,8,0:0:0:0:
256,192,21442,1,0,0:0:0:0:
256,192,21604,1,8,0:0:0:0:
256,192,21685,1,8,0:0:0:0:
256,192,21767,1,0,0:0:0:0:
256,192,21848,1,0,0:0:0:0:
256,192,21929,1,8,0:0:0:0:
256,192,22091,1,0,0:0:0:0:
256,192,22253,1,8,0:0:0:0:
256,192,22415,1,0,0:0:0:0:
256,192,22577,1,8,0:0:0:0:
256,192,22739,1,0,0:0:0:0:
256,192,22902,1,8,0:0:0:0:
256,192,22983,1,8,0:0:0:0:
256,192,23064,1,0,0:0:0:0:
256,192,23226,1,8,0:0:0:0:
256,192,24037,8,0,24361,0:0:0:0:
256,192,24685,5,12,0:0:0:0:
256,192,25010,1,0,0:0:0:0:
256,192,25172,1,8,0:0:0:0:
256,192,25334,1,0,0:0:0:0:
256,192,25496,1,8,0:0:0:0:
256,192,25577,1,8,0:0:0:0:
256,192,25658,1,0,0:0:0:0:
256,192,25902,1,8,0:0:0:0:
256,192,25983,1,0,0:0:0:0:
256,192,26064,1,0,0:0:0:0:
256,192,26145,1,8,0:0:0:0:
256,192,26307,1,0,0:0:0:0:
256,192,26469,1,8,0:0:0:0:
256,192,26631,1,4,0:0:0:0:
256,192,26956,1,12,0:0:0:0:
256,192,27280,1,0,0:0:0:0:
256,192,27442,1,8,0:0:0:0:
256,192,27604,1,0,0:0:0:0:
256,192,27685,1,0,0:0:0:0:
256,192,27767,1,8,0:0:0:0:
256,192,27848,1,8,0:0:0:0:
256,192,27929,1,0,0:0:0:0:
256,192,28091,1,8,0:0:0:0:
256,192,28253,1,0,0:0:0:0:
256,192,28334,1,0,0:0:0:0:
256,192,28415,1,8,0:0:0:0:
256,192,28577,1,4,0:0:0:0:
256,192,28685,1,4,0:0:0:0:
256,192,28794,1,4,0:0:0:0:
256,192,28902,1,12,0:0:0:0:
256,192,29226,1,4,0:0:0:0:
256,192,29334,1,4,0:0:0:0:
256,192,29442,1,4,0:0:0:0:
256,192,29550,1,12,0:0:0:0:
256,192,29875,1,12,0:0:0:0:
256,192,30037,1,0,0:0:0:0:
256,192,30199,1,8,0:0:0:0:
256,192,30280,1,0,0:0:0:0:
256,192,30361,1,8,0:0:0:0:
256,192,30442,1,8,0:0:0:0:
256,192,30523,1,0,0:0:0:0:
256,192,30685,1,8,0:0:0:0:
256,192,30767,1,8,0:0:0:0:
256,192,30848,1,0,0:0:0:0:
256,192,30929,1,0,0:0:0:0:
256,192,31091,1,8,0:0:0:0:
256,192,31172,1,0,0:0:0:0:
256,192,31226,1,0,0:0:0:0:
256,192,31280,1,0,0:0:0:0:
256,192,31334,1,8,0:0:0:0:
256,192,31496,1,0,0:0:0:0:
256,192,31577,1,0,0:0:0:0:
256,192,31658,1,8,0:0:0:0:
256,192,31739,1,8,0:0:0:0:
256,192,31983,1,8,0:0:0:0:
256,192,32064,1,8,0:0:0:0:
256,192,32145,1,0,0:0:0:0:
256,192,32226,1,0,0:0:0:0:
256,192,32307,1,8,0:0:0:0:
256,192,32469,1,0,0:0:0:0:
256,192,32523,1,0,0:0:0:0:
256,192,32577,1,0,0:0:0:0:
256,192,32631,1,8,0:0:0:0:
256,192,32712,1,8,0:0:0:0:
256,192,32794,1,0,0:0:0:0:
256,192,32848,1,0,0:0:0:0:
256,192,32902,1,0,0:0:0:0:
256,192,32956,1,8,0:0:0:0:
256,192,33037,1,8,0:0:0:0:
256,192,33118,1,0,0:0:0:0:
256,192,33172,1,0,0:0:0:0:
256,192,33226,1,0,0:0:0:0:
256,192,33280,1,8,0:0:0:0:
256,192,33361,1,8,0:0:0:0:
256,192,33442,1,0,0:0:0:0:
256,192,33496,1,0,0:0:0:0:
256,192,33550,1,0,0:0:0:0:
256,192,33604,1,8,0:0:0:0:
256,192,33685,1,8,0:0:0:0:
256,192,33767,1,0,0:0:0:0:
256,192,34253,1,0,0:0:0:0:
256,192,34334,1,0,0:0:0:0:
256,192,34415,1,8,0:0:0:0:
256,192,34496,1,0,0:0:0:0:
256,192,34577,1,8,0:0:0:0:
256,192,34658,1,8,0:0:0:0:
256,192,34739,1,0,0:0:0:0:
256,192,34902,1,0,0:0:0:0:
256,192,34983,1,0,0:0:0:0:
256,192,35064,1,8,0:0:0:0:
256,192,35388,1,8,0:0:0:0:
256,192,35550,1,0,0:0:0:0:
256,192,35712,1,8,0:0:0:0:
256,192,35875,1,8,0:0:0:0:
256,192,36199,1,0,0:0:0:0:
256,192,36523,1,8,0:0:0:0:
256,192,36848,1,0,0:0:0:0:
256,192,37010,1,8,0:0:0:0:
256,192,37334,1,0,0:0:0:0:
256,192,37496,1,0,0:0:0:0:
256,192,37658,1,8,0:0:0:0:
256,192,37983,1,8,0:0:0:0:
256,192,38145,1,0,0:0:0:0:
256,192,38307,1,8,0:0:0:0:
256,192,38469,1,8,0:0:0:0:
256,192,38794,1,0,0:0:0:0:
256,192,39118,1,8,0:0:0:0:
256,192,39442,1,8,0:0:0:0:
256,192,39604,1,0,0:0:0:0:
256,192,39929,1,0,0:0:0:0:
256,192,40253,1,8,0:0:0:0:
256,192,40415,1,0,0:0:0:0:
256,192,40577,1,8,0:0:0:0:
256,192,40739,1,0,0:0:0:0:
256,192,40902,1,8,0:0:0:0:
256,192,41064,1,8,0:0:0:0:
256,192,41388,1,0,0:0:0:0:
256,192,41712,1,8,0:0:0:0:
256,192,41875,1,0,0:0:0:0:
256,192,42037,1,8,0:0:0:0:
256,192,42199,1,8,0:0:0:0:
256,192,42523,1,0,0:0:0:0:
256,192,42848,1,8,0:0:0:0:
256,192,43010,1,0,0:0:0:0:
256,192,43172,1,8,0:0:0:0:
256,192,43334,1,8,0:0:0:0:
256,192,43496,1,0,0:0:0:0:
256,192,43658,1,8,0:0:0:0:
256,192,43821,1,8,0:0:0:0:
256,192,44145,1,8,0:0:0:0:
256,192,44307,1,0,0:0:0:0:
256,192,44469,8,0,44794,0:0:0:0:
256,192,45118,5,0,0:0:0:0:
256,192,45442,1,12,0:0:0:0:
256,192,45767,1,4,0:0:0:0:
256,192,46091,1,12,0:0:0:0:
256,192,46253,1,12,0:0:0:0:
256,192,46577,1,4,0:0:0:0:
256,192,48037,1,12,0:0:0:0:
256,192,48361,1,4,0:0:0:0:
256,192,48685,1,12,0:0:0:0:
256,192,48848,1,12,0:0:0:0:
256,192,49172,1,4,0:0:0:0:
256,192,50631,1,12,0:0:0:0:
256,192,50794,1,0,0:0:0:0:
256,192,50956,1,12,0:0:0:0:
256,192,51118,1,0,0:0:0:0:
256,192,51280,1,12,0:0:0:0:
256,192,51442,1,12,0:0:0:0:
256,192,51767,1,4,0:0:0:0:
256,192,53226,1,4,0:0:0:0:
256,192,53550,1,4,0:0:0:0:
256,192,53712,1,12,0:0:0:0:
256,192,54037,1,12,0:0:0:0:
256,192,54199,1,12,0:0:0:0:
256,192,54523,1,0,0:0:0:0:
256,192,55496,1,0,0:0:0:0:
256,192,55821,1,8,0:0:0:0:
256,192,55983,1,0,0:0:0:0:
256,192,56145,1,8,0:0:0:0:
256,192,56307,1,8,0:0:0:0:
256,192,56469,1,0,0:0:0:0:
256,192,56631,1,8,0:0:0:0:
256,192,56712,1,0,0:0:0:0:
256,192,56794,1,8,0:0:0:0:
256,192,56956,1,0,0:0:0:0:
256,192,57118,1,8,0:0:0:0:
256,192,57280,1,0,0:0:0:0:
256,192,57442,1,8,0:0:0:0:
256,192,57604,1,8,0:0:0:0:
256,192,57767,1,0,0:0:0:0:
256,192,57848,1,0,0:0:0:0:
256,192,57929,1,8,0:0:0:0:
256,192,58010,1,0,0:0:0:0:
256,192,58091,1,8,0:0:0:0:
256,192,58253,1,0,0:0:0:0:
256,192,58415,1,8,0:0:0:0:
256,192,58469,1,8,0:0:0:0:
256,192,58523,1,8,0:0:0:0:
256,192,58577,1,0,0:0:0:0:
256,192,58739,1,8,0:0:0:0:
256,192,58902,1,8,0:0:0:0:
256,192,58983,1,8,0:0:0:0:
256,192,59064,1,0,0:0:0:0:
256,192,59226,1,8,0:0:0:0:
256,192,59307,1,0,0:0:0:0:
256,192,59388,1,8,0:0:0:0:
256,192,59469,1,8,0:0:0:0:
256,192,59550,1,0,0:0:0:0:
256,192,59712,1,8,0:0:0:0:
256,192,59875,1,0,0:0:0:0:
256,192,60037,1,8,0:0:0:0:
256,192,60118,1,0,0:0:0:0:
256,192,60199,1,8,0:0:0:0:
256,192,60361,1,0,0:0:0:0:
256,192,60442,1,8,0:0:0:0:
256,192,60523,1,8,0:0:0:0:
256,192,60604,1,0,0:0:0:0:
256,192,60685,1,8,0:0:0:0:
256,192,60848,1,0,0:0:0:0:
256,192,61010,1,8,0:0:0:0:
256,192,61064,1,8,0:0:0:0:
256,192,61118,1,8,0:0:0:0:
256,192,61172,1,0,0:0:0:0:
256,192,61253,1,0,0:0:0:0:
256,192,61334,1,8,0:0:0:0:
256,192,61415,1,0,0:0:0:0:
256,192,61496,1,8,0:0:0:0:
256,192,61577,1,8,0:0:0:0:
256,192,61658,1,0,0:0:0:0:
256,192,61712,1,0,0:0:0:0:
256,192,61767,1,0,0:0:0:0:
256,192,61821,1,8,0:0:0:0:
256,192,61902,1,0,0:0:0:0:
256,192,61983,1,8,0:0:0:0:
256,192,62064,1,8,0:0:0:0:
256,192,62145,1,0,0:0:0:0:
256,192,62226,1,0,0:0:0:0:
256,192,62307,1,8,0:0:0:0:
256,192,62361,1,8,0:0:0:0:
256,192,62415,1,8,0:0:0:0:
256,192,62469,1,0,0:0:0:0:
256,192,62550,1,0,0:0:0:0:
256,192,62631,1,8,0:0:0:0:
256,192,62685,1,0,0:0:0:0:
256,192,62739,1,0,0:0:0:0:
256,192,62794,1,8,0:0:0:0:
256,192,62875,1,8,0:0:0:0:
256,192,62956,1,0,0:0:0:0:
256,192,63010,1,0,0:0:0:0:
256,192,63064,1,0,0:0:0:0:
256,192,63118,1,8,0:0:0:0:
256,192,63199,1,0,0:0:0:0:
256,192,63280,1,8,0:0:0:0:
256,192,63334,1,8,0:0:0:0:
256,192,63388,1,8,0:0:0:0:
256,192,63442,1,0,0:0:0:0:
256,192,63523,1,0,0:0:0:0:
256,192,63604,1,8,0:0:0:0:
256,192,63658,1,8,0:0:0:0:
256,192,63712,1,0,0:0:0:0:
256,192,63767,1,0,0:0:0:0:
256,192,63848,1,8,0:0:0:0:
256,192,63902,1,8,0:0:0:0:
256,192,63956,1,0,0:0:0:0:
256,192,64010,1,0,0:0:0:0:
256,192,64091,1,8,0:0:0:0:
256,192,64145,1,8,0:0:0:0:
256,192,64199,1,8,0:0:0:0:
256,192,64253,1,0,0:0:0:0:
256,192,64334,1,8,0:0:0:0:
256,192,64388,1,8,0:0:0:0:
256,192,64442,1,8,0:0:0:0:
256,192,64496,1,0,0:0:0:0:
256,192,64577,1,8,0:0:0:0:
256,192,64631,1,0,0:0:0:0:
256,192,64685,1,0,0:0:0:0:
256,192,64739,1,8,0:0:0:0:
256,192,65875,1,0,0:0:0:0:
256,192,66037,1,0,0:0:0:0:
256,192,66199,1,12,0:0:0:0:
256,192,66361,1,0,0:0:0:0:
256,192,66523,1,8,0:0:0:0:
256,192,66604,1,8,0:0:0:0:
256,192,66685,1,0,0:0:0:0:
256,192,66767,1,8,0:0:0:0:
256,192,66929,1,0,0:0:0:0:
256,192,67010,1,8,0:0:0:0:
256,192,67172,1,0,0:0:0:0:
256,192,67253,1,0,0:0:0:0:
256,192,67334,1,8,0:0:0:0:
256,192,67496,1,0,0:0:0:0:
256,192,67658,1,8,0:0:0:0:
256,192,67739,1,8,0:0:0:0:
256,192,67821,1,0,0:0:0:0:
256,192,67902,1,8,0:0:0:0:
256,192,67983,1,0,0:0:0:0:
256,192,68145,1,8,0:0:0:0:
256,192,68307,1,0,0:0:0:0:
256,192,68388,1,8,0:0:0:0:
256,192,68469,1,8,0:0:0:0:
256,192,68631,1,0,0:0:0:0:
256,192,68794,1,8,0:0:0:0:
256,192,68956,1,0,0:0:0:0:
256,192,69118,1,8,0:0:0:0:
256,192,69199,1,8,0:0:0:0:
256,192,69280,1,0,0:0:0:0:
256,192,69361,1,8,0:0:0:0:
256,192,69523,1,0,0:0:0:0:
256,192,69604,1,8,0:0:0:0:
256,192,69767,1,0,0:0:0:0:
256,192,69929,1,8,0:0:0:0:
256,192,70010,1,8,0:0:0:0:
256,192,70091,1,0,0:0:0:0:
256,192,70253,1,8,0:0:0:0:
256,192,70415,1,0,0:0:0:0:
256,192,70496,1,8,0:0:0:0:
256,192,70577,1,8,0:0:0:0:
256,192,70658,1,0,0:0:0:0:
256,192,70739,1,8,0:0:0:0:
256,192,70902,1,0,0:0:0:0:
256,192,71226,1,0,0:0:0:0:
256,192,71388,1,8,0:0:0:0:
256,192,71550,1,0,0:0:0:0:
256,192,71712,1,8,0:0:0:0:
256,192,71794,1,8,0:0:0:0:
256,192,71875,1,0,0:0:0:0:
256,192,71956,1,8,0:0:0:0:
256,192,72118,1,0,0:0:0:0:
256,192,72199,1,8,0:0:0:0:
256,192,72361,1,0,0:0:0:0:
256,192,72442,1,0,0:0:0:0:
256,192,72523,1,8,0:0:0:0:
256,192,72604,1,8,0:0:0:0:
256,192,72685,1,0,0:0:0:0:
256,192,72848,1,8,0:0:0:0:
256,192,73010,1,0,0:0:0:0:
256,192,73091,1,8,0:0:0:0:
256,192,73172,1,0,0:0:0:0:
256,192,73253,1,0,0:0:0:0:
256,192,73334,1,8,0:0:0:0:
256,192,73496,1,0,0:0:0:0:
256,192,73658,1,8,0:0:0:0:
256,192,73739,1,8,0:0:0:0:
256,192,73821,1,8,0:0:0:0:
256,192,73902,1,8,0:0:0:0:
256,192,73983,1,0,0:0:0:0:
256,192,74307,1,0,0:0:0:0:
256,192,74469,1,12,0:0:0:0:
256,192,74712,1,12,0:0:0:0:
256,192,74956,1,4,0:0:0:0:
256,192,75280,1,4,0:0:0:0:
256,192,75523,1,4,0:0:0:0:
256,192,75767,1,12,0:0:0:0:
256,192,76091,1,0,0:0:0:0:
256,192,76253,1,8,0:0:0:0:
256,192,76334,1,8,0:0:0:0:
256,192,76415,1,0,0:0:0:0:
256,192,76577,1,12,0:0:0:0:
256,192,76739,1,0,0:0:0:0:
256,192,76902,1,8,0:0:0:0:
256,192,76983,1,8,0:0:0:0:
256,192,77064,1,0,0:0:0:0:
256,192,77145,1,8,0:0:0:0:
256,192,77226,1,0,0:0:0:0:
256,192,77307,1,0,0:0:0:0:
256,192,77388,1,8,0:0:0:0:
256,192,77550,1,0,0:0:0:0:
256,192,77712,1,8,0:0:0:0:
256,192,77794,1,0,0:0:0:0:
256,192,77875,1,0,0:0:0:0:
256,192,78037,1,8,0:0:0:0:
256,192,78199,1,0,0:0:0:0:
256,192,78280,1,8,0:0:0:0:
256,192,78361,1,0,0:0:0:0:
256,192,78442,1,0,0:0:0:0:
256,192,78523,1,8,0:0:0:0:
256,192,78604,1,8,0:0:0:0:
256,192,78685,1,0,0:0:0:0:
256,192,78848,1,8,0:0:0:0:
256,192,79010,1,0,0:0:0:0:
256,192,79172,1,8,0:0:0:0:
256,192,79253,1,8,0:0:0:0:
256,192,79334,1,0,0:0:0:0:
256,192,79496,1,8,0:0:0:0:
256,192,79577,1,0,0:0:0:0:
256,192,79658,1,0,0:0:0:0:
256,192,79739,1,8,0:0:0:0:
256,192,79821,1,0,0:0:0:0:
256,192,79902,1,0,0:0:0:0:
256,192,79983,1,8,0:0:0:0:
256,192,80145,1,0,0:0:0:0:
256,192,80307,1,8,0:0:0:0:
256,192,80361,1,8,0:0:0:0:
256,192,80415,1,8,0:0:0:0:
256,192,80469,1,0,0:0:0:0:
256,192,80631,1,12,0:0:0:0:
256,192,80875,1,12,0:0:0:0:
256,192,81118,1,4,0:0:0:0:
256,192,81442,1,8,0:0:0:0:
256,192,81604,1,0,0:0:0:0:
256,192,81767,1,8,0:0:0:0:
256,192,81929,1,0,0:0:0:0:
256,192,82010,1,0,0:0:0:0:
256,192,82091,1,8,0:0:0:0:
256,192,82172,1,0,0:0:0:0:
256,192,82253,1,0,0:0:0:0:
256,192,82334,1,8,0:0:0:0:
256,192,82415,1,8,0:0:0:0:
256,192,82496,1,0,0:0:0:0:
256,192,82577,1,8,0:0:0:0:
256,192,82739,1,0,0:0:0:0:
256,192,82902,1,8,0:0:0:0:
256,192,83064,1,0,0:0:0:0:
256,192,83226,1,8,0:0:0:0:
256,192,83307,1,8,0:0:0:0:
256,192,83388,1,0,0:0:0:0:
256,192,83469,1,8,0:0:0:0:
256,192,83550,1,0,0:0:0:0:
256,192,83631,1,0,0:0:0:0:
256,192,83712,1,8,0:0:0:0:
256,192,83956,1,0,0:0:0:0:
256,192,84037,1,8,0:0:0:0:
256,192,84118,1,8,0:0:0:0:
256,192,84199,1,0,0:0:0:0:
256,192,84253,1,0,0:0:0:0:
256,192,84307,1,0,0:0:0:0:
256,192,84361,1,8,0:0:0:0:
256,192,84442,1,0,0:0:0:0:
256,192,84523,1,0,0:0:0:0:
256,192,84604,1,0,0:0:0:0:
256,192,84685,1,8,0:0:0:0:
256,192,84739,1,0,0:0:0:0:
256,192,84794,1,0,0:0:0:0:
256,192,84848,1,8,0:0:0:0:
256,192,84929,1,0,0:0:0:0:
256,192,85010,1,0,0:0:0:0:
256,192,85091,1,8,0:0:0:0:
256,192,85145,1,8,0:0:0:0:
256,192,85199,1,0,0:0:0:0:
256,192,85253,1,0,0:0:0:0:
256,192,85334,1,8,0:0:0:0:
256,192,85388,1,8,0:0:0:0:
256,192,85442,1,8,0:0:0:0:
256,192,85496,1,0,0:0:0:0:
256,192,86631,1,0,0:0:0:0:
256,192,86794,1,0,0:0:0:0:
256,192,86956,1,12,0:0:0:0:
256,192,87280,1,8,0:0:0:0:
256,192,87361,1,8,0:0:0:0:
256,192,87442,1,0,0:0:0:0:
256,192,87523,1,0,0:0:0:0:
256,192,87604,1,8,0:0:0:0:
256,192,87685,1,0,0:0:0:0:
256,192,87767,1,0,0:0:0:0:
256,192,87848,1,8,0:0:0:0:
256,192,87929,1,0,0:0:0:0:
256,192,88010,1,0,0:0:0:0:
256,192,88091,1,8,0:0:0:0:
256,192,88253,1,8,0:0:0:0:
256,192,88334,1,0,0:0:0:0:
256,192,88415,1,8,0:0:0:0:
256,192,88496,1,8,0:0:0:0:
256,192,88577,1,0,0:0:0:0:
256,192,88739,1,8,0:0:0:0:
256,192,88821,1,0,0:0:0:0:
256,192,88902,1,0,0:0:0:0:
256,192,88983,1,8,0:0:0:0:
256,192,89064,1,0,0:0:0:0:
256,192,89145,1,0,0:0:0:0:
256,192,89226,1,8,0:0:0:0:
256,192,89307,1,8,0:0:0:0:
256,192,89388,1,0,0:0:0:0:
256,192,89469,1,0,0:0:0:0:
256,192,89550,1,8,0:0:0:0:
256,192,89712,1,0,0:0:0:0:
256,192,89875,1,8,0:0:0:0:
256,192,89956,1,8,0:0:0:0:
256,192,90037,1,0,0:0:0:0:
256,192,90118,1,0,0:0:0:0:
256,192,90199,1,8,0:0:0:0:
256,192,90280,1,0,0:0:0:0:
256,192,90361,1,0,0:0:0:0:
256,192,90442,1,8,0:0:0:0:
256,192,90523,1,8,0:0:0:0:
256,192,90604,1,0,0:0:0:0:
256,192,90685,1,8,0:0:0:0:
256,192,90848,1,8,0:0:0:0:
256,192,90929,1,0,0:0:0:0:
256,192,91010,1,0,0:0:0:0:
256,192,91091,1,8,0:0:0:0:
256,192,91172,1,0,0:0:0:0:
256,192,91334,1,8,0:0:0:0:
256,192,91415,1,8,0:0:0:0:
256,192,91496,1,0,0:0:0:0:
256,192,91577,1,8,0:0:0:0:
256,192,91658,1,0,0:0:0:0:
256,192,91712,1,0,0:0:0:0:
256,192,91767,1,0,0:0:0:0:
256,192,91821,1,8,0:0:0:0:
256,192,91902,1,8,0:0:0:0:
256,192,91983,1,0,0:0:0:0:
256,192,92037,1,0,0:0:0:0:
256,192,92091,1,0,0:0:0:0:
256,192,92145,1,8,0:0:0:0:
256,192,92307,1,0,0:0:0:0:
256,192,92388,1,0,0:0:0:0:
256,192,92469,1,8,0:0:0:0:
256,192,92550,1,8,0:0:0:0:
256,192,92631,1,0,0:0:0:0:
256,192,92794,1,8,0:0:0:0:
256,192,92875,1,8,0:0:0:0:
256,192,92956,1,0,0:0:0:0:
256,192,93037,1,8,0:0:0:0:
256,192,93118,1,0,0:0:0:0:
256,192,93199,1,0,0:0:0:0:
256,192,93280,1,8,0:0:0:0:
256,192,93442,1,0,0:0:0:0:
256,192,93523,1,0,0:0:0:0:
256,192,93604,1,8,0:0:0:0:
256,192,93685,1,8,0:0:0:0:
256,192,93767,1,0,0:0:0:0:
256,192,93848,1,0,0:0:0:0:
256,192,93929,1,0,0:0:0:0:
256,192,94010,1,8,0:0:0:0:
256,192,94091,1,0,0:0:0:0:
256,192,94172,1,8,0:0:0:0:
256,192,94253,1,0,0:0:0:0:
256,192,94334,1,0,0:0:0:0:
256,192,94415,1,8,0:0:0:0:
256,192,94496,1,8,0:0:0:0:
256,192,94577,1,0,0:0:0:0:
256,192,94739,1,8,0:0:0:0:
256,192,94902,1,0,0:0:0:0:
256,192,94983,1,0,0:0:0:0:
256,192,95064,1,8,0:0:0:0:
256,192,95145,1,8,0:0:0:0:
256,192,95226,1,8,0:0:0:0:
256,192,95307,1,0,0:0:0:0:
256,192,95388,1,8,0:0:0:0:
256,192,95469,1,8,0:0:0:0:
256,192,95550,1,0,0:0:0:0:
256,192,95631,1,8,0:0:0:0:
256,192,95712,1,0,0:0:0:0:
256,192,95794,1,0,0:0:0:0:
256,192,95875,1,8,0:0:0:0:
256,192,96037,1,4,0:0:0:0:
256,192,96280,1,4,0:0:0:0:
256,192,96523,1,12,0:0:0:0:
256,192,96848,1,0,0:0:0:0:
256,192,97010,1,8,0:0:0:0:
256,192,97091,1,8,0:0:0:0:
256,192,97172,1,0,0:0:0:0:
256,192,97334,1,12,0:0:0:0:
256,192,97658,1,8,0:0:0:0:
256,192,97739,1,8,0:0:0:0:
256,192,97821,1,0,0:0:0:0:
256,192,97902,1,0,0:0:0:0:
256,192,97983,1,8,0:0:0:0:
256,192,98064,1,0,0:0:0:0:
256,192,98145,1,0,0:0:0:0:
256,192,98226,1,8,0:0:0:0:
256,192,98307,1,0,0:0:0:0:
256,192,98388,1,0,0:0:0:0:
256,192,98469,1,8,0:0:0:0:
256,192,98550,1,0,0:0:0:0:
256,192,98631,1,8,0:0:0:0:
256,192,98712,1,0,0:0:0:0:
256,192,98794,1,0,0:0:0:0:
256,192,98875,1,0,0:0:0:0:
256,192,98956,1,8,0:0:0:0:
256,192,99037,1,8,0:0:0:0:
256,192,99118,1,0,0:0:0:0:
256,192,99199,1,0,0:0:0:0:
256,192,99280,1,8,0:0:0:0:
256,192,99361,1,0,0:0:0:0:
256,192,99442,1,0,0:0:0:0:
256,192,99523,1,8,0:0:0:0:
256,192,99604,1,0,0:0:0:0:
256,192,99685,1,0,0:0:0:0:
256,192,99767,1,8,0:0:0:0:
256,192,99929,1,12,0:0:0:0:
256,192,100253,1,8,0:0:0:0:
256,192,100334,1,8,0:0:0:0:
256,192,100415,1,8,0:0:0:0:
256,192,100496,1,0,0:0:0:0:
256,192,100577,1,8,0:0:0:0:
256,192,100658,1,8,0:0:0:0:
256,192,100739,1,0,0:0:0:0:
256,192,100821,1,8,0:0:0:0:
256,192,100902,1,8,0:0:0:0:
256,192,100983,1,0,0:0:0:0:
256,192,101064,1,8,0:0:0:0:
256,192,101145,1,0,0:0:0:0:
256,192,101226,1,8,0:0:0:0:
256,192,101307,1,8,0:0:0:0:
256,192,101388,1,0,0:0:0:0:
256,192,101469,1,0,0:0:0:0:
256,192,101550,1,8,0:0:0:0:
256,192,101631,1,8,0:0:0:0:
256,192,101712,1,8,0:0:0:0:
256,192,101794,1,0,0:0:0:0:
256,192,101875,1,8,0:0:0:0:
256,192,101956,1,8,0:0:0:0:
256,192,102037,1,0,0:0:0:0:
256,192,102118,1,8,0:0:0:0:
256,192,102199,1,8,0:0:0:0:
256,192,102280,1,0,0:0:0:0:
256,192,102361,1,8,0:0:0:0:
256,192,102415,1,0,0:0:0:0:
256,192,102469,1,0,0:0:0:0:
256,192,102523,1,8,0:0:0:0:
256,192,102685,1,0,0:0:0:0:
256,192,102767,1,8,0:0:0:0:
256,192,102929,1,0,0:0:0:0:
256,192,103010,1,8,0:0:0:0:
256,192,103172,1,0,0:0:0:0:
256,192,103253,1,8,0:0:0:0:
256,192,103415,1,0,0:0:0:0:
256,192,103496,1,8,0:0:0:0:
256,192,103658,1,8,0:0:0:0:
256,192,103739,1,0,0:0:0:0:
256,192,103902,1,8,0:0:0:0:
256,192,103983,1,0,0:0:0:0:
256,192,104145,1,8,0:0:0:0:
256,192,104226,1,0,0:0:0:0:
256,192,104388,1,8,0:0:0:0:
256,192,104469,1,0,0:0:0:0:
256,192,104631,1,8,0:0:0:0:
256,192,104685,1,8,0:0:0:0:
256,192,104739,1,8,0:0:0:0:
256,192,104794,1,0,0:0:0:0:
256,192,104875,1,0,0:0:0:0:
256,192,104956,1,8,0:0:0:0:
256,192,105010,1,8,0:0:0:0:
256,192,105064,1,8,0:0:0:0:
256,192,105118,1,0,0:0:0:0:
256,192,105280,1,0,0:0:0:0:
256,192,105442,1,8,0:0:0:0:
256,192,105604,1,8,0:0:0:0:
256,192,105767,1,0,0:0:0:0:
256,192,105848,1,0,0:0:0:0:
256,192,105929,1,8,0:0:0:0:
256,192,106010,1,8,0:0:0:0:
256,192,106091,1,0,0:0:0:0:
256,192,106172,1,8,0:0:0:0:
256,192,106253,1,8,0:0:0:0:
256,192,106334,1,8,0:0:0:0:
256,192,107388,1,0,0:0:0:0:
256,192,107712,1,12,0:0:0:0:
256,192,109010,2,0,L|288:192,12,26.2500010013581
256,192,110307,1,0,0:0:0:0:
256,192,110388,1,0,0:0:0:0:
256,192,110469,1,8,0:0:0:0:
256,192,110794,1,0,0:0:0:0:
256,192,110875,1,0,0:0:0:0:
256,192,110956,1,8,0:0:0:0:
256,192,111280,1,0,0:0:0:0:
256,192,111361,1,0,0:0:0:0:
256,192,111442,1,8,0:0:0:0:
256,192,111767,1,0,0:0:0:0:
256,192,111929,1,12,0:0:0:0:
