osu file format v14

[General]
AudioFilename: audio.mp3
AudioLeadIn: 0
PreviewTime: 66197
Countdown: 0
SampleSet: Normal
StackLeniency: 0.2
Mode: 1
LetterboxInBreaks: 0
WidescreenStoryboard: 0

[Editor]
Bookmarks: 3929,14307,35064,55821,66199,86956,107712
DistanceSpacing: 1
BeatDivisor: 4
GridSize: 32
TimelineZoom: 3.399998

[Metadata]
Title:Twin Rocket
TitleUnicode:Twin Rocket
Artist:uno feat. Chiyoko (IOSYS)
ArtistUnicode:uno feat. ちよこ (IOSYS)
Creator:Genjuro
Version:Nifty's Inner Oni
Source:SOUND VOLTEX III GRAVITY WARS
Tags:electronic instrumental rhythm video game sdvx konami bemani near noah 第一回ボルテキャラテーマ曲コンテスト first character theme song contest nifty
BeatmapID:2262123
BeatmapSetID:1080416

[Difficulty]
HPDrainRate:5
CircleSize:2
OverallDifficulty:6.5
ApproachRate:10
SliderMultiplier:1.4
SliderTickRate:1

[Events]
//Background and Video events
0,0,"bg.jpg",0,-69
//Break Periods
//Storyboard Layer 0 (Background)
//Storyboard Layer 1 (Fail)
//Storyboard Layer 2 (Pass)
//Storyboard Layer 3 (Foreground)
//Storyboard Layer 4 (Overlay)
//Storyboard Sound Samples

[TimingPoints]
-1260,324.324324324324,4,1,0,80,1,0
1334,-83.3333333333333,4,1,0,80,0,0
1739,-100,4,1,0,80,0,0
2360,-83.3333333333333,4,1,0,80,0,0
2794,-80,4,1,0,80,0,0
2956,-76.9230769230769,4,1,0,80,0,0
3118,-74.0740740740741,4,1,0,80,0,0
3929,-111.111111111111,4,1,0,80,0,0
6523,-111.111111111111,4,1,0,80,0,0
6685,-109.590602386664,4,1,0,80,0,0
6848,-108.111146907913,4,1,0,80,0,0
7010,-106.671104184601,4,1,0,80,0,0
7172,-105.268919982989,4,1,0,80,0,0
7334,-103.903120730231,4,1,0,80,0,0
7658,-101.275155482682,4,1,0,80,0,0
7821,-100.010401081713,4,1,0,80,0,0
7983,-98.7768463121171,4,1,0,80,0,0
8145,-97.5733507664387,4,1,0,80,0,0
8307,-96.3988289470259,4,1,0,80,0,0
8469,-95.2522470005067,4,1,0,80,0,0
8794,-93.0390075342988,4,1,0,80,0,0
8956,-91.9705142531304,4,1,0,80,0,0
9037,-91.4454600986879,4,1,0,80,0,0
9118,-90.9262842428386,4,1,0,80,0,0
9280,-89.9055003286046,4,1,0,80,0,0
9361,-89.4036952335314,4,1,0,80,0,0
9442,-88.9073816242667,4,1,0,80,0,0
9604,-87.9311815400795,4,1,0,80,0,0
9685,-87.4511148268118,4,1,0,80,0,0
9767,-86.976185920295,4,1,0,80,0,0
9848,-86.5064624652785,4,1,0,80,0,0
9929,-86.0417113008044,4,1,0,80,0,0
10091,-85.1271032779042,4,1,0,80,0,0
10172,-84.6770881581632,4,1,0,80,0,0
10253,-84.2317349800076,4,1,0,80,0,0
10334,-83.7911121091564,4,1,0,80,0,0
10415,-83.3550056347984,4,1,0,80,0,0
10577,-82.4963392249469,4,1,0,80,0,0
10658,-82.0736397525316,4,1,0,80,0,0
10739,-81.6551832260656,4,1,0,80,0,0
10821,-81.2410380979848,4,1,0,80,0,0
10902,-80.8310074210948,4,1,0,80,0,0
10983,-80.4251595635166,4,1,0,80,0,0
11064,-80.0233027857712,4,1,0,80,0,0
11226,-79.2315804402582,4,1,0,80,0,0
11307,-78.8415961954199,4,1,0,80,0,0
11388,-78.4553706623987,4,1,0,80,0,0
11469,-78.0729716837139,4,1,0,80,0,0
11550,-77.6942219584072,4,1,0,80,0,0
11631,-77.319189076345,4,1,0,80,0,0
11712,-76.9477001871368,4,1,0,80,0,0
11794,-76.579822595183,4,1,0,80,0,0
11875,-76.2153877343528,4,1,0,80,0,0
11956,-75.8544625938889,4,1,0,80,0,0
12037,-75.4968827337119,4,1,0,80,0,0
12118,-75.142714801086,4,1,0,80,0,0
12199,-74.791798331395,4,1,0,80,0,0
12280,-74.4441996057435,4,1,0,80,0,0
12361,-74.0997619915645,4,1,0,80,0,0
12442,-73.7585513820509,4,1,0,80,0,0
12523,-73.4204148400279,4,1,0,80,0,0
12604,-73.0854178512595,4,1,0,80,0,0
12685,-72.7534110436768,4,1,0,80,0,0
12739,-72.5337789808714,4,1,0,80,0,0
12794,-72.3154690019742,4,1,0,80,0,0
12848,-72.0984172234467,4,1,0,80,0,0
12929,-71.775348899971,4,1,0,80,0,0
13010,-71.4551118987052,4,1,0,80,0,0
13658,-100,4,1,0,80,0,0
14145,-71.4285714285714,4,1,0,80,0,0
14226,-68.9655172413793,4,1,0,80,0,0
14307,-66.6666666666667,4,1,0,80,0,0
14469,-90.9090909090909,4,1,0,80,0,0
18199,-90.9090909090909,4,1,0,80,0,0
18442,-85.1438462710827,4,1,0,80,0,0
18685,-80.0662307861063,4,1,0,80,0,0
18848,-77.0047612043853,4,1,0,80,0,0
19010,-74.1687903663641,4,1,0,80,0,0
19172,-71.5342888883643,4,1,0,80,0,0
19496,-66.7587492347778,4,1,0,80,0,0
19577,-90.9090909090909,4,1,0,80,0,0
22091,-90.9090909090909,4,1,0,80,0,0
22253,-87.719298245614,4,1,0,80,0,0
22415,-84.7457627118644,4,1,0,80,0,0
22577,-81.9672131147541,4,1,0,80,0,0
22739,-79.3650793650794,4,1,0,80,0,0
22902,-76.9230769230769,4,1,0,80,0,0
22983,-75.7575757575758,4,1,0,80,0,0
23064,-74.6268656716418,4,1,0,80,0,0
23226,-72.463768115942,4,1,0,80,0,0
23307,-71.4285714285714,4,1,0,80,0,0
24037,-100,4,1,0,80,0,0
24604,-66.6666666666667,4,1,0,80,0,0
24767,-90.9090909090909,4,1,0,80,0,0
26631,-83.3333333333333,4,1,0,80,0,0
26956,-76.9230769230769,4,1,0,80,0,0
27280,-90.9090909090909,4,1,0,80,0,0
28577,-90.9090909090909,4,1,0,80,0,0
28685,-88.2882930606285,4,1,0,80,0,0
28794,-85.8143697878497,4,1,0,80,0,0
28902,-83.4753109246644,4,1,0,80,0,0
29226,-86.9565217391304,4,1,0,80,0,0
29334,-83.3333333333333,4,1,0,80,0,0
29442,-80,4,1,0,80,0,0
29550,-76.9230769230769,4,1,0,80,0,0
29875,-71.4285714285714,4,1,0,80,0,0
30037,-90.9090909090909,4,1,0,80,0,0
30118,-90.3742397267083,4,1,0,80,0,0
30199,-89.8456451815781,4,1,0,80,0,0
30361,-88.8067919434478,4,1,0,80,0,0
30523,-87.7916878829912,4,1,0,80,0,0
30604,-87.292788742722,4,1,0,80,0,0
30685,-86.7995278105687,4,1,0,80,0,0
30767,-86.3118100449685,4,1,0,80,0,0
30848,-85.8296161957053,4,1,0,80,0,0
30929,-85.3527072598452,4,1,0,80,0,0
31091,-84.414614195668,4,1,0,80,0,0
31172,-83.9532581839735,4,1,0,80,0,0
31253,-83.4969177112827,4,1,0,80,0,0
31334,-83.0455114316299,4,1,0,80,0,0
31415,-82.5989597487009,4,1,0,80,0,0
31496,-82.1571847690438,4,1,0,80,0,0
31658,-81.2876615897103,4,1,0,80,0,0
31821,-80.4363511175424,4,1,0,80,0,0
31902,-80.0173477609946,4,1,0,80,0,0
31983,-79.6026870683047,4,1,0,80,0,0
32064,-79.1923018747194,4,1,0,80,0,0
32226,-78.3840961804214,4,1,0,80,0,0
32307,-77.9862089188148,4,1,0,80,0,0
32388,-77.5922804991977,4,1,0,80,0,0
32469,-77.2023117460229,4,1,0,80,0,0
32550,-76.8162432555338,4,1,0,80,0,0
32631,-76.4340168063116,4,1,0,80,0,0
32712,-76.0555753300051,4,1,0,80,0,0
32794,-75.6808628829262,4,1,0,80,0,0
32875,-75.3098246184804,4,1,0,80,0,0
32956,-74.9424067604046,4,1,0,80,0,0
33037,-74.5785565767846,4,1,0,80,0,0
33118,-74.2182223548254,4,1,0,80,0,0
33199,-73.8613533763502,4,1,0,80,0,0
33280,-73.5078998940016,4,1,0,80,0,0
33361,-73.1578131081243,4,1,0,80,0,0
33442,-72.8110451443042,4,1,0,80,0,0
33496,-72.5816870597013,4,1,0,80,0,0
33550,-72.3537694143252,4,1,0,80,0,0
33604,-72.1272786810517,4,1,0,80,0,0
33685,-71.7901888656289,4,1,0,80,0,0
33767,-71.4562351996273,4,1,0,80,0,0
34253,-83.3333333333333,4,1,0,80,0,0
34334,-85.4519725733349,4,1,0,80,0,0
34415,-87.6811492543595,4,1,0,80,0,0
34496,-90.0297458280216,4,1,0,80,0,0
34577,-92.5076226281046,4,1,0,80,0,0
34658,-95.1257562497622,4,1,0,80,0,0
34739,-97.8964021114296,4,1,0,80,0,0
34902,-103.951940938665,4,1,0,80,0,0
34983,-107.269550143688,4,1,0,80,0,0
35064,-110.80590240881,4,1,0,80,0,0
42523,-111.111111111111,4,1,0,80,0,0
42685,-109.097772332587,4,1,0,80,0,0
42848,-107.156098575038,4,1,0,80,0,0
43010,-105.282330361213,4,1,0,80,0,0
43172,-103.472966652732,4,1,0,80,0,0
43334,-101.724743017868,4,1,0,80,0,0
43496,-100.034611975744,4,1,0,80,0,0
43658,-98.3997252679671,4,1,0,80,0,0
43821,-96.8174178407392,4,1,0,80,0,0
44145,-93.8007110093895,4,1,0,80,0,0
44307,-92.361773678557,4,1,0,80,0,0
44469,-90.9663169921442,4,1,0,80,0,0
45118,-111.196608948214,4,1,0,80,0,0
45442,-90.9663169921445,4,1,0,80,0,0
45604,-100.06924791956,4,1,0,80,0,0
45767,-90.9663169921445,4,1,0,80,0,0
45929,-100.06924791956,4,1,0,80,0,0
46091,-90.9663169921445,4,1,0,80,0,0
46253,-83.3814166169158,4,1,0,80,0,0
46577,-100.06924791956,4,1,0,80,0,0
46739,-111.196608948213,4,1,0,80,0,0
48017,-90.9663169921445,4,1,0,80,0,0
48179,-100.06924791956,4,1,0,80,0,0
48342,-90.9663169921445,4,1,0,80,0,0
48504,-100.06924791956,4,1,0,80,0,0
48666,-90.9663169921445,4,1,0,80,0,0
48828,-83.3814166169158,4,1,0,80,0,0
49152,-76.964045476515,4,1,0,80,0,0
49314,-90.9663169921438,4,1,0,80,0,0
50611,-90.9663169921445,4,1,0,80,0,0
50773,-100.06924791956,4,1,0,80,0,0
50936,-90.9663169921445,4,1,0,80,0,0
51098,-100.06924791956,4,1,0,80,0,0
51260,-90.9663169921445,4,1,0,80,0,0
51422,-83.3814166169158,4,1,0,80,0,0
51746,-100.06924791956,4,1,0,80,0,0
51908,-111.196608948213,4,1,0,80,0,0
53226,-90.9090909090909,4,1,0,80,0,0
53388,-97.5609756097561,4,1,0,80,0,0
53550,-86.9565217391304,4,1,0,80,0,0
53712,-85.1063829787234,4,1,0,80,0,0
53875,-90.9090909090909,4,1,0,80,0,0
54037,-81.6326530612245,4,1,0,80,0,0
54199,-80,4,1,0,80,0,0
54361,-78.4313725490196,4,1,0,80,0,0
54523,-76.9230769230769,4,1,0,80,0,0
54685,-79.9779260923985,4,1,0,80,0,0
54848,-83.2854442029167,4,1,0,80,0,0
55010,-86.8784067195235,4,1,0,80,0,0
55172,-90.7952666611584,4,1,0,80,0,0
55334,-95.0819796828826,4,1,0,80,0,0
55496,-99.7935271922393,4,1,0,80,0,0
55821,-111.111111111111,4,1,0,80,0,0
55983,-109.780450077889,4,1,0,80,0,0
56145,-108.481283724119,4,1,0,80,0,0
56307,-107.212506982215,4,1,0,80,0,0
56469,-105.973065885575,4,1,0,80,0,0
56631,-104.76195464855,4,1,0,80,0,0
56794,-103.578105660026,4,1,0,80,0,0
56956,-102.420818465245,4,1,0,80,0,0
57118,-101.28910645789,4,1,0,80,0,0
57280,-100.182131114366,4,1,0,80,0,0
57442,-99.0990901712531,4,1,0,80,0,0
57604,-98.0392156862745,4,1,0,80,0,0
57767,-97.0017722223785,4,1,0,80,0,0
57929,-95.9860551459084,4,1,0,80,0,0
58091,-94.9913890305844,4,1,0,80,0,0
58253,-94.0171261597012,4,1,0,80,0,0
58334,-93.5374070121253,4,1,0,80,0,0
58415,-93.0626451195622,4,1,0,80,0,0
58496,-92.5925925925926,4,1,0,80,0,0
58577,-92.127264603323,4,1,0,80,0,0
58739,-91.2105833464069,4,1,0,80,0,0
58902,-90.3119646193847,4,1,0,80,0,0
59064,-89.4308797673366,4,1,0,80,0,0
59226,-88.5668205662785,4,1,0,80,0,0
59388,-87.719298245614,4,1,0,80,0,0
59550,-86.8878425661803,4,1,0,80,0,0
59712,-86.0720009502349,4,1,0,80,0,0
59794,-85.6697619151647,4,1,0,80,0,0
59875,-85.271337660001,4,1,0,80,0,0
60037,-84.4854330216384,4,1,0,80,0,0
60199,-83.7138826917362,4,1,0,80,0,0
60361,-82.9562281462186,4,1,0,80,0,0
60523,-82.2122325225015,4,1,0,80,0,0
60685,-81.4814633744896,4,1,0,80,0,0
60848,-80.7635711066709,4,1,0,80,0,0
60929,-80.4093802366609,4,1,0,80,0,0
61010,-80.0582183363742,4,1,0,80,0,0
61091,-79.710173808034,4,1,0,80,0,0
61172,-79.3650793650794,4,1,0,80,0,0
61334,-78.6838396769556,4,1,0,80,0,0
61415,-78.3475560263373,4,1,0,80,0,0
61496,-78.0141954630065,4,1,0,80,0,0
61577,-77.6835993608194,4,1,0,80,0,0
61658,-77.355853169308,4,1,0,80,0,0
61821,-76.70852906793,4,1,0,80,0,0
61902,-76.3888835841053,4,1,0,80,0,0
61983,-76.0719488492216,4,1,0,80,0,0
62064,-75.7575757575758,4,1,0,80,0,0
62145,-75.445790313515,4,1,0,80,0,0
62226,-75.1366171541405,4,1,0,80,0,0
62307,-74.8299116109084,4,1,0,80,0,0
62388,-74.5257553557934,4,1,0,80,0,0
62469,-74.2240065673401,4,1,0,80,0,0
62550,-73.9247460869784,4,1,0,80,0,0
62631,-73.6278348557115,4,1,0,80,0,0
62712,-73.3333528888941,4,1,0,80,0,0
62794,-73.0411638086877,4,1,0,80,0,0
62875,-72.7513468093078,4,1,0,80,0,0
62956,-72.463768115942,4,1,0,80,0,0
63037,-72.1784540096936,4,1,0,80,0,0
63118,-71.895429535649,4,1,0,80,0,0
63199,-71.6145646837071,4,1,0,80,0,0
63280,-71.335936619447,4,1,0,80,0,0
63361,-71.0594177533428,4,1,0,80,0,0
63442,-70.785084450145,4,1,0,80,0,0
63523,-70.5128114727165,4,1,0,80,0,0
63604,-70.2426743914877,4,1,0,80,0,0
63685,-69.9745502560719,4,1,0,80,0,0
63767,-69.708513849339,4,1,0,80,0,0
63848,-69.4444444444444,4,1,0,80,0,0
63929,-69.1823681816452,4,1,0,80,0,0
64010,-68.9223100828515,4,1,0,80,0,0
64091,-68.6641526431579,4,1,0,80,0,0
64172,-68.4079687074588,4,1,0,80,0,0
64253,-68.153642846287,4,1,0,80,0,0
64334,-67.9012471422063,4,1,0,80,0,0
64415,-67.6506681856497,4,1,0,80,0,0
64496,-67.4019773044062,4,1,0,80,0,0
64577,-67.1550630552465,4,1,0,80,0,0
64631,-66.9914860520376,4,1,0,80,0,0
64685,-66.8286593368993,4,1,0,80,0,0
64739,-66.6666666666667,4,1,0,80,0,0
66037,-71.4285714285714,4,1,0,80,0,0
66118,-68.9655172413793,4,1,0,80,0,0
66199,-66.6666666666667,4,1,0,80,0,1
66285,-83.3333333333333,4,1,0,80,0,1
84361,-83.3333333333333,4,1,0,80,0,1
84442,-82.3529217993125,4,1,0,80,0,1
84523,-81.3953772309455,4,1,0,80,0,1
84604,-80.459779363193,4,1,0,80,0,1
84685,-79.5454455061994,4,1,0,80,0,1
84767,-78.6516588814633,4,1,0,80,0,1
84848,-77.7777950617322,4,1,0,80,0,1
84929,-76.9230769230769,4,1,0,80,0,1
85010,-76.0869399811,4,1,0,80,0,1
85091,-75.2688414845725,4,1,0,80,0,1
85172,-74.4680930285205,4,1,0,80,0,1
85253,-73.6842027700839,4,1,0,80,0,1
85334,-72.9166438802155,4,1,0,80,0,1
85415,-72.1649633329821,4,1,0,80,0,1
85496,-71.4285714285714,4,1,0,80,0,1
85577,-70.8215297450425,4,1,0,80,0,1
85658,-83.3333333333333,4,1,0,80,0,0
86794,-71.4285714285714,4,1,0,80,0,0
86875,-68.9655172413793,4,1,0,80,0,0
86956,-66.6666666666667,4,1,0,80,0,1
87265,-80,4,1,0,80,0,1
91658,-83.3333333333333,4,1,0,80,0,1
91712,-82.2368421052632,4,1,0,80,0,1
91767,-81.1688311688312,4,1,0,80,0,1
91821,-80.1282051282051,4,1,0,80,0,1
91962,-83.3333333333333,4,1,0,80,0,1
92016,-82.2368421052632,4,1,0,80,0,1
92071,-81.1688311688312,4,1,0,80,0,1
92125,-80.1282051282051,4,1,0,80,0,1
96037,-80,4,1,0,80,0,1
96199,-78.6516588814633,4,1,0,80,0,1
96280,-77.9944202791732,4,1,0,80,0,1
96361,-77.3480748450911,4,1,0,80,0,1
96442,-76.7123539876232,4,1,0,80,0,1
96523,-76.0869399811,4,1,0,80,0,1
96685,-74.8663261746152,4,1,0,80,0,1
96767,-74.2705333886896,4,1,0,80,0,1
96848,-73.6842027700839,4,1,0,80,0,1
97010,-72.5388826545749,4,1,0,80,0,1
97091,-71.9794196443353,4,1,0,80,0,1
97172,-71.4285714285714,4,1,0,80,0,1
97334,-66.6666666666667,4,1,0,80,0,0
97658,-90.9090909090909,4,1,0,80,0,1
97739,-89.9683491347744,4,1,0,80,0,1
97821,-89.0469571319044,4,1,0,80,0,1
97902,-88.1441686021657,4,1,0,80,0,1
97983,-87.2595780475844,4,1,0,80,0,1
98145,-85.5424675580192,4,1,0,80,0,1
98226,-84.7090793732545,4,1,0,80,0,1
98307,-83.8917025233785,4,1,0,80,0,1
98388,-83.0900180637699,4,1,0,80,0,1
98469,-82.3034429176241,4,1,0,80,0,1
98631,-80.7742045962138,4,1,0,80,0,1
98794,-79.3007576394385,4,1,0,80,0,1
98875,-78.5839795555919,4,1,0,80,0,1
98956,-77.8800429274797,4,1,0,80,0,1
99118,-76.5093965015313,4,1,0,80,0,1
99280,-75.1861609344737,4,1,0,80,0,1
99361,-74.5415323055547,4,1,0,80,0,1
99442,-73.9079181248083,4,1,0,80,0,1
99523,-73.2849310791866,4,1,0,80,0,1
99604,-72.67241166305,4,1,0,80,0,1
99685,-72.0699943785404,4,1,0,80,0,1
99767,-71.4774824487042,4,1,0,80,0,1
99929,-66.7092716548302,4,1,0,80,0,0
100253,-90.9090909090909,4,1,0,80,0,1
100334,-90.3225689906363,4,1,0,80,0,1
100415,-89.7435667324188,4,1,0,80,0,1
100496,-89.1719404438444,4,1,0,80,0,1
100577,-88.6076285851754,4,1,0,80,0,1
100739,-87.5000109375014,4,1,0,80,0,1
100821,-86.9565217391304,4,1,0,80,0,1
100902,-86.4197424173157,4,1,0,80,0,1
100983,-85.8895494749572,4,1,0,80,0,1
101064,-85.3658224271381,4,1,0,80,0,1
101226,-84.3373697198481,4,1,0,80,0,1
101388,-83.3333333333333,4,1,0,80,0,1
101469,-82.8402268828134,4,1,0,80,0,1
101631,-81.8713163024621,4,1,0,80,0,1
101712,-81.3953772309455,4,1,0,80,0,1
101794,-80.9248742022831,4,1,0,80,0,1
101875,-80.459779363193,4,1,0,80,0,1
102037,-79.5454455061994,4,1,0,80,0,1
102199,-78.6516588814633,4,1,0,80,0,1
102280,-78.2123167192123,4,1,0,80,0,1
102361,-77.7777950617322,4,1,0,80,0,1
102415,-77.4907863455035,4,1,0,80,0,1
102469,-77.2058880298447,4,1,0,80,0,1
102523,-76.9230769230769,4,1,0,80,0,1
102685,-83.3333333333333,4,1,0,80,0,1
102767,-82.8042144032963,4,1,0,80,0,1
102848,-82.2818399865058,4,1,0,80,0,1
102929,-81.7659482437901,4,1,0,80,0,1
103010,-81.2564852832317,4,1,0,80,0,1
103091,-80.7533316805818,4,1,0,80,0,1
103172,-80.2564353622695,4,1,0,80,0,1
103253,-79.7655530863685,4,1,0,80,0,1
103334,-79.2806391922254,4,1,0,80,0,1
103415,-78.8015854879,4,1,0,80,0,1
103496,-78.3283477340001,4,1,0,80,0,1
103577,-77.8606994226629,4,1,0,80,0,1
103658,-77.3986020264502,4,1,0,80,0,1
103739,-76.9419572956749,4,1,0,80,0,1
103821,-76.4907277939768,4,1,0,80,0,1
103902,-76.0447021176929,4,1,0,80,0,1
103983,-75.6038479334444,4,1,0,80,0,1
104064,-75.1681323199667,4,1,0,80,0,1
104145,-74.737354252817,4,1,0,80,0,1
104226,-74.3114855088888,4,1,0,80,0,1
104307,-73.8904426406966,4,1,0,80,0,1
104388,-73.4741980658652,4,1,0,80,0,1
104469,-73.062563473102,4,1,0,80,0,1
104550,-72.655515498148,4,1,0,80,0,1
104631,-72.2529779064844,4,1,0,80,0,1
104685,-71.9871402172716,4,1,0,80,0,1
104739,-71.723200088363,4,1,0,80,0,1
104794,-71.4611883566857,4,1,0,80,0,1
104956,-72.992700729927,4,1,0,80,0,1
105010,-72.463768115942,4,1,0,80,0,1
105064,-71.9424460431655,4,1,0,80,0,1
105118,-71.4285714285714,4,1,0,80,0,1
105280,-74.045826962307,4,1,0,80,0,1
105442,-76.8621193499617,4,1,0,80,0,1
105604,-79.9011782227741,4,1,0,80,0,1
105767,-83.1903845225953,4,1,0,80,0,1
105848,-81.3953772309455,4,1,0,80,0,1
105929,-79.5454455061994,4,1,0,80,0,1
106010,-77.7777950617322,4,1,0,80,0,1
106091,-76.0869399811,4,1,0,80,0,1
106172,-74.4680930285205,4,1,0,80,0,1
106253,-72.9166438802155,4,1,0,80,0,1
106334,-71.4285714285714,4,1,0,80,0,1
106415,-83.3333333333333,4,1,0,80,0,0
107388,-100,4,1,0,80,0,0
107712,-71.4285714285714,4,1,0,80,0,0
108037,-125,4,1,0,80,0,0
109010,-90.9090909090909,4,1,0,80,0,0
110307,-71.4285714285714,4,1,0,80,0,1
111746,-62.5,4,1,0,80,0,1
112577,-62.5,4,1,0,80,0,0

[HitObjects]
322,106,1334,5,12,0:0:0:0:
329,96,1821,1,0,0:0:0:0:
328,85,1902,1,0,0:0:0:0:
329,96,1983,1,8,0:0:0:0:
329,96,2145,1,0,0:0:0:0:
326,85,2469,1,4,0:0:0:0:
328,85,2794,1,4,0:0:0:0:
326,85,2956,1,4,0:0:0:0:
323,104,3118,1,4,0:0:0:0:
300,89,3929,1,12,0:0:0:0:
310,90,4091,1,0,0:0:0:0:
310,91,4253,1,8,0:0:0:0:
310,90,4415,1,0,0:0:0:0:
310,90,4577,1,8,0:0:0:0:
310,90,4739,1,8,0:0:0:0:
310,91,5064,1,0,0:0:0:0:
310,90,5388,1,8,0:0:0:0:
310,90,5550,1,0,0:0:0:0:
310,91,5712,1,8,0:0:0:0:
310,91,5875,1,8,0:0:0:0:
346,97,6199,1,0,0:0:0:0:
346,97,6361,1,0,0:0:0:0:
346,97,6523,1,8,0:0:0:0:
346,97,6685,1,0,0:0:0:0:
346,97,6848,1,8,0:0:0:0:
346,97,7010,1,0,0:0:0:0:
346,97,7172,1,8,0:0:0:0:
346,97,7334,1,8,0:0:0:0:
346,97,7658,1,0,0:0:0:0:
346,97,7821,1,0,0:0:0:0:
346,97,7983,1,8,0:0:0:0:
346,97,8145,1,0,0:0:0:0:
346,97,8307,1,8,0:0:0:0:
346,97,8469,1,8,0:0:0:0:
335,99,8794,1,0,0:0:0:0:
335,99,8956,1,0,0:0:0:0:
335,99,9037,1,0,0:0:0:0:
334,99,9118,1,8,0:0:0:0:
333,99,9280,1,0,0:0:0:0:
335,99,9361,1,0,0:0:0:0:
335,99,9442,1,8,0:0:0:0:
335,99,9604,1,0,0:0:0:0:
335,99,9685,1,0,0:0:0:0:
335,99,9767,1,8,0:0:0:0:
335,99,9848,1,0,0:0:0:0:
335,99,9929,1,8,0:0:0:0:
333,99,10091,1,0,0:0:0:0:
335,99,10172,1,0,0:0:0:0:
335,99,10253,1,8,0:0:0:0:
335,99,10334,1,8,0:0:0:0:
335,99,10415,1,0,0:0:0:0:
335,99,10577,1,8,0:0:0:0:
336,86,10658,1,8,0:0:0:0:
336,86,10739,1,0,0:0:0:0:
336,86,10821,1,0,0:0:0:0:
336,86,10902,1,8,0:0:0:0:
336,86,10983,1,0,0:0:0:0:
336,86,11064,1,8,0:0:0:0:
338,86,11226,1,0,0:0:0:0:
338,86,11307,1,0,0:0:0:0:
338,86,11388,1,8,0:0:0:0:
338,86,11469,1,0,0:0:0:0:
336,86,11550,1,0,0:0:0:0:
336,86,11631,1,0,0:0:0:0:
336,86,11712,1,8,0:0:0:0:
336,86,11794,1,8,0:0:0:0:
336,86,11875,1,0,0:0:0:0:
338,86,11956,1,0,0:0:0:0:
338,86,12037,1,8,0:0:0:0:
338,86,12118,1,0,0:0:0:0:
338,86,12199,1,8,0:0:0:0:
338,86,12280,1,8,0:0:0:0:
336,86,12361,1,0,0:0:0:0:
336,86,12442,1,0,0:0:0:0:
336,86,12523,1,8,0:0:0:0:
336,86,12604,1,0,0:0:0:0:
336,86,12685,1,8,0:0:0:0:
318,88,12739,1,8,0:0:0:0:
321,88,12794,1,8,0:0:0:0:
329,88,12848,1,0,0:0:0:0:
375,77,12929,1,0,0:0:0:0:
375,77,13010,1,8,0:0:0:0:
256,192,13658,12,0,13983,0:0:0:0:
306,127,14145,5,0,0:0:0:0:
306,127,14226,1,0,0:0:0:0:
306,127,14307,1,12,0:0:0:0:
339,95,14631,1,0,0:0:0:0:
339,95,14794,1,8,0:0:0:0:
339,95,14956,1,0,0:0:0:0:
339,95,15118,1,8,0:0:0:0:
339,95,15199,1,0,0:0:0:0:
339,95,15280,1,8,0:0:0:0:
339,95,15523,1,8,0:0:0:0:
339,95,15604,1,0,0:0:0:0:
339,95,15767,1,8,0:0:0:0:
339,95,15929,1,0,0:0:0:0:
339,95,16091,1,8,0:0:0:0:
339,95,16253,1,0,0:0:0:0:
339,95,16334,1,0,0:0:0:0:
339,95,16415,1,8,0:0:0:0:
339,95,16496,1,0,0:0:0:0:
339,95,16577,1,0,0:0:0:0:
339,95,16739,1,0,0:0:0:0:
339,95,16902,1,8,0:0:0:0:
339,95,17064,1,8,0:0:0:0:
339,95,17226,1,0,0:0:0:0:
339,95,17388,1,8,0:0:0:0:
339,95,17550,1,0,0:0:0:0:
339,95,17631,1,0,0:0:0:0:
339,95,17712,1,8,0:0:0:0:
339,95,17794,1,0,0:0:0:0:
339,95,17875,1,8,0:0:0:0:
339,95,18037,1,8,0:0:0:0:
339,95,18118,1,0,0:0:0:0:
339,95,18199,1,8,0:0:0:0:
339,95,18442,1,8,0:0:0:0:
339,95,18685,1,8,0:0:0:0:
339,95,18848,1,0,0:0:0:0:
339,95,19010,1,0,0:0:0:0:
339,95,19172,1,8,0:0:0:0:
339,95,19496,1,12,0:0:0:0:
355,84,19821,1,0,0:0:0:0:
349,92,19983,1,8,0:0:0:0:
349,92,20145,1,0,0:0:0:0:
370,94,20307,1,8,0:0:0:0:
370,94,20388,1,0,0:0:0:0:
370,94,20469,1,0,0:0:0:0:
366,95,20712,1,8,0:0:0:0:
366,95,20794,1,0,0:0:0:0:
368,94,20956,1,8,0:0:0:0:
370,94,21118,1,0,0:0:0:0:
368,82,21199,1,0,0:0:0:0:
370,94,21280,1,8,0:0:0:0:
368,82,21361,1,0,0:0:0:0:
368,82,21442,1,0,0:0:0:0:
364,78,21604,1,8,0:0:0:0:
367,78,21767,1,0,0:0:0:0:
368,78,21929,1,0,0:0:0:0:
368,82,22091,1,8,0:0:0:0:
368,82,22253,1,0,0:0:0:0:
359,70,22415,1,8,0:0:0:0:
366,69,22577,1,0,0:0:0:0:
366,69,22739,1,8,0:0:0:0:
368,69,22902,1,0,0:0:0:0:
368,69,22983,1,0,0:0:0:0:
368,69,23064,1,8,0:0:0:0:
368,69,23226,1,0,0:0:0:0:
366,69,23307,1,0,0:0:0:0:
256,192,24037,12,0,24361,0:0:0:0:
337,96,24685,5,12,0:0:0:0:
342,87,25010,1,0,0:0:0:0:
342,87,25172,1,8,0:0:0:0:
342,87,25334,1,0,0:0:0:0:
342,87,25496,1,8,0:0:0:0:
342,88,25577,1,0,0:0:0:0:
342,87,25658,1,8,0:0:0:0:
342,87,25821,1,0,0:0:0:0:
342,87,25902,1,8,0:0:0:0:
342,87,25983,1,0,0:0:0:0:
342,87,26145,1,8,0:0:0:0:
342,87,26307,1,0,0:0:0:0:
342,87,26388,1,0,0:0:0:0:
342,87,26469,1,8,0:0:0:0:
342,87,26631,1,4,0:0:0:0:
342,87,26956,1,12,0:0:0:0:
342,87,27280,1,0,0:0:0:0:
342,87,27442,1,8,0:0:0:0:
342,87,27604,1,0,0:0:0:0:
342,87,27685,1,0,0:0:0:0:
342,87,27767,1,8,0:0:0:0:
342,87,27929,1,0,0:0:0:0:
342,87,28091,1,8,0:0:0:0:
342,87,28172,1,0,0:0:0:0:
342,87,28253,1,8,0:0:0:0:
342,87,28415,1,8,0:0:0:0:
342,87,28577,1,0,0:0:0:0:
342,87,28685,1,0,0:0:0:0:
305,86,28794,1,0,0:0:0:0:
329,77,28902,1,12,0:0:0:0:
338,75,29226,1,8,0:0:0:0:
338,74,29334,1,0,0:0:0:0:
329,72,29442,1,0,0:0:0:0:
329,72,29550,1,12,0:0:0:0:
324,74,29875,1,12,0:0:0:0:
349,74,30037,1,0,0:0:0:0:
349,74,30118,1,0,0:0:0:0:
327,78,30199,1,8,0:0:0:0:
337,77,30361,1,0,0:0:0:0:
337,77,30523,1,8,0:0:0:0:
337,77,30604,1,0,0:0:0:0:
337,77,30685,1,0,0:0:0:0:
337,77,30767,1,0,0:0:0:0:
337,77,30848,1,8,0:0:0:0:
337,77,30929,1,0,0:0:0:0:
337,77,31091,1,8,0:0:0:0:
337,77,31172,1,0,0:0:0:0:
337,77,31253,1,0,0:0:0:0:
337,77,31334,1,8,0:0:0:0:
337,77,31415,1,0,0:0:0:0:
337,77,31496,1,8,0:0:0:0:
337,77,31658,1,8,0:0:0:0:
337,77,31821,1,0,0:0:0:0:
337,77,31902,1,0,0:0:0:0:
337,77,31983,1,8,0:0:0:0:
337,77,32064,1,0,0:0:0:0:
337,77,32226,1,8,0:0:0:0:
337,77,32307,1,0,0:0:0:0:
337,77,32388,1,0,0:0:0:0:
337,77,32469,1,8,0:0:0:0:
346,69,32550,1,8,0:0:0:0:
346,69,32631,1,0,0:0:0:0:
346,69,32712,1,8,0:0:0:0:
337,77,32794,1,0,0:0:0:0:
355,89,32875,1,8,0:0:0:0:
346,69,32956,1,8,0:0:0:0:
346,69,33037,1,0,0:0:0:0:
346,69,33118,1,0,0:0:0:0:
346,69,33199,1,8,0:0:0:0:
351,68,33280,1,0,0:0:0:0:
346,69,33361,1,8,0:0:0:0:
346,69,33442,1,0,0:0:0:0:
346,69,33496,1,0,0:0:0:0:
334,84,33550,1,0,0:0:0:0:
346,69,33604,1,8,0:0:0:0:
352,68,33685,1,0,0:0:0:0:
346,69,33767,1,8,0:0:0:0:
391,69,34253,1,8,0:0:0:0:
351,58,34334,1,8,0:0:0:0:
362,54,34415,1,0,0:0:0:0:
360,57,34496,1,0,0:0:0:0:
360,56,34577,1,8,0:0:0:0:
360,56,34658,1,0,0:0:0:0:
360,56,34739,1,8,0:0:0:0:
360,56,34902,1,0,0:0:0:0:
360,56,34983,1,0,0:0:0:0:
360,56,35064,1,12,0:0:0:0:
362,54,35226,1,0,0:0:0:0:
360,56,35388,1,8,0:0:0:0:
360,56,35550,1,0,0:0:0:0:
360,56,35712,1,8,0:0:0:0:
360,56,35875,1,8,0:0:0:0:
360,56,36199,1,0,0:0:0:0:
360,56,36523,1,8,0:0:0:0:
360,56,36848,1,0,0:0:0:0:
360,56,37010,1,8,0:0:0:0:
360,56,37334,1,0,0:0:0:0:
360,56,37496,1,8,0:0:0:0:
360,56,37658,1,8,0:0:0:0:
360,56,37821,1,0,0:0:0:0:
360,56,37983,1,8,0:0:0:0:
360,56,38145,1,0,0:0:0:0:
360,56,38307,1,8,0:0:0:0:
360,56,38469,1,8,0:0:0:0:
360,56,38794,1,0,0:0:0:0:
360,56,39118,1,0,0:0:0:0:
360,56,39442,1,0,0:0:0:0:
360,56,39604,1,0,0:0:0:0:
355,42,39929,1,8,0:0:0:0:
356,43,40091,1,0,0:0:0:0:
356,43,40253,1,8,0:0:0:0:
356,43,40415,1,0,0:0:0:0:
355,42,40577,1,8,0:0:0:0:
355,42,40739,1,0,0:0:0:0:
356,43,40902,1,8,0:0:0:0:
356,43,41064,1,8,0:0:0:0:
355,42,41388,1,0,0:0:0:0:
355,42,41550,1,0,0:0:0:0:
356,43,41712,1,8,0:0:0:0:
356,43,41875,1,0,0:0:0:0:
355,42,42037,1,8,0:0:0:0:
355,42,42199,1,8,0:0:0:0:
356,43,42523,1,0,0:0:0:0:
356,43,42685,1,0,0:0:0:0:
355,42,42848,1,8,0:0:0:0:
355,42,43010,1,0,0:0:0:0:
356,43,43172,1,8,0:0:0:0:
356,43,43334,1,8,0:0:0:0:
368,42,43496,1,0,0:0:0:0:
356,43,43658,1,8,0:0:0:0:
355,42,43821,1,8,0:0:0:0:
364,44,44145,1,8,0:0:0:0:
368,42,44307,1,0,0:0:0:0:
256,192,44469,12,0,44794,0:0:0:0:
288,94,45118,5,0,0:0:0:0:
311,90,45442,1,12,0:0:0:0:
307,95,45604,1,0,0:0:0:0:
306,95,45767,1,12,0:0:0:0:
306,95,45929,1,0,0:0:0:0:
305,95,46091,1,12,0:0:0:0:
305,95,46253,1,12,0:0:0:0:
306,95,46577,1,4,0:0:0:0:
306,95,46739,1,0,0:0:0:0:
306,95,46821,1,0,0:0:0:0:
305,95,46902,1,8,0:0:0:0:
305,95,47064,1,0,0:0:0:0:
306,95,47145,1,0,0:0:0:0:
306,95,47307,1,0,0:0:0:0:
306,95,47388,1,8,0:0:0:0:
306,95,47550,1,0,0:0:0:0:
306,95,47631,1,0,0:0:0:0:
306,95,47712,1,8,0:0:0:0:
305,95,47875,1,8,0:0:0:0:
306,95,48037,1,12,0:0:0:0:
306,95,48199,1,0,0:0:0:0:
306,95,48361,1,12,0:0:0:0:
310,83,48523,1,0,0:0:0:0:
310,83,48685,1,12,0:0:0:0:
310,83,48848,1,12,0:0:0:0:
310,70,49172,1,12,0:0:0:0:
310,83,49334,1,0,0:0:0:0:
310,83,49415,1,0,0:0:0:0:
310,83,49496,1,8,0:0:0:0:
310,83,49658,1,0,0:0:0:0:
310,83,49739,1,0,0:0:0:0:
311,83,49902,1,0,0:0:0:0:
311,83,49983,1,8,0:0:0:0:
310,83,50145,1,0,0:0:0:0:
310,83,50226,1,0,0:0:0:0:
172,172,50307,1,8,0:0:0:0:
182,169,50388,1,8,0:0:0:0:
182,169,50469,1,0,0:0:0:0:
321,91,50631,1,12,0:0:0:0:
316,87,50794,1,0,0:0:0:0:
321,91,50956,1,12,0:0:0:0:
321,91,51118,1,0,0:0:0:0:
321,91,51280,1,12,0:0:0:0:
321,91,51442,1,12,0:0:0:0:
321,91,51767,1,4,0:0:0:0:
354,70,51929,1,0,0:0:0:0:
354,70,52091,1,8,0:0:0:0:
354,70,52172,1,0,0:0:0:0:
354,70,52253,1,0,0:0:0:0:
354,70,52334,1,8,0:0:0:0:
354,70,52415,1,0,0:0:0:0:
354,70,52496,1,0,0:0:0:0:
354,70,52577,1,8,0:0:0:0:
354,70,52658,1,8,0:0:0:0:
354,70,52739,1,0,0:0:0:0:
354,70,52821,1,0,0:0:0:0:
354,70,52902,1,8,0:0:0:0:
337,82,53226,1,12,0:0:0:0:
340,81,53388,1,0,0:0:0:0:
337,82,53550,1,12,0:0:0:0:
337,82,53712,1,12,0:0:0:0:
337,82,53875,1,0,0:0:0:0:
337,82,54037,1,12,0:0:0:0:
337,82,54199,1,12,0:0:0:0:
337,82,54361,1,0,0:0:0:0:
337,82,54523,1,8,0:0:0:0:
337,82,54685,1,0,0:0:0:0:
337,82,54848,1,8,0:0:0:0:
355,70,55010,1,8,0:0:0:0:
355,70,55172,1,0,0:0:0:0:
355,70,55334,1,8,0:0:0:0:
355,70,55496,1,0,0:0:0:0:
365,61,55821,1,8,0:0:0:0:
374,59,55983,1,0,0:0:0:0:
374,59,56145,1,0,0:0:0:0:
374,59,56307,1,0,0:0:0:0:
374,59,56469,1,0,0:0:0:0:
374,59,56631,1,0,0:0:0:0:
374,59,56794,1,0,0:0:0:0:
374,59,56956,1,0,0:0:0:0:
374,59,57118,1,8,0:0:0:0:
374,59,57280,1,0,0:0:0:0:
374,59,57442,1,0,0:0:0:0:
374,59,57604,1,0,0:0:0:0:
374,59,57767,1,0,0:0:0:0:
374,59,57929,1,0,0:0:0:0:
374,59,58091,1,0,0:0:0:0:
374,59,58253,1,0,0:0:0:0:
374,59,58334,1,0,0:0:0:0:
374,59,58415,1,8,0:0:0:0:
374,59,58496,1,8,0:0:0:0:
374,59,58577,1,0,0:0:0:0:
366,79,58739,1,8,0:0:0:0:
366,79,58902,1,8,0:0:0:0:
366,79,59064,1,0,0:0:0:0:
366,79,59226,1,8,0:0:0:0:
366,79,59388,1,8,0:0:0:0:
366,79,59550,1,0,0:0:0:0:
366,79,59712,1,8,0:0:0:0:
366,79,59794,1,8,0:0:0:0:
366,79,59875,1,0,0:0:0:0:
366,79,60037,1,8,0:0:0:0:
366,79,60199,1,8,0:0:0:0:
366,79,60361,1,0,0:0:0:0:
366,79,60523,1,8,0:0:0:0:
366,79,60685,1,8,0:0:0:0:
366,79,60848,1,0,0:0:0:0:
366,79,60929,1,0,0:0:0:0:
366,79,61010,1,8,0:0:0:0:
366,79,61091,1,8,0:0:0:0:
366,79,61172,1,0,0:0:0:0:
366,79,61334,1,8,0:0:0:0:
380,62,61415,1,0,0:0:0:0:
366,79,61496,1,8,0:0:0:0:
376,67,61577,1,8,0:0:0:0:
366,79,61658,1,0,0:0:0:0:
366,79,61821,1,8,0:0:0:0:
366,79,61902,1,0,0:0:0:0:
366,79,61983,1,8,0:0:0:0:
366,79,62064,1,8,0:0:0:0:
374,56,62145,1,0,0:0:0:0:
375,56,62226,1,0,0:0:0:0:
375,56,62307,1,8,0:0:0:0:
386,68,62388,1,8,0:0:0:0:
386,68,62469,1,0,0:0:0:0:
386,68,62550,1,0,0:0:0:0:
386,68,62631,1,8,0:0:0:0:
386,68,62712,1,0,0:0:0:0:
386,68,62794,1,8,0:0:0:0:
386,68,62875,1,8,0:0:0:0:
386,68,62956,1,0,0:0:0:0:
386,68,63037,1,0,0:0:0:0:
386,68,63118,1,8,0:0:0:0:
374,63,63199,1,0,0:0:0:0:
381,62,63280,1,8,0:0:0:0:
381,62,63361,1,8,0:0:0:0:
381,62,63442,1,0,0:0:0:0:
381,62,63523,1,0,0:0:0:0:
381,62,63604,1,8,0:0:0:0:
400,94,63685,1,0,0:0:0:0:
399,94,63767,1,0,0:0:0:0:
386,68,63848,1,8,0:0:0:0:
399,94,63929,1,0,0:0:0:0:
400,94,64010,1,0,0:0:0:0:
387,63,64091,1,8,0:0:0:0:
400,94,64172,1,8,0:0:0:0:
400,94,64253,1,0,0:0:0:0:
381,62,64334,1,8,0:0:0:0:
400,94,64415,1,8,0:0:0:0:
400,94,64496,1,0,0:0:0:0:
386,68,64577,1,8,0:0:0:0:
399,94,64631,1,0,0:0:0:0:
334,113,64685,1,0,0:0:0:0:
386,80,64739,1,8,0:0:0:0:
376,93,66037,1,0,0:0:0:0:
376,93,66118,1,0,0:0:0:0:
414,95,66199,1,12,0:0:0:0:
396,86,66361,1,0,0:0:0:0:
396,86,66523,1,8,0:0:0:0:
396,86,66685,1,0,0:0:0:0:
395,80,66767,1,8,0:0:0:0:
396,86,66929,1,0,0:0:0:0:
396,86,67010,1,8,0:0:0:0:
396,86,67172,1,0,0:0:0:0:
396,86,67253,1,0,0:0:0:0:
396,86,67334,1,8,0:0:0:0:
396,86,67496,1,0,0:0:0:0:
395,80,67577,1,8,0:0:0:0:
395,80,67658,1,8,0:0:0:0:
396,86,67821,1,8,0:0:0:0:
396,86,67902,1,0,0:0:0:0:
396,86,68064,1,8,0:0:0:0:
396,86,68145,1,8,0:0:0:0:
396,86,68307,1,0,0:0:0:0:
396,86,68388,1,8,0:0:0:0:
395,80,68469,1,8,0:0:0:0:
396,86,68631,1,0,0:0:0:0:
396,86,68794,1,8,0:0:0:0:
378,75,68956,1,0,0:0:0:0:
379,75,69118,1,8,0:0:0:0:
371,81,69280,1,0,0:0:0:0:
371,81,69361,1,8,0:0:0:0:
371,81,69523,1,0,0:0:0:0:
371,81,69604,1,8,0:0:0:0:
372,81,69767,1,0,0:0:0:0:
372,81,69848,1,0,0:0:0:0:
372,81,69929,1,8,0:0:0:0:
371,81,70091,1,0,0:0:0:0:
371,81,70172,1,8,0:0:0:0:
371,81,70253,1,8,0:0:0:0:
371,81,70415,1,0,0:0:0:0:
372,81,70496,1,8,0:0:0:0:
372,81,70658,1,8,0:0:0:0:
372,81,70739,1,0,0:0:0:0:
371,81,70902,1,0,0:0:0:0:
371,81,71064,1,8,0:0:0:0:
371,81,71226,1,0,0:0:0:0:
372,81,71388,1,8,0:0:0:0:
372,81,71550,1,0,0:0:0:0:
428,72,71631,1,0,0:0:0:0:
415,73,71712,1,8,0:0:0:0:
415,73,71875,1,0,0:0:0:0:
409,74,71956,1,8,0:0:0:0:
358,84,72118,1,0,0:0:0:0:
409,74,72199,1,8,0:0:0:0:
390,75,72361,1,0,0:0:0:0:
390,75,72523,1,8,0:0:0:0:
390,75,72604,1,0,0:0:0:0:
390,75,72685,1,0,0:0:0:0:
390,75,72848,1,8,0:0:0:0:
390,75,73010,1,0,0:0:0:0:
390,75,73091,1,8,0:0:0:0:
392,58,73253,1,0,0:0:0:0:
392,58,73334,1,8,0:0:0:0:
399,52,73496,1,0,0:0:0:0:
399,52,73577,1,0,0:0:0:0:
399,52,73658,1,8,0:0:0:0:
399,52,73739,1,0,0:0:0:0:
399,52,73821,1,0,0:0:0:0:
399,52,73902,1,0,0:0:0:0:
399,52,73983,1,8,0:0:0:0:
399,52,74145,1,0,0:0:0:0:
399,52,74226,1,0,0:0:0:0:
399,52,74307,1,8,0:0:0:0:
399,52,74469,1,8,0:0:0:0:
399,52,74631,1,0,0:0:0:0:
399,52,74712,1,8,0:0:0:0:
382,37,74875,1,0,0:0:0:0:
382,37,74956,1,8,0:0:0:0:
382,37,75118,1,0,0:0:0:0:
381,43,75280,1,8,0:0:0:0:
381,43,75442,1,0,0:0:0:0:
381,43,75523,1,8,0:0:0:0:
382,37,75767,1,8,0:0:0:0:
382,37,75929,1,0,0:0:0:0:
368,34,76091,1,8,0:0:0:0:
368,34,76253,1,8,0:0:0:0:
368,34,76334,1,8,0:0:0:0:
368,34,76415,1,0,0:0:0:0:
368,34,76496,1,0,0:0:0:0:
370,35,76577,1,8,0:0:0:0:
361,93,76739,1,0,0:0:0:0:
361,93,76902,1,8,0:0:0:0:
361,93,77064,1,0,0:0:0:0:
361,93,77145,1,8,0:0:0:0:
361,93,77226,1,0,0:0:0:0:
361,93,77307,1,0,0:0:0:0:
361,93,77388,1,8,0:0:0:0:
375,91,77550,1,0,0:0:0:0:
375,91,77631,1,0,0:0:0:0:
375,91,77712,1,8,0:0:0:0:
374,90,77794,1,0,0:0:0:0:
374,90,77875,1,8,0:0:0:0:
374,90,78037,1,0,0:0:0:0:
374,90,78199,1,8,0:0:0:0:
374,90,78280,1,0,0:0:0:0:
375,91,78361,1,8,0:0:0:0:
375,91,78442,1,8,0:0:0:0:
375,91,78523,1,0,0:0:0:0:
374,90,78685,1,8,0:0:0:0:
374,90,78848,1,0,0:0:0:0:
374,90,78929,1,8,0:0:0:0:
374,90,79010,1,0,0:0:0:0:
374,90,79172,1,8,0:0:0:0:
375,91,79334,1,0,0:0:0:0:
374,90,79496,1,8,0:0:0:0:
374,90,79577,1,0,0:0:0:0:
374,90,79658,1,0,0:0:0:0:
374,90,79739,1,8,0:0:0:0:
374,90,79902,1,0,0:0:0:0:
374,90,79983,1,8,0:0:0:0:
375,91,80064,1,8,0:0:0:0:
375,91,80145,1,0,0:0:0:0:
374,90,80307,1,8,0:0:0:0:
432,62,80361,1,8,0:0:0:0:
432,62,80415,1,8,0:0:0:0:
432,62,80469,1,0,0:0:0:0:
405,68,80631,1,8,0:0:0:0:
405,68,80794,1,0,0:0:0:0:
404,68,80875,1,8,0:0:0:0:
404,68,81037,1,0,0:0:0:0:
404,68,81118,1,8,0:0:0:0:
404,68,81280,1,0,0:0:0:0:
405,68,81442,1,8,0:0:0:0:
405,68,81604,1,0,0:0:0:0:
404,68,81767,1,8,0:0:0:0:
404,68,81848,1,8,0:0:0:0:
404,68,81929,1,0,0:0:0:0:
404,68,82010,1,0,0:0:0:0:
404,68,82091,1,8,0:0:0:0:
405,68,82253,1,0,0:0:0:0:
405,68,82334,1,8,0:0:0:0:
405,68,82415,1,0,0:0:0:0:
404,68,82496,1,0,0:0:0:0:
404,68,82577,1,8,0:0:0:0:
404,68,82739,1,0,0:0:0:0:
404,68,82821,1,0,0:0:0:0:
404,68,82902,1,8,0:0:0:0:
405,68,82983,1,8,0:0:0:0:
405,68,83064,1,0,0:0:0:0:
405,68,83226,1,8,0:0:0:0:
404,68,83388,1,0,0:0:0:0:
404,68,83469,1,8,0:0:0:0:
404,68,83550,1,0,0:0:0:0:
404,68,83631,1,0,0:0:0:0:
404,68,83712,1,8,0:0:0:0:
405,68,83875,1,0,0:0:0:0:
405,68,83956,1,0,0:0:0:0:
405,68,84037,1,8,0:0:0:0:
405,68,84118,1,8,0:0:0:0:
404,68,84199,1,0,0:0:0:0:
404,68,84361,1,8,0:0:0:0:
404,68,84442,1,0,0:0:0:0:
404,68,84523,1,0,0:0:0:0:
405,68,84604,1,0,0:0:0:0:
405,68,84685,1,8,0:0:0:0:
405,68,84767,1,0,0:0:0:0:
405,68,84848,1,8,0:0:0:0:
405,68,84929,1,0,0:0:0:0:
407,57,85010,1,0,0:0:0:0:
407,57,85091,1,8,0:0:0:0:
407,57,85172,1,0,0:0:0:0:
407,57,85253,1,0,0:0:0:0:
407,57,85334,1,8,0:0:0:0:
407,57,85415,1,8,0:0:0:0:
407,57,85496,1,0,0:0:0:0:
422,95,85577,1,0,0:0:0:0:
400,78,86794,1,0,0:0:0:0:
400,78,86875,1,0,0:0:0:0:
400,78,86956,1,12,0:0:0:0:
401,70,87280,1,8,0:0:0:0:
400,78,87361,1,0,0:0:0:0:
400,78,87442,1,0,0:0:0:0:
400,78,87604,1,8,0:0:0:0:
400,78,87685,1,8,0:0:0:0:
400,78,87767,1,0,0:0:0:0:
397,61,87848,1,8,0:0:0:0:
403,83,87929,1,8,0:0:0:0:
397,61,88010,1,0,0:0:0:0:
397,61,88091,1,8,0:0:0:0:
404,70,88253,1,8,0:0:0:0:
404,70,88334,1,0,0:0:0:0:
404,70,88415,1,0,0:0:0:0:
409,69,88496,1,8,0:0:0:0:
409,69,88577,1,0,0:0:0:0:
409,69,88658,1,0,0:0:0:0:
409,69,88739,1,8,0:0:0:0:
409,69,88902,1,0,0:0:0:0:
409,69,88983,1,0,0:0:0:0:
404,70,89064,1,8,0:0:0:0:
404,70,89145,1,8,0:0:0:0:
404,70,89226,1,0,0:0:0:0:
409,69,89388,1,0,0:0:0:0:
409,69,89550,1,8,0:0:0:0:
409,69,89712,1,0,0:0:0:0:
409,69,89794,1,0,0:0:0:0:
404,70,89875,1,8,0:0:0:0:
408,57,89956,1,0,0:0:0:0:
404,70,90037,1,0,0:0:0:0:
367,60,90199,1,8,0:0:0:0:
409,69,90280,1,0,0:0:0:0:
409,69,90361,1,8,0:0:0:0:
385,60,90442,1,8,0:0:0:0:
385,61,90523,1,0,0:0:0:0:
385,61,90604,1,0,0:0:0:0:
385,61,90685,1,8,0:0:0:0:
385,61,90848,1,0,0:0:0:0:
392,65,90929,1,8,0:0:0:0:
392,65,91010,1,0,0:0:0:0:
392,65,91091,1,8,0:0:0:0:
392,65,91172,1,8,0:0:0:0:
392,65,91253,1,0,0:0:0:0:
392,65,91334,1,8,0:0:0:0:
445,65,91415,1,0,0:0:0:0:
392,65,91496,1,8,0:0:0:0:
392,65,91658,1,0,0:0:0:0:
324,94,91712,1,0,0:0:0:0:
356,92,91767,1,0,0:0:0:0:
356,92,91821,1,8,0:0:0:0:
411,61,91983,1,0,0:0:0:0:
412,75,92037,1,0,0:0:0:0:
411,75,92091,1,0,0:0:0:0:
412,75,92145,1,8,0:0:0:0:
396,73,92307,1,0,0:0:0:0:
396,73,92388,1,0,0:0:0:0:
396,73,92469,1,8,0:0:0:0:
396,73,92631,1,8,0:0:0:0:
396,73,92712,1,0,0:0:0:0:
396,73,92794,1,8,0:0:0:0:
396,73,92875,1,0,0:0:0:0:
396,73,92956,1,0,0:0:0:0:
396,73,93037,1,8,0:0:0:0:
396,73,93118,1,0,0:0:0:0:
396,73,93199,1,0,0:0:0:0:
396,73,93280,1,8,0:0:0:0:
396,73,93442,1,0,0:0:0:0:
396,73,93523,1,0,0:0:0:0:
396,73,93604,1,8,0:0:0:0:
396,73,93767,1,8,0:0:0:0:
396,73,93848,1,0,0:0:0:0:
396,73,93929,1,8,0:0:0:0:
396,73,94010,1,8,0:0:0:0:
396,73,94091,1,0,0:0:0:0:
396,73,94172,1,8,0:0:0:0:
396,73,94253,1,8,0:0:0:0:
396,73,94334,1,0,0:0:0:0:
400,67,94415,1,0,0:0:0:0:
400,67,94577,1,0,0:0:0:0:
403,71,94739,1,8,0:0:0:0:
403,71,94902,1,0,0:0:0:0:
403,71,94983,1,0,0:0:0:0:
403,71,95064,1,8,0:0:0:0:
403,71,95145,1,8,0:0:0:0:
400,67,95226,1,0,0:0:0:0:
400,67,95388,1,8,0:0:0:0:
400,67,95469,1,0,0:0:0:0:
403,71,95550,1,0,0:0:0:0:
403,71,95631,1,8,0:0:0:0:
403,71,95712,1,0,0:0:0:0:
403,71,95794,1,0,0:0:0:0:
403,71,95875,1,8,0:0:0:0:
403,71,95956,1,0,0:0:0:0:
403,71,96037,1,8,0:0:0:0:
400,67,96199,1,0,0:0:0:0:
400,67,96280,1,8,0:0:0:0:
403,71,96361,1,0,0:0:0:0:
403,71,96442,1,0,0:0:0:0:
407,62,96523,1,8,0:0:0:0:
403,71,96685,1,0,0:0:0:0:
403,71,96767,1,0,0:0:0:0:
406,64,96848,1,8,0:0:0:0:
406,64,97010,1,8,0:0:0:0:
406,64,97091,1,0,0:0:0:0:
407,62,97172,1,8,0:0:0:0:
407,62,97334,1,12,0:0:0:0:
406,64,97658,1,8,0:0:0:0:
406,64,97739,1,0,0:0:0:0:
406,64,97821,1,8,0:0:0:0:
406,64,97902,1,8,0:0:0:0:
403,68,97983,1,0,0:0:0:0:
403,69,98145,1,8,0:0:0:0:
406,64,98226,1,8,0:0:0:0:
406,64,98307,1,0,0:0:0:0:
406,64,98388,1,0,0:0:0:0:
406,64,98469,1,8,0:0:0:0:
406,64,98631,1,0,0:0:0:0:
406,64,98794,1,8,0:0:0:0:
403,69,98875,1,0,0:0:0:0:
403,69,98956,1,0,0:0:0:0:
406,64,99118,1,8,0:0:0:0:
406,64,99280,1,0,0:0:0:0:
406,64,99361,1,8,0:0:0:0:
406,64,99442,1,0,0:0:0:0:
406,64,99523,1,8,0:0:0:0:
406,64,99604,1,8,0:0:0:0:
406,64,99685,1,0,0:0:0:0:
403,69,99767,1,0,0:0:0:0:
403,72,99929,1,12,0:0:0:0:
406,64,100253,1,8,0:0:0:0:
406,64,100334,1,0,0:0:0:0:
406,64,100415,1,8,0:0:0:0:
406,64,100496,1,8,0:0:0:0:
406,64,100577,1,0,0:0:0:0:
403,72,100739,1,8,0:0:0:0:
406,64,100821,1,8,0:0:0:0:
406,64,100902,1,0,0:0:0:0:
406,64,100983,1,0,0:0:0:0:
406,64,101064,1,8,0:0:0:0:
406,64,101226,1,0,0:0:0:0:
406,64,101388,1,8,0:0:0:0:
406,64,101469,1,0,0:0:0:0:
403,72,101631,1,0,0:0:0:0:
406,64,101712,1,8,0:0:0:0:
406,64,101794,1,8,0:0:0:0:
406,64,101875,1,0,0:0:0:0:
406,64,102037,1,8,0:0:0:0:
406,64,102199,1,0,0:0:0:0:
406,64,102280,1,0,0:0:0:0:
403,72,102361,1,8,0:0:0:0:
451,49,102415,1,8,0:0:0:0:
451,49,102469,1,8,0:0:0:0:
451,49,102523,1,0,0:0:0:0:
415,59,102685,1,8,0:0:0:0:
413,60,102767,1,0,0:0:0:0:
412,60,102848,1,0,0:0:0:0:
412,60,102929,1,8,0:0:0:0:
412,60,103010,1,0,0:0:0:0:
412,60,103091,1,0,0:0:0:0:
412,60,103172,1,8,0:0:0:0:
412,60,103253,1,0,0:0:0:0:
415,59,103334,1,0,0:0:0:0:
415,59,103415,1,8,0:0:0:0:
415,59,103496,1,0,0:0:0:0:
414,68,103577,1,8,0:0:0:0:
414,68,103658,1,0,0:0:0:0:
414,68,103739,1,8,0:0:0:0:
432,70,103821,1,8,0:0:0:0:
414,68,103902,1,0,0:0:0:0:
414,68,103983,1,8,0:0:0:0:
432,70,104064,1,8,0:0:0:0:
414,68,104145,1,0,0:0:0:0:
414,68,104226,1,8,0:0:0:0:
431,70,104307,1,8,0:0:0:0:
414,68,104388,1,0,0:0:0:0:
407,75,104469,1,8,0:0:0:0:
407,75,104550,1,8,0:0:0:0:
407,75,104631,1,0,0:0:0:0:
407,75,104685,1,0,0:0:0:0:
340,94,104739,1,0,0:0:0:0:
424,58,104794,1,8,0:0:0:0:
396,80,104956,1,0,0:0:0:0:
396,80,105010,1,0,0:0:0:0:
396,80,105064,1,0,0:0:0:0:
396,80,105118,1,8,0:0:0:0:
408,63,105280,1,8,0:0:0:0:
408,63,105442,1,0,0:0:0:0:
408,63,105604,1,0,0:0:0:0:
408,63,105767,1,0,0:0:0:0:
408,63,105848,1,0,0:0:0:0:
408,63,105929,1,0,0:0:0:0:
408,63,106010,1,0,0:0:0:0:
408,63,106091,1,8,0:0:0:0:
408,63,106172,1,8,0:0:0:0:
408,63,106253,1,8,0:0:0:0:
408,63,106334,1,8,0:0:0:0:
278,133,107388,1,0,0:0:0:0:
347,102,107712,1,12,0:0:0:0:
194,188,108037,2,0,L|239:173,26,28
294,84,110307,5,0,0:0:0:0:
294,84,110388,1,0,0:0:0:0:
294,84,110469,1,8,0:0:0:0:
294,84,110794,1,0,0:0:0:0:
294,84,110875,1,0,0:0:0:0:
294,84,110956,1,8,0:0:0:0:
294,84,111280,1,0,0:0:0:0:
294,84,111361,1,0,0:0:0:0:
294,84,111442,1,8,0:0:0:0:
294,84,111767,1,8,0:0:0:0:
294,84,111929,1,12,0:0:0:0:
