osu file format v14

[General]
AudioFilename: audio.mp3
AudioLeadIn: 0
PreviewTime: 66197
Countdown: 0
SampleSet: Normal
StackLeniency: 0.2
Mode: 1
LetterboxInBreaks: 0
WidescreenStoryboard: 1

[Editor]
Bookmarks: 3929,14307,35064,55821,66199,86956,107712
DistanceSpacing: 1
BeatDivisor: 2
GridSize: 32
TimelineZoom: 2.399999

[Metadata]
Title:Twin Rocket
TitleUnicode:Twin Rocket
Artist:uno feat. Chiyoko (IOSYS)
ArtistUnicode:uno feat. ちよこ (IOSYS)
Creator:Genjuro
Version:Kantan
Source:SOUND VOLTEX III GRAVITY WARS
Tags:electronic instrumental rhythm video game sdvx konami bemani near noah 第一回ボルテキャラテーマ曲コンテスト first character theme song contest nifty
BeatmapID:2260939
BeatmapSetID:1080416

[Difficulty]
HPDrainRate:8
CircleSize:2
OverallDifficulty:3
ApproachRate:10
SliderMultiplier:1.4
SliderTickRate:1

[Events]
//Background and Video events
0,0,"bg.jpg",0,-69
//Break Periods
//Storyboard Layer 0 (Background)
//Storyboard Layer 1 (Fail)
//Storyboard Layer 2 (Pass)
//Storyboard Layer 3 (Foreground)
//Storyboard Layer 4 (Overlay)
//Storyboard Sound Samples

[TimingPoints]
-1260,324.324324324324,4,1,0,80,1,0
66199,-100,4,1,0,80,0,1
70739,-100,4,1,0,80,0,0
71388,-100,4,1,0,80,0,1
76091,-100,4,1,0,80,0,0
76577,-100,4,1,0,80,0,1
85658,-100,4,1,0,80,0,0
87280,-100,4,1,0,80,0,1
97334,-100,4,1,0,80,0,0
97658,-100,4,1,0,80,0,1
99929,-100,4,1,0,80,0,0
100253,-100,4,1,0,80,0,1
106415,-100,4,1,0,80,0,0

[HitObjects]
256,192,1334,5,12,0:0:0:0:
256,192,2469,1,4,0:0:0:0:
256,192,3929,1,8,0:0:0:0:
256,192,5064,1,0,0:0:0:0:
256,192,6523,1,8,0:0:0:0:
256,192,7658,1,0,0:0:0:0:
256,192,9118,1,8,0:0:0:0:
256,192,9767,1,8,0:0:0:0:
256,192,10253,1,0,0:0:0:0:
256,192,11064,1,0,0:0:0:0:
256,192,11712,1,8,0:0:0:0:
256,192,12037,1,0,0:0:0:0:
256,192,12361,1,8,0:0:0:0:
256,192,12685,1,8,0:0:0:0:
256,192,13010,1,0,0:0:0:0:
256,192,14307,1,12,0:0:0:0:
256,192,14956,1,0,0:0:0:0:
256,192,15604,1,0,0:0:0:0:
256,192,15929,1,8,0:0:0:0:
256,192,16253,1,0,0:0:0:0:
256,192,16902,1,0,0:0:0:0:
256,192,17550,1,8,0:0:0:0:
256,192,17875,1,8,0:0:0:0:
256,192,18199,1,0,0:0:0:0:
256,192,19496,1,12,0:0:0:0:
256,192,20145,1,0,0:0:0:0:
256,192,20794,1,0,0:0:0:0:
256,192,21118,1,8,0:0:0:0:
256,192,21442,1,0,0:0:0:0:
256,192,22091,1,8,0:0:0:0:
256,192,22739,1,8,0:0:0:0:
256,192,24685,1,12,0:0:0:0:
256,192,25334,1,0,0:0:0:0:
256,192,25983,1,0,0:0:0:0:
256,192,26631,1,0,0:0:0:0:
256,192,26956,1,8,0:0:0:0:
256,192,27280,1,0,0:0:0:0:
256,192,27929,1,0,0:0:0:0:
256,192,28577,1,0,0:0:0:0:
256,192,28902,1,8,0:0:0:0:
256,192,29226,1,0,0:0:0:0:
256,192,29550,1,8,0:0:0:0:
256,192,29875,1,0,0:0:0:0:
256,192,30523,1,0,0:0:0:0:
256,192,31172,1,8,0:0:0:0:
256,192,31658,1,8,0:0:0:0:
256,192,32469,1,0,0:0:0:0:
256,192,32794,1,0,0:0:0:0:
256,192,33118,1,8,0:0:0:0:
256,192,33442,1,8,0:0:0:0:
256,192,33767,1,0,0:0:0:0:
256,192,35064,1,8,0:0:0:0:
256,192,36199,1,0,0:0:0:0:
256,192,37658,1,8,0:0:0:0:
256,192,38794,1,0,0:0:0:0:
256,192,40253,1,8,0:0:0:0:
256,192,41388,1,0,0:0:0:0:
256,192,42848,1,8,0:0:0:0:
256,192,43821,1,8,0:0:0:0:
256,192,44145,1,0,0:0:0:0:
256,192,45442,1,12,0:0:0:0:
256,192,46577,1,4,0:0:0:0:
256,192,48037,1,12,0:0:0:0:
256,192,49172,1,4,0:0:0:0:
256,192,50631,1,12,0:0:0:0:
256,192,51767,1,4,0:0:0:0:
256,192,53226,1,4,0:0:0:0:
256,192,54523,1,0,0:0:0:0:
256,192,55821,1,0,0:0:0:0:
256,192,56469,1,8,0:0:0:0:
256,192,56794,1,8,0:0:0:0:
256,192,57118,1,0,0:0:0:0:
256,192,57767,1,8,0:0:0:0:
256,192,58415,1,0,0:0:0:0:
256,192,58739,1,0,0:0:0:0:
256,192,59064,1,8,0:0:0:0:
256,192,59712,1,0,0:0:0:0:
256,192,60361,1,8,0:0:0:0:
256,192,61010,1,0,0:0:0:0:
256,192,61334,1,0,0:0:0:0:
256,192,61658,1,8,0:0:0:0:
256,192,61983,1,0,0:0:0:0:
256,192,62307,1,8,0:0:0:0:
256,192,62631,1,8,0:0:0:0:
256,192,62956,1,0,0:0:0:0:
256,192,63604,1,4,0:0:0:0:
256,192,64091,1,12,0:0:0:0:
256,192,64577,1,12,0:0:0:0:
256,192,66199,1,12,0:0:0:0:
256,192,66848,1,8,0:1:0:0:
256,192,67334,1,0,0:0:0:0:
256,192,67821,1,0,0:0:0:0:
256,192,68145,1,8,0:0:0:0:
256,192,68794,1,8,0:0:0:0:
256,192,69442,1,0,0:0:0:0:
256,192,69929,1,8,0:0:0:0:
256,192,70739,1,0,0:0:0:0:
256,192,71388,1,8,0:0:0:0:
256,192,72037,1,8,0:0:0:0:
256,192,72523,1,0,0:0:0:0:
256,192,73010,1,0,0:0:0:0:
256,192,73334,1,8,0:0:0:0:
256,192,73983,1,0,0:0:0:0:
256,192,74469,1,8,0:0:0:0:
256,192,75280,1,0,0:0:0:0:
256,192,75767,1,8,0:0:0:0:
256,192,76577,1,12,0:0:0:0:
256,192,77550,1,0,0:0:0:0:
256,192,77875,1,8,0:0:0:0:
256,192,78361,1,8,0:0:0:0:
256,192,78848,1,8,0:0:0:0:
256,192,79172,1,0,0:0:0:0:
256,192,79658,1,8,0:0:0:0:
256,192,80145,1,8,0:0:0:0:
256,192,80469,1,0,0:0:0:0:
256,192,81118,1,0,0:0:0:0:
256,192,81767,1,8,0:0:0:0:
256,192,82253,1,0,0:0:0:0:
256,192,82739,1,8,0:0:0:0:
256,192,83064,1,0,0:0:0:0:
256,192,83712,1,0,0:0:0:0:
256,192,84361,1,8,0:0:0:0:
256,192,84848,1,8,0:0:0:0:
256,192,85334,1,0,0:0:0:0:
256,192,86956,1,12,0:0:0:0:
256,192,87604,1,8,0:0:0:0:
256,192,88253,1,0,0:0:0:0:
256,192,88577,1,8,0:0:0:0:
256,192,88902,1,0,0:0:0:0:
256,192,89550,1,8,0:0:0:0:
256,192,90199,1,8,0:0:0:0:
256,192,90848,1,0,0:0:0:0:
256,192,91172,1,8,0:0:0:0:
256,192,91496,1,0,0:0:0:0:
256,192,91821,1,0,0:0:0:0:
256,192,92145,1,8,0:0:0:0:
256,192,92794,1,8,0:0:0:0:
256,192,93442,1,0,0:0:0:0:
256,192,93767,1,8,0:0:0:0:
256,192,94091,1,0,0:0:0:0:
256,192,94739,1,8,0:0:0:0:
256,192,95388,1,8,0:0:0:0:
256,192,96037,1,0,0:0:0:0:
256,192,97334,1,12,0:0:0:0:
256,192,97983,1,8,0:0:0:0:
256,192,98307,1,0,0:0:0:0:
256,192,98631,1,8,0:0:0:0:
256,192,99280,1,0,0:0:0:0:
256,192,99929,1,12,0:0:0:0:
256,192,100577,1,8,0:0:0:0:
256,192,100902,1,8,0:0:0:0:
256,192,101226,1,8,0:0:0:0:
256,192,101875,1,8,0:0:0:0:
256,192,102523,12,0,104469,0:0:0:0:
256,192,105118,5,0,0:0:0:0:
256,192,105442,1,8,0:0:0:0:
256,192,105767,1,0,0:0:0:0:
256,192,106091,1,0,0:0:0:0:
256,192,107712,1,12,0:0:0:0:
256,192,110307,1,0,0:0:0:0:
256,192,110794,1,0,0:0:0:0:
256,192,111280,1,0,0:0:0:0:
256,192,111929,1,12,0:0:0:0:
