osu file format v14

[General]
AudioFilename: audio.mp3
AudioLeadIn: 0
PreviewTime: 65977
Countdown: 0
SampleSet: Normal
StackLeniency: 0.7
Mode: 1
LetterboxInBreaks: 0
WidescreenStoryboard: 1

[Editor]
Bookmarks: 3869
DistanceSpacing: 0.5
BeatDivisor: 4
GridSize: 32
TimelineZoom: 2

[Metadata]
Title:Twin Rocket
TitleUnicode:Twin Rocket
Artist:uno feat. Chiyoko (IOSYS)
ArtistUnicode:uno feat. Chiyoko (IOSYS)
Creator:[Belajar-Osu]
Version:Muzukashii
Source:SOUND VOLTEX III GRAVITY WARS
Tags:KONAMI BEMANI SDVX near noah 第一回ボルテキャラテーマ曲コンテスト VOLTEX Character Theme First Contest
BeatmapID:1982957
BeatmapSetID:948509

[Difficulty]
HPDrainRate:6
CircleSize:5
OverallDifficulty:4
ApproachRate:5
SliderMultiplier:1.4
SliderTickRate:1

[Events]
//Background and Video events
0,0,"BG.jpg",0,0
//Break Periods
//Storyboard Layer 0 (Background)
//Storyboard Layer 1 (Fail)
//Storyboard Layer 2 (Pass)
//Storyboard Layer 3 (Foreground)
//Storyboard Sound Samples

[TimingPoints]
1437,324.324324324324,4,1,0,70,1,0
66301,-100,4,1,0,70,0,1
85761,-100,4,1,0,70,0,0
102464,-100,4,1,0,70,0,1
107815,-100,4,1,0,70,0,0

[HitObjects]
336,240,1437,5,4,0:0:0:0:
282,177,1923,1,8,0:0:0:0:
282,177,2085,1,0,0:0:0:0:
282,177,2247,1,8,0:0:0:0:
336,240,2572,1,4,0:0:0:0:
336,240,2896,1,4,0:0:0:0:
336,240,3058,1,4,0:0:0:0:
336,240,3220,1,8,0:0:0:0:
336,240,4031,1,0,0:0:0:0:
336,240,4355,1,0,0:0:0:0:
336,240,4842,1,8,0:0:0:0:
336,240,5166,1,0,0:0:0:0:
336,240,5491,1,0,0:0:0:0:
336,240,5815,1,0,0:0:0:0:
336,240,5977,1,0,0:0:0:0:
336,240,6301,1,0,0:0:0:0:
336,240,6626,1,8,0:0:0:0:
336,240,6950,1,8,0:0:0:0:
336,240,7436,1,8,0:0:0:0:
336,240,7761,1,0,0:0:0:0:
336,240,8085,1,8,0:0:0:0:
336,240,8247,1,0,0:0:0:0:
336,240,8409,1,8,0:0:0:0:
336,240,8572,1,8,0:0:0:0:
336,240,8896,1,0,0:0:0:0:
336,240,9220,1,8,0:0:0:0:
336,240,9382,1,0,0:0:0:0:
336,240,9545,1,8,0:0:0:0:
336,240,10031,1,8,0:0:0:0:
336,240,10355,1,0,0:0:0:0:
336,240,10680,1,8,0:0:0:0:
336,240,11004,1,8,0:0:0:0:
336,240,11166,1,8,0:0:0:0:
336,240,11247,1,8,0:0:0:0:
336,240,11328,1,8,0:0:0:0:
336,240,11491,1,0,0:0:0:0:
336,240,11815,1,8,0:0:0:0:
336,240,11977,1,0,0:0:0:0:
336,240,12139,1,8,0:0:0:0:
336,240,12301,1,8,0:0:0:0:
336,240,12626,1,8,0:0:0:0:
336,240,12788,1,8,0:0:0:0:
336,240,13112,1,8,0:0:0:0:
336,240,13274,1,0,0:0:0:0:
336,240,13436,1,8,0:0:0:0:
336,240,13599,1,8,0:0:0:0:
336,240,13761,1,0,0:0:0:0:
336,240,14409,1,4,0:0:0:0:
336,240,14734,1,8,0:0:0:0:
239,200,14896,1,0,0:0:0:0:
239,200,15220,1,0,0:0:0:0:
239,200,15382,1,8,0:0:0:0:
239,200,15707,1,0,0:0:0:0:
239,200,15869,1,0,0:0:0:0:
239,200,16031,1,8,0:0:0:0:
239,200,16355,1,0,0:0:0:0:
239,200,16518,1,8,0:0:0:0:
239,200,16680,1,8,0:0:0:0:
239,200,16842,1,0,0:0:0:0:
239,200,17328,1,8,0:0:0:0:
239,200,17491,1,0,0:0:0:0:
239,200,17653,1,0,0:0:0:0:
239,200,17815,1,0,0:0:0:0:
239,200,17896,1,0,0:0:0:0:
239,200,17977,1,0,0:0:0:0:
239,200,18301,1,8,0:0:0:0:
239,200,18545,1,8,0:0:0:0:
239,200,18788,1,8,0:0:0:0:
239,200,18950,1,0,0:0:0:0:
239,200,19112,1,0,0:0:0:0:
239,200,19274,1,8,0:0:0:0:
239,200,19599,1,4,0:0:0:0:
239,200,19923,1,8,0:0:0:0:
239,200,20085,1,0,0:0:0:0:
239,200,20409,1,0,0:0:0:0:
239,200,20572,1,8,0:0:0:0:
239,200,20896,1,8,0:0:0:0:
239,200,21058,1,0,0:0:0:0:
239,200,21220,1,8,0:0:0:0:
239,200,21545,1,0,0:0:0:0:
239,200,21707,1,0,0:0:0:0:
239,200,21869,1,8,0:0:0:0:
239,200,22355,1,8,0:0:0:0:
239,200,22518,1,0,0:0:0:0:
239,200,22680,1,8,0:0:0:0:
239,200,22842,1,0,0:0:0:0:
239,200,23004,1,8,0:0:0:0:
239,200,23085,1,8,0:0:0:0:
239,200,23166,1,8,0:0:0:0:
239,200,23328,1,8,0:0:0:0:
267,182,23491,6,0,L|251:146,6,35
239,200,24139,1,8,0:0:0:0:
239,200,24788,1,12,0:0:0:0:
239,200,25112,1,8,0:0:0:0:
239,200,25274,1,0,0:0:0:0:
239,200,25599,1,0,0:0:0:0:
239,200,25761,1,8,0:0:0:0:
239,200,26085,1,8,0:0:0:0:
239,200,26247,1,0,0:0:0:0:
239,200,26409,1,8,0:0:0:0:
239,200,26734,1,4,0:0:0:0:
239,200,27058,1,4,0:0:0:0:
239,200,27382,1,8,0:0:0:0:
239,200,27545,1,0,0:0:0:0:
239,200,27869,1,8,0:0:0:0:
239,200,28031,1,0,0:0:0:0:
239,200,28193,1,0,0:0:0:0:
239,200,28355,1,8,0:0:0:0:
239,200,28680,1,0,0:0:0:0:
239,200,28788,1,0,0:0:0:0:
239,200,28896,1,0,0:0:0:0:
239,200,29004,1,0,0:0:0:0:
239,200,29328,1,0,0:0:0:0:
239,200,29436,1,0,0:0:0:0:
239,200,29545,1,0,0:0:0:0:
239,200,29653,1,0,0:0:0:0:
239,200,30139,1,8,0:0:0:0:
239,200,30464,1,0,0:0:0:0:
239,200,30626,1,0,0:0:0:0:
239,200,30788,1,8,0:0:0:0:
239,200,31112,1,8,0:0:0:0:
239,200,31274,1,0,0:0:0:0:
239,200,31436,1,8,0:0:0:0:
239,200,31761,1,0,0:0:0:0:
239,200,31923,1,0,0:0:0:0:
239,200,32085,1,8,0:0:0:0:
239,200,32409,1,8,0:0:0:0:
239,200,32734,1,0,0:0:0:0:
239,200,32815,1,0,0:0:0:0:
239,200,32896,1,0,0:0:0:0:
239,200,33058,1,8,0:0:0:0:
239,200,33220,1,0,0:0:0:0:
239,200,33382,1,8,0:0:0:0:
239,200,33545,1,0,0:0:0:0:
239,200,33707,1,8,0:0:0:0:
239,200,33869,1,8,0:0:0:0:
239,200,34518,1,0,0:0:0:0:
239,200,34680,1,0,0:0:0:0:
239,200,34842,1,8,0:0:0:0:
239,200,35004,1,0,0:0:0:0:
239,200,35166,1,0,0:0:0:0:
239,200,35491,1,0,0:0:0:0:
239,200,35815,1,0,0:0:0:0:
239,200,35977,1,8,0:0:0:0:
239,200,36301,1,0,0:0:0:0:
239,200,36626,1,8,0:0:0:0:
239,200,37112,1,8,0:0:0:0:
239,200,37436,1,8,0:0:0:0:
239,200,37599,1,8,0:0:0:0:
239,200,37761,1,0,0:0:0:0:
239,200,38085,1,0,0:0:0:0:
239,200,38409,1,0,0:0:0:0:
239,200,38572,1,8,0:0:0:0:
239,200,38896,1,0,0:0:0:0:
239,200,39220,1,8,0:0:0:0:
239,200,39545,1,8,0:0:0:0:
239,200,39707,1,0,0:0:0:0:
239,200,40031,1,0,0:0:0:0:
239,200,40355,1,8,0:0:0:0:
239,200,40680,1,8,0:0:0:0:
239,200,41004,1,0,0:0:0:0:
239,200,41166,1,8,0:0:0:0:
239,200,41491,1,0,0:0:0:0:
239,200,41815,1,8,0:0:0:0:
239,200,41977,1,0,0:0:0:0:
239,200,42139,1,8,0:0:0:0:
239,200,42301,1,8,0:0:0:0:
239,200,42788,1,0,0:0:0:0:
239,200,42950,1,8,0:0:0:0:
239,200,43274,1,0,0:0:0:0:
239,200,43436,1,8,0:0:0:0:
239,200,43761,1,8,0:0:0:0:
239,200,43923,1,8,0:0:0:0:
239,200,44247,1,0,0:0:0:0:
239,200,44896,1,8,0:0:0:0:
239,200,45058,1,0,0:0:0:0:
239,200,45220,1,8,0:0:0:0:
239,200,45545,1,4,0:0:0:0:
239,200,45869,1,4,0:0:0:0:
239,200,46193,1,4,0:0:0:0:
239,200,46355,1,12,0:0:0:0:
239,200,46680,1,4,0:0:0:0:
239,200,47004,1,8,0:0:0:0:
239,200,47247,1,0,0:0:0:0:
239,200,47491,1,8,0:0:0:0:
239,200,47815,1,8,0:0:0:0:
239,200,47977,1,8,0:0:0:0:
239,200,48139,1,4,0:0:0:0:
239,200,48464,1,4,0:0:0:0:
239,200,48788,1,12,0:0:0:0:
239,200,48950,1,12,0:0:0:0:
239,200,49274,1,4,0:0:0:0:
239,200,49599,1,8,0:0:0:0:
239,200,49842,1,0,0:0:0:0:
239,200,50085,1,8,0:0:0:0:
239,200,50409,1,8,0:0:0:0:
239,200,50491,1,8,0:0:0:0:
239,200,50572,1,8,0:0:0:0:
239,200,50734,1,4,0:0:0:0:
239,200,51058,1,4,0:0:0:0:
239,200,51382,1,4,0:0:0:0:
239,200,51545,1,12,0:0:0:0:
239,200,51869,1,4,0:0:0:0:
239,200,52193,1,0,0:0:0:0:
239,200,52436,1,0,0:0:0:0:
239,200,52680,1,8,0:0:0:0:
239,200,53004,1,8,0:0:0:0:
239,200,53085,1,8,0:0:0:0:
239,200,53166,1,8,0:0:0:0:
239,200,53328,1,4,0:0:0:0:
239,200,53653,1,12,0:0:0:0:
239,200,53815,1,4,0:0:0:0:
239,200,54139,1,4,0:0:0:0:
239,200,54301,1,12,0:0:0:0:
239,200,54626,1,8,0:0:0:0:
239,200,54788,1,0,0:0:0:0:
239,200,55112,1,0,0:0:0:0:
239,200,55274,1,8,0:0:0:0:
239,200,55923,1,0,0:0:0:0:
239,200,56409,1,0,0:0:0:0:
239,200,56734,1,0,0:0:0:0:
239,200,56896,1,8,0:0:0:0:
239,200,57220,1,0,0:0:0:0:
239,200,57707,1,8,0:0:0:0:
239,200,58031,1,0,0:0:0:0:
239,200,58193,1,8,0:0:0:0:
239,200,58518,1,0,0:0:0:0:
239,200,59004,1,0,0:0:0:0:
239,200,59328,1,0,0:0:0:0:
239,200,59491,1,8,0:0:0:0:
239,200,59815,1,8,0:0:0:0:
239,200,60139,1,0,0:0:0:0:
239,200,60301,1,8,0:0:0:0:
239,200,60626,1,0,0:0:0:0:
239,200,60788,1,8,0:0:0:0:
239,200,61112,1,8,0:0:0:0:
239,200,61436,1,0,0:0:0:0:
239,200,61599,1,8,0:0:0:0:
239,200,61923,1,8,0:0:0:0:
239,200,62085,1,8,0:0:0:0:
239,200,62409,1,8,0:0:0:0:
239,200,62734,1,8,0:0:0:0:
239,200,62896,1,8,0:0:0:0:
239,200,63220,1,0,0:0:0:0:
239,200,63382,1,8,0:0:0:0:
239,200,63707,1,4,0:0:0:0:
239,200,63950,1,4,0:0:0:0:
239,200,64193,1,12,0:0:0:0:
239,200,64436,1,4,0:0:0:0:
239,200,64680,1,12,0:0:0:0:
239,200,64842,1,12,0:0:0:0:
239,200,65977,5,8,0:0:0:0:
239,200,66139,1,8,0:0:0:0:
239,200,66301,1,4,0:0:0:0:
239,200,66626,1,8,0:0:0:0:
239,200,66869,1,0,0:0:0:0:
239,200,67112,1,8,0:0:0:0:
239,200,67436,1,0,0:0:0:0:
239,200,67680,1,0,0:0:0:0:
239,200,67761,1,8,0:0:0:0:
239,200,68004,1,0,0:0:0:0:
239,200,68247,1,8,0:0:0:0:
239,200,68896,1,4,0:0:0:0:
239,200,69220,1,8,0:0:0:0:
239,200,69464,1,0,0:0:0:0:
239,200,69707,1,8,0:0:0:0:
239,200,70031,1,8,0:0:0:0:
239,200,70355,1,8,0:0:0:0:
239,200,70599,1,8,0:0:0:0:
239,200,70680,1,0,0:0:0:0:
239,200,70842,1,0,0:0:0:0:
239,200,71166,1,8,0:0:0:0:
239,200,71491,1,4,0:0:0:0:
239,200,71815,1,8,0:0:0:0:
239,200,72058,1,0,0:0:0:0:
239,200,72301,1,8,0:0:0:0:
239,200,72544,1,0,0:0:0:0:
239,200,72625,1,0,0:0:0:0:
239,200,72950,1,8,0:0:0:0:
239,200,73193,1,0,0:0:0:0:
239,200,73436,1,8,0:0:0:0:
239,200,74085,1,4,0:0:0:0:
239,200,74409,1,4,0:0:0:0:
239,200,74572,1,12,0:0:0:0:
239,200,74815,1,4,0:0:0:0:
239,200,75058,1,12,0:0:0:0:
239,200,75382,1,4,0:0:0:0:
239,200,75626,1,12,0:0:0:0:
239,200,75869,1,4,0:0:0:0:
239,200,76193,1,4,0:0:0:0:
239,200,76355,1,8,0:0:0:0:
239,200,76436,1,8,0:0:0:0:
239,200,76518,1,8,0:0:0:0:
239,200,76680,1,4,0:0:0:0:
239,200,77004,1,8,0:0:0:0:
239,200,77247,1,8,0:0:0:0:
239,200,77490,1,8,0:0:0:0:
239,200,77733,1,0,0:0:0:0:
239,200,77814,1,0,0:0:0:0:
239,200,78058,1,0,0:0:0:0:
239,200,78139,1,8,0:0:0:0:
239,200,78382,1,0,0:0:0:0:
239,200,78625,1,8,0:0:0:0:
239,200,79274,1,4,0:0:0:0:
239,200,79599,1,8,0:0:0:0:
239,200,79842,1,0,0:0:0:0:
239,200,80085,1,8,0:0:0:0:
239,200,80247,1,0,0:0:0:0:
239,200,80410,1,8,0:0:0:0:
239,200,80491,1,8,0:0:0:0:
239,200,80572,1,8,0:0:0:0:
239,200,80734,1,8,0:0:0:0:
239,200,80977,1,8,0:0:0:0:
239,200,81220,1,4,0:0:0:0:
239,200,81545,1,8,0:0:0:0:
239,200,81869,1,4,0:0:0:0:
239,200,82193,1,8,0:0:0:0:
239,200,82436,1,8,0:0:0:0:
239,200,82679,1,8,0:0:0:0:
239,200,83004,1,0,0:0:0:0:
239,200,83085,1,0,0:0:0:0:
239,200,83328,1,8,0:0:0:0:
239,200,83409,1,0,0:0:0:0:
239,200,83572,1,8,0:0:0:0:
239,200,83814,1,8,0:0:0:0:
239,200,84301,1,8,0:0:0:0:
239,200,84382,1,8,0:0:0:0:
239,200,84464,1,8,0:0:0:0:
239,200,84788,1,4,0:0:0:0:
239,200,84951,1,12,0:0:0:0:
239,200,85194,1,4,0:0:0:0:
239,200,85437,1,12,0:0:0:0:
239,200,85761,1,0,0:0:0:0:
239,200,85923,1,0,0:0:0:0:
239,200,86085,1,8,0:0:0:0:
239,200,86247,1,0,0:0:0:0:
239,200,86409,1,0,0:0:0:0:
239,200,86491,1,0,0:0:0:0:
239,200,86572,1,0,0:0:0:0:
239,200,86734,1,8,0:0:0:0:
239,200,86896,1,8,0:0:0:0:
239,200,87058,1,4,0:0:0:0:
239,200,87382,1,8,0:0:0:0:
239,200,87545,1,0,0:0:0:0:
239,200,88031,1,0,0:0:0:0:
239,200,88193,1,8,0:0:0:0:
239,200,88518,1,0,0:0:0:0:
239,200,88680,1,8,0:0:0:0:
239,200,88842,1,8,0:0:0:0:
239,200,89166,1,0,0:0:0:0:
239,200,89328,1,0,0:0:0:0:
239,200,89491,1,8,0:0:0:0:
239,200,89653,1,4,0:0:0:0:
239,200,89977,1,8,0:0:0:0:
239,200,90139,1,0,0:0:0:0:
239,200,90626,1,8,0:0:0:0:
239,200,90788,1,8,0:0:0:0:
239,200,91112,1,0,0:0:0:0:
239,200,91274,1,8,0:0:0:0:
239,200,91436,1,8,0:0:0:0:
239,200,91761,1,0,0:0:0:0:
239,200,91842,1,0,0:0:0:0:
239,200,91923,1,0,0:0:0:0:
239,200,92085,1,8,0:0:0:0:
239,200,92166,1,8,0:0:0:0:
239,200,92247,1,8,0:0:0:0:
239,200,92572,1,8,0:0:0:0:
239,200,92734,1,8,0:0:0:0:
239,200,93220,1,0,0:0:0:0:
239,200,93382,1,8,0:0:0:0:
239,200,93707,1,8,0:0:0:0:
239,200,93869,1,0,0:0:0:0:
239,200,94031,1,8,0:0:0:0:
239,200,94355,1,8,0:0:0:0:
239,200,94518,1,0,0:0:0:0:
239,200,94680,1,8,0:0:0:0:
239,200,94842,1,4,0:0:0:0:
239,200,95166,1,0,0:0:0:0:
239,200,95328,1,8,0:0:0:0:
239,200,95815,1,0,0:0:0:0:
239,200,95977,1,8,0:0:0:0:
239,200,96139,1,4,0:0:0:0:
239,200,96382,1,4,0:0:0:0:
239,200,96626,1,12,0:0:0:0:
239,200,96950,1,4,0:0:0:0:
239,200,97112,1,8,0:0:0:0:
239,200,97274,1,8,0:0:0:0:
239,200,97436,1,4,0:0:0:0:
239,200,97761,1,8,0:0:0:0:
239,200,97923,1,0,0:0:0:0:
239,200,98409,1,8,0:0:0:0:
239,200,98572,1,0,0:0:0:0:
239,200,98734,1,4,0:0:0:0:
239,200,98977,1,4,0:0:0:0:
239,200,99220,1,12,0:0:0:0:
239,200,99545,1,4,0:0:0:0:
239,200,99707,1,8,0:0:0:0:
239,200,99869,1,8,0:0:0:0:
239,200,100031,1,4,0:0:0:0:
239,200,100355,1,8,0:0:0:0:
239,200,100517,1,0,0:0:0:0:
239,200,101003,1,8,0:0:0:0:
239,200,101166,1,8,0:0:0:0:
239,200,101328,1,4,0:0:0:0:
239,200,101571,1,4,0:0:0:0:
239,200,101814,1,12,0:0:0:0:
239,200,102139,1,4,0:0:0:0:
239,200,102301,1,8,0:0:0:0:
239,200,102464,1,8,0:0:0:0:
239,200,102545,1,8,0:0:0:0:
239,200,102626,1,8,0:0:0:0:
239,200,102788,1,8,0:0:0:0:
239,200,103031,1,8,0:0:0:0:
239,200,103274,1,8,0:0:0:0:
239,200,103518,1,8,0:0:0:0:
239,200,103842,1,0,0:0:0:0:
239,200,104085,1,0,0:0:0:0:
239,200,104328,1,0,0:0:0:0:
239,200,104572,1,0,0:0:0:0:
239,200,104734,1,8,0:0:0:0:
239,200,104815,1,8,0:0:0:0:
239,200,104896,1,8,0:0:0:0:
239,200,105058,1,0,0:0:0:0:
239,200,105139,1,0,0:0:0:0:
239,200,105220,1,0,0:0:0:0:
239,200,105382,1,8,0:0:0:0:
239,200,105545,1,8,0:0:0:0:
239,200,105869,1,0,0:0:0:0:
239,200,106031,1,8,0:0:0:0:
239,200,106193,1,8,0:0:0:0:
239,200,106274,1,8,0:0:0:0:
239,200,106355,1,8,0:0:0:0:
270,158,106518,2,0,L|326:156,6,35
239,200,107166,1,0,0:0:0:0:
239,200,107328,1,0,0:0:0:0:
239,200,107491,1,12,0:0:0:0:
239,200,107815,1,4,0:0:0:0:
239,200,109761,1,8,0:0:0:0:
239,200,109923,1,0,0:0:0:0:
239,200,110085,1,8,0:0:0:0:
239,200,110409,1,0,0:0:0:0:
239,200,110572,1,12,0:0:0:0:
239,200,110896,1,0,0:0:0:0:
239,200,111058,1,12,0:0:0:0:
239,200,111382,1,0,0:0:0:0:
239,200,111545,1,12,0:0:0:0:
239,200,111869,1,12,0:0:0:0:
239,200,112031,1,12,0:0:0:0:
