osu file format v14

[General]
AudioFilename: audio.mp3
AudioLeadIn: 0
PreviewTime: -1
Countdown: 0
SampleSet: None
StackLeniency: 0.7
Mode: 0
LetterboxInBreaks: 0
WidescreenStoryboard: 0

[Editor]
DistanceSpacing: 0.9
BeatDivisor: 4
GridSize: 4
TimelineZoom: 1

[Metadata]
Title:Crime And Investation Network Idents
TitleUnicode:Crime And Investation Network Idents
Artist:unknown
ArtistUnicode:unknown
Creator:despicablealex
Version:2006
Source:
Tags:
BeatmapID:1426113
BeatmapSetID:673927

[Difficulty]
HPDrainRate:9.7
CircleSize:6
OverallDifficulty:10
ApproachRate:8
SliderMultiplier:1.4
SliderTickRate:1

[Events]
//Background and Video events
Video,0,"Crime and Investigation Network Promos.mp4"
//Break Periods
//Storyboard Layer 0 (Background)
//Storyboard Layer 1 (Fail)
//Storyboard Layer 2 (Pass)
//Storyboard Layer 3 (Foreground)
//Storyboard Sound Samples

[TimingPoints]
0,451.127819548872,4,1,0,100,1,0

[HitObjects]
169,126,1133,6,0,L|236:266,6,140
166,126,3956,1,0,0:0:0:0:
226,174,4174,1,0,0:0:0:0:
300,122,4382,1,0,0:0:0:0:
296,203,4586,1,0,0:0:0:0:
228,199,4771,1,0,0:0:0:0:
285,124,4962,1,0,0:0:0:0:
259,171,5159,1,0,0:0:0:0:
316,205,5350,1,0,0:0:0:0:
316,205,5547,1,0,0:0:0:0:
247,226,5765,1,0,0:0:0:0:
329,248,5964,1,0,0:0:0:0:
159,264,6118,1,0,0:0:0:0:
192,153,6308,1,0,0:0:0:0:
305,152,6505,1,0,0:0:0:0:
224,229,6721,1,0,0:0:0:0:
224,229,6906,1,0,0:0:0:0:
166,126,7105,1,0,0:0:0:0:
226,174,7323,1,0,0:0:0:0:
300,122,7531,1,0,0:0:0:0:
296,203,7735,1,0,0:0:0:0:
228,199,7920,1,0,0:0:0:0:
285,124,8111,1,0,0:0:0:0:
259,171,8308,1,0,0:0:0:0:
316,205,8499,1,0,0:0:0:0:
316,205,8696,1,0,0:0:0:0:
247,226,8914,1,0,0:0:0:0:
329,248,9113,1,0,0:0:0:0:
159,264,9267,1,0,0:0:0:0:
192,153,9457,1,0,0:0:0:0:
305,152,9654,1,0,0:0:0:0:
224,229,9870,1,0,0:0:0:0:
224,229,10055,1,0,0:0:0:0:
192,153,10215,1,0,0:0:0:0:
242,148,10366,1,0,0:0:0:0:
299,225,10589,1,0,0:0:0:0:
218,245,10851,1,0,0:0:0:0:
202,125,12722,2,0,L|222:164,6,35
260,169,13764,5,0,0:0:0:0:
293,224,13950,1,0,0:0:0:0:
231,227,14151,1,0,0:0:0:0:
224,170,14371,1,0,0:0:0:0:
204,104,17481,1,0,0:0:0:0:
220,156,17689,1,0,0:0:0:0:
124,184,17890,1,0,0:0:0:0:
248,208,18101,1,0,0:0:0:0:
200,236,18313,1,0,0:0:0:0:
128,212,18524,1,0,0:0:0:0:
264,128,18746,1,0,0:0:0:0:
236,212,18959,1,0,0:0:0:0:
236,220,19172,1,0,0:0:0:0:
332,192,19366,1,0,0:0:0:0:
216,280,19591,1,0,0:0:0:0:
176,200,19797,1,0,0:0:0:0:
204,104,20014,1,0,0:0:0:0:
220,156,20222,1,0,0:0:0:0:
124,184,20423,1,0,0:0:0:0:
248,208,20634,1,0,0:0:0:0:
200,236,20846,1,0,0:0:0:0:
128,212,21057,1,0,0:0:0:0:
264,128,21279,1,0,0:0:0:0:
236,212,21492,1,0,0:0:0:0:
236,220,21705,1,0,0:0:0:0:
332,192,21899,1,0,0:0:0:0:
216,280,22124,1,0,0:0:0:0:
176,200,22330,1,0,0:0:0:0:
172,192,22556,1,0,0:0:0:0:
288,124,22781,1,0,0:0:0:0:
276,208,23120,1,0,0:0:0:0:
272,204,23345,1,0,0:0:0:0:
184,184,23796,1,0,0:0:0:0:
188,184,24022,1,0,0:0:0:0:
204,104,24248,1,0,0:0:0:0:
220,156,24456,1,0,0:0:0:0:
124,184,24657,1,0,0:0:0:0:
248,208,24868,1,0,0:0:0:0:
200,236,25080,1,0,0:0:0:0:
128,212,25291,1,0,0:0:0:0:
264,128,25513,1,0,0:0:0:0:
236,212,25726,1,0,0:0:0:0:
236,220,25939,1,0,0:0:0:0:
332,192,26133,1,0,0:0:0:0:
216,280,26358,1,0,0:0:0:0:
176,200,26564,1,0,0:0:0:0:
248,152,26954,6,0,L|276:188,13,35
244,144,29137,2,0,L|268:180,4,35
200,196,29950,5,0,0:0:0:0:
260,208,30166,1,0,0:0:0:0:
316,172,30409,1,0,0:0:0:0:
232,140,30661,1,0,0:0:0:0:
176,168,32819,1,0,0:0:0:0:
176,224,33045,1,0,0:0:0:0:
312,220,33270,1,0,0:0:0:0:
316,160,33496,1,0,0:0:0:0:
240,152,33721,1,0,0:0:0:0:
240,100,33947,1,0,0:0:0:0:
240,100,34172,1,0,0:0:0:0:
280,156,34511,5,0,0:0:0:0:
216,184,34684,1,0,0:0:0:0:
264,224,34852,1,0,0:0:0:0:
220,136,35040,1,0,0:0:0:0:
220,136,35225,1,0,0:0:0:0:
220,136,35387,1,0,0:0:0:0:
280,140,35588,1,0,0:0:0:0:
224,172,35775,1,0,0:0:0:0:
300,208,35969,1,0,0:0:0:0:
256,212,36185,1,0,0:0:0:0:
248,220,36348,1,0,0:0:0:0:
280,212,36528,1,0,0:0:0:0:
280,212,36694,1,0,0:0:0:0:
236,172,36885,1,0,0:0:0:0:
236,172,37105,1,0,0:0:0:0:
248,184,37304,1,0,0:0:0:0:
216,204,37495,1,0,0:0:0:0:
216,204,37650,1,0,0:0:0:0:
272,196,37866,1,0,0:0:0:0:
272,196,38027,1,0,0:0:0:0:
200,104,38190,1,0,0:0:0:0:
252,152,38348,1,0,0:0:0:0:
252,152,38556,1,0,0:0:0:0:
224,168,38763,1,0,0:0:0:0:
224,168,39003,1,0,0:0:0:0:
256,212,39135,5,0,0:0:0:0:
320,176,39243,1,0,0:0:0:0:
320,168,39378,1,0,0:0:0:0:
304,148,39526,1,0,0:0:0:0:
284,144,39651,1,0,0:0:0:0:
280,152,39798,1,0,0:0:0:0:
280,160,39976,1,0,0:0:0:0:
280,160,40167,1,0,0:0:0:0:
268,176,40311,1,0,0:0:0:0:
264,176,40462,1,0,0:0:0:0:
252,192,40627,1,0,0:0:0:0:
252,192,40808,1,0,0:0:0:0:
256,204,40939,1,0,0:0:0:0:
268,208,41079,1,0,0:0:0:0:
272,212,41205,1,0,0:0:0:0:
268,220,41350,1,0,0:0:0:0:
268,220,41505,1,0,0:0:0:0:
264,224,41616,1,0,0:0:0:0:
296,168,41742,1,0,0:0:0:0:
296,120,41854,1,0,0:0:0:0:
288,112,42080,1,0,0:0:0:0:
288,116,42306,1,0,0:0:0:0:
284,120,42531,1,0,0:0:0:0:
276,124,42644,1,0,0:0:0:0:
272,128,42869,1,0,0:0:0:0:
268,144,43095,1,0,0:0:0:0:
264,148,43321,1,0,0:0:0:0:
252,168,43546,1,0,0:0:0:0:
224,224,43872,2,0,L|176:224,6,35
276,144,44774,2,0,L|276:200,5,35
240,236,45666,1,0,0:0:0:0:
232,232,45822,1,0,0:0:0:0:
232,232,45982,1,0,0:0:0:0:
224,232,46098,1,0,0:0:0:0:
224,232,46237,1,0,0:0:0:0:
224,232,46360,1,0,0:0:0:0:
256,192,46691,12,0,47593,0:0:0:0:
