osu file format v14

[General]
AudioFilename: audio.mp3
AudioLeadIn: 0
PreviewTime: -1
Countdown: 0
SampleSet: None
StackLeniency: 0.7
Mode: 0
LetterboxInBreaks: 0
WidescreenStoryboard: 0

[Editor]
DistanceSpacing: 1.1
BeatDivisor: 16
GridSize: 32
TimelineZoom: 1

[Metadata]
Title:(prod. yardbo1krazy, banjaminrollzshawty)
TitleUnicode:Штекер (prod. yardbo1krazy, banjaminrollzshawty)
Artist:unki (@unkiplug)
ArtistUnicode:unki (@unkiplug)
Creator:menstruate
Version:Insane
Source:
Tags:
BeatmapID:4548134
BeatmapSetID:2157471

[Difficulty]
HPDrainRate:5
CircleSize:5
OverallDifficulty:10
ApproachRate:10
SliderMultiplier:1.4
SliderTickRate:1

[Events]
//Background and Video events
//Break Periods
//Storyboard Layer 0 (Background)
//Storyboard Layer 1 (Fail)
//Storyboard Layer 2 (Pass)
//Storyboard Layer 3 (Foreground)
//Storyboard Layer 4 (Overlay)
//Storyboard Sound Samples

[TimingPoints]
5090.67741935484,319.148936170213,4,1,0,100,1,0

[HitObjects]
241,122,2564,5,0,0:0:0:0:
176,134,2883,1,0,0:0:0:0:
144,191,3228,1,0,0:0:0:0:
266,197,3521,1,0,0:0:0:0:
201,226,3840,1,0,0:0:0:0:
106,210,4133,1,0,0:0:0:0:
148,153,4478,1,0,0:0:0:0:
160,146,4611,1,0,0:0:0:0:
214,121,4771,1,0,0:0:0:0:
289,107,5090,1,0,0:0:0:0:
244,175,5463,1,0,0:0:0:0:
167,190,5755,1,0,0:0:0:0:
116,219,6074,1,0,0:0:0:0:
188,253,6393,1,0,0:0:0:0:
238,234,6739,1,0,0:0:0:0:
232,184,7005,1,0,0:0:0:0:
212,144,7191,1,0,0:0:0:0:
206,130,7271,1,0,0:0:0:0:
159,111,7377,1,0,0:0:0:0:
128,103,7431,1,0,0:0:0:0:
92,101,7723,1,0,0:0:0:0:
60,125,8069,1,0,0:0:0:0:
95,180,8361,1,0,0:0:0:0:
182,176,8654,1,0,0:0:0:0:
185,222,8973,1,0,0:0:0:0:
106,227,9266,1,0,0:0:0:0:
150,98,9558,1,0,0:0:0:0:
274,103,9851,1,0,0:0:0:0:
194,203,10197,1,0,0:0:0:0:
112,199,10516,1,0,0:0:0:0:
153,99,10861,1,0,0:0:0:0:
260,128,11500,1,0,0:0:0:0:
193,186,11792,1,0,0:0:0:0:
100,220,12085,1,0,0:0:0:0:
197,172,12830,1,0,0:0:0:0:
103,183,13255,1,0,0:0:0:0:
300,264,13707,1,0,0:0:0:0:
160,214,14239,1,0,0:0:0:0:
162,186,14425,1,0,0:0:0:0:
206,129,14558,1,0,0:0:0:0:
235,122,14718,1,0,0:0:0:0:
351,177,14984,1,0,0:0:0:0:
222,250,15303,1,0,0:0:0:0:
175,182,15782,1,0,0:0:0:0:
250,98,16234,1,0,0:0:0:0:
190,225,16899,1,0,0:0:0:0:
164,204,17058,1,0,0:0:0:0:
148,177,17191,1,0,0:0:0:0:
217,123,17564,1,0,0:0:0:0:
321,193,17883,1,0,0:0:0:0:
219,224,18361,1,0,0:0:0:0:
200,203,19472,1,0,0:0:0:0:
118,159,19970,1,0,0:0:0:0:
126,201,22943,1,0,0:0:0:0:
157,147,23501,1,0,0:0:0:0:
261,223,23880,1,0,0:0:0:0:
171,180,24538,1,0,0:0:0:0:
217,81,24698,1,0,0:0:0:0:
234,63,24877,1,0,0:0:0:0:
294,89,25217,1,0,0:0:0:0:
220,138,25556,1,0,0:0:0:0:
168,140,26014,1,0,0:0:0:0:
218,237,26433,1,0,0:0:0:0:
215,148,27131,1,0,0:0:0:0:
176,109,27311,1,0,0:0:0:0:
151,108,27391,1,0,0:0:0:0:
141,107,27470,1,0,0:0:0:0:
131,107,27550,1,0,0:0:0:0:
61,152,27889,1,0,0:0:0:0:
189,194,28228,1,0,0:0:0:0:
128,207,28847,1,0,0:0:0:0:
253,115,29645,1,0,0:0:0:0:
109,159,30143,1,0,0:0:0:0:
345,187,30582,1,0,0:0:0:0:
140,244,31101,1,0,0:0:0:0:
278,113,31580,1,0,0:0:0:0:
94,286,32158,1,0,0:0:0:0:
127,111,33135,2,0,P|253:202|253:195,3,402.5
162,149,38222,1,0,0:0:0:0:
52,142,38760,1,0,0:0:0:0:
278,112,39259,1,0,0:0:0:0:
152,227,39857,1,0,0:0:0:0:
152,227,39997,1,0,0:0:0:0:
118,198,40057,1,0,0:0:0:0:
85,166,40177,1,0,0:0:0:0:
84,160,40236,1,0,0:0:0:0:
137,117,40556,1,0,0:0:0:0:
233,144,40895,1,0,0:0:0:0:
229,195,41214,1,0,0:0:0:0:
143,218,41513,1,0,0:0:0:0:
255,132,41992,1,0,0:0:0:0:
193,279,43428,1,0,0:0:0:0:
193,279,43588,1,0,0:0:0:0:
201,273,43727,1,0,0:0:0:0:
206,286,43847,1,0,0:0:0:0:
206,284,43927,1,0,0:0:0:0:
206,283,44006,1,0,0:0:0:0:
209,283,44146,1,0,0:0:0:0:
210,289,44226,1,0,0:0:0:0:
210,289,44326,1,0,0:0:0:0:
216,267,44445,1,0,0:0:0:0:
226,239,44525,1,0,0:0:0:0:
230,227,44605,1,0,0:0:0:0:
231,220,44665,1,0,0:0:0:0:
232,215,44744,1,0,0:0:0:0:
232,209,44904,1,0,0:0:0:0:
219,176,45064,1,0,0:0:0:0:
211,169,45203,1,0,0:0:0:0:
202,163,45283,1,0,0:0:0:0:
199,162,45383,1,0,0:0:0:0:
194,153,45463,1,0,0:0:0:0:
185,144,45542,1,0,0:0:0:0:
179,137,45602,1,0,0:0:0:0:
173,131,45682,1,0,0:0:0:0:
152,95,45842,1,0,0:0:0:0:
