osu file format v14

[General]
AudioFilename: audio.mp3
AudioLeadIn: 0
PreviewTime: 45581
Countdown: 0
SampleSet: Soft
StackLeniency: 0.7
Mode: 0
LetterboxInBreaks: 0
WidescreenStoryboard: 0

[Editor]
DistanceSpacing: 1
BeatDivisor: 4
GridSize: 32
TimelineZoom: 1

[Metadata]
Title:echoes
TitleUnicode:echoes
Artist:universe
ArtistUnicode:universe
Creator:-Sh1n1-
Version:Easy
Source:BLEACH
Tags:kurosaki ichigo inoue orihime ending ed24 shini kocari tv size
BeatmapID:1547912
BeatmapSetID:733435

[Difficulty]
HPDrainRate:3
CircleSize:2
OverallDifficulty:2
ApproachRate:3
SliderMultiplier:1
SliderTickRate:1

[Events]
//Background and Video events
0,0,"IchihimeBG.jpg",0,0
//Break Periods
//Storyboard Layer 0 (Background)
//Storyboard Layer 1 (Fail)
//Storyboard Layer 2 (Pass)
//Storyboard Layer 3 (Foreground)
//Storyboard Sound Samples

[TimingPoints]
2044,463.141644152837,4,2,1,30,1,0
2044,-100,4,2,1,30,0,0
15938,-100,4,2,1,50,0,0
16864,-100,4,2,1,60,0,0
46505,-100,4,2,1,70,0,1
61326,-100,4,2,1,70,0,0
76146,-100,4,2,1,70,0,1
86357,463.141644152837,4,2,1,70,1,1
87283,-100,4,2,1,70,0,0
87399,-100,4,2,1,50,0,0
88209,-100,4,2,1,30,0,0
89135,-100,4,2,1,15,0,0
90062,-100,4,2,1,5,0,0

[Colours]
Combo1 : 255,255,145
Combo2 : 255,206,206
Combo3 : 98,98,98
Combo4 : 253,201,81

[HitObjects]
86,285,2044,6,0,P|55:187|92:97,1,200,2|2,0:0|3:2,0:0:0:0:
174,48,3433,1,2,0:0:0:0:
258,100,3896,2,0,L|364:88,1,100,2|2,0:0|0:0,0:0:0:0:
456,80,4822,1,2,3:2:0:0:
455,280,5749,6,0,L|257:258,1,200,2|2,0:0|3:2,0:0:0:0:
159,282,7138,1,2,0:0:0:0:
68,238,7601,2,0,P|57:190|69:140,1,100,2|2,0:0|0:0,0:0:0:0:
143,75,8527,2,0,L|252:89,1,100,2|2,3:2|0:0,0:0:0:0:
296,171,9454,6,0,L|498:141,1,200,2|2,0:0|3:2,0:0:0:0:
479,42,10843,1,2,0:0:0:0:
381,18,11306,2,0,L|272:32,1,100,2|2,0:0|0:0,0:0:0:0:
182,45,12233,1,2,3:2:0:0:
357,141,13159,6,0,P|386:238|353:335,1,200,2|2,0:0|3:2,0:0:0:0:
263,365,14548,1,2,0:0:0:0:
169,328,15011,2,0,P|122:320|72:330,1,100,2|2,0:0|0:0,0:0:0:0:
18,245,15938,2,0,P|-3:172|19:98,1,150,2|0,3:2|0:0,0:0:0:0:
55,71,16864,6,0,B|107:87|107:87|255:71,1,200,6|2,0:0|3:2,0:0:0:0:
351,64,18253,1,10,0:0:0:0:
441,107,18717,2,0,P|449:154|440:206,1,100,2|10,0:0|0:0,0:0:0:0:
412,301,19643,2,0,L|314:281,1,100,2|10,3:2|0:0,0:0:0:0:
231,336,20569,6,0,L|34:376,1,200,2|2,3:2|3:2,0:0:0:0:
53,277,21959,1,10,0:0:0:0:
19,182,22422,2,0,P|6:137|24:81,1,100,6|2,3:2|3:2,0:0:0:0:
106,136,23348,2,0,L|168:129,1,50,10|6,3:2|0:0,0:0:0:0:
302,84,24274,6,0,P|295:183|310:282,1,200,4|2,3:2|3:2,0:0:0:0:
214,312,25664,1,10,0:0:0:0:
119,281,26127,2,0,P|134:183|127:84,1,200,2|2,3:2|3:2,0:0:0:0:
214,33,27516,1,10,0:0:0:0:
302,84,27979,6,0,L|406:72,1,100,2|8,3:2|0:0,0:0:0:0:
488,122,28906,2,0,P|500:169|486:224,1,100,0|8,3:0|0:0,0:0:0:0:
403,270,29832,2,0,P|390:221|402:173,2,100,2|10|2,3:2|0:0|3:2,0:0:0:0:
434,364,31221,1,8,0:0:0:0:
334,349,31685,6,0,B|285:337|285:337|135:349,1,200,2|2,3:2|3:2,0:0:0:0:
36,356,33074,1,10,0:0:0:0:
77,265,33537,2,0,P|99:164|75:67,1,200,2|2,3:2|3:2,0:0:0:0:
170,35,34927,1,8,0:0:0:0:
265,63,35390,6,0,B|311:77|311:77|412:63,2,150,2|2|10,3:2|3:2|0:0,0:0:0:0:
170,35,37242,2,0,L|158:148,1,100,2|10,3:2|0:0,0:0:0:0:
145,233,38169,1,8,3:2:0:0:
185,324,38632,1,8,0:0:0:0:
284,331,39095,6,0,B|338:318|338:318|495:331,1,200,6|0,3:2|3:0,0:0:0:0:
453,234,40484,1,8,3:2:0:0:
420,139,40947,2,0,L|457:42,1,100,2|10,3:2|3:2,0:0:0:0:
355,38,41874,2,0,L|250:24,1,100,2|8,3:2|3:2,0:0:0:0:
193,102,42800,6,0,L|88:88,1,100,2|10,3:2|0:0,0:0:0:0:
28,164,43726,2,0,P|9:234|38:308,1,150,8|6,3:2|0:0,0:0:0:0:
286,297,45579,1,8,0:0:0:0:
320,203,46042,1,8,0:0:0:0:
282,110,46505,6,0,L|179:113,1,100,6|10,3:2|3:2,0:0:0:0:
82,118,47431,1,2,3:2:0:0:
54,214,47894,1,8,0:0:0:0:
84,309,48357,2,0,L|187:306,1,100,2|10,3:2|0:0,0:0:0:0:
270,255,49284,2,0,P|282:206|270:158,1,100,2|10,3:2|0:0,0:0:0:0:
182,206,50210,6,0,L|83:198,2,100,2|10|2,3:2|0:0|3:2,0:0:0:0:
270,158,51600,1,8,0:0:0:0:
353,102,52063,2,0,L|453:94,1,100,2|8,3:2|0:0,0:0:0:0:
500,181,52989,1,8,3:2:0:0:
488,280,53452,1,8,0:0:0:0:
406,338,53915,6,0,L|307:330,1,100,6|10,3:2|3:2,0:0:0:0:
232,262,54842,1,2,3:2:0:0:
250,163,55305,1,8,0:0:0:0:
348,145,55768,2,0,L|448:152,1,100,2|10,3:2|0:0,0:0:0:0:
461,52,56694,2,0,L|361:45,1,100,0|8,0:0|0:0,0:0:0:0:
268,82,57620,6,0,L|113:71,2,150,2|2|10,3:2|3:2|3:2,0:0:0:0:
348,145,59473,2,0,P|361:195|347:242,1,100,2|2,3:2|3:2,0:0:0:0:
282,316,60399,1,8,3:2:0:0:
182,316,60862,1,8,0:0:0:0:
108,248,61326,6,0,P|86:152|109:53,1,200,6|2,3:2|3:2,0:0:0:0:
202,21,62715,1,8,0:0:0:0:
295,56,63178,2,0,L|401:45,1,100,2|8,3:2|0:0,0:0:0:0:
481,94,64104,2,0,P|493:140|480:195,1,100,0|10,3:0|0:0,0:0:0:0:
414,264,65031,6,0,L|211:242,1,200,2|0,3:2|3:0,0:0:0:0:
115,247,66420,1,10,0:0:0:0:
51,170,66883,2,0,P|40:121|56:70,2,100,2|8|2,3:2|0:0|3:2,0:0:0:0:
115,247,68273,1,10,0:0:0:0:
203,293,68736,6,0,B|214:255|214:255|195:90,1,200,6|2,3:2|3:2,0:0:0:0:
277,38,70125,1,8,0:0:0:0:
369,76,70588,2,0,L|476:56,1,100,2|10,3:2|0:0,0:0:0:0:
447,155,71515,2,0,B|435:203|435:203|446:257,1,100,2|10,3:2|0:0,0:0:0:0:
464,350,72441,6,0,L|313:321,1,150,4|4,0:0|0:0,0:0:0:0:
139,229,74062,2,0,L|290:200,1,150,4|2,0:0|3:2,0:0:0:0:
326,108,75220,1,8,0:0:0:0:
283,17,75683,1,8,0:0:0:0:
183,18,76146,6,0,L|85:36,1,100,6|10,3:2|3:2,0:0:0:0:
27,118,77072,1,2,3:2:0:0:
49,215,77535,1,8,0:0:0:0:
70,312,77999,2,0,L|169:330,1,100,2|10,3:2|0:0,0:0:0:0:
254,279,78925,2,0,P|267:233|253:179,1,100,2|10,3:2|0:0,0:0:0:0:
214,92,79851,6,0,L|313:74,2,100,2|10|2,3:2|0:0|3:2,0:0:0:0:
115,74,81241,1,8,0:0:0:0:
24,116,81704,2,0,P|14:165|24:215,1,100,2|8,3:2|0:0,0:0:0:0:
42,311,82630,1,2,3:2:0:0:
141,299,83093,1,8,0:0:0:0:
239,284,83556,6,0,L|210:387,1,100,6|10,3:2|3:2,0:0:0:0:
311,368,84483,1,2,3:2:0:0:
409,352,84946,1,8,0:0:0:0:
507,336,85409,2,0,L|478:233,1,100,2|10,3:2|0:0,0:0:0:0:
395,174,86357,6,0,B|415:69,1,100,8|8,3:2|0:0,0:0:0:0:
502,29,87283,1,4,0:0:0:0:
256,192,87746,12,0,90062,0:0:0:0:
