osu file format v14

[General]
AudioFilename: audio.mp3
AudioLeadIn: 0
PreviewTime: 45581
Countdown: 0
SampleSet: Soft
StackLeniency: 0.7
Mode: 0
LetterboxInBreaks: 0
WidescreenStoryboard: 0

[Editor]
Bookmarks: 24274
DistanceSpacing: 0.8
BeatDivisor: 4
GridSize: 32
TimelineZoom: 2.1

[Metadata]
Title:echoes
TitleUnicode:echoes
Artist:universe
ArtistUnicode:universe
Creator:-Sh1n1-
Version:Bankai
Source:BLEACH
Tags:kurosaki ichigo inoue orihime ending ed24 shini kocari tv size
BeatmapID:1547911
BeatmapSetID:733435

[Difficulty]
HPDrainRate:7
CircleSize:4.5
OverallDifficulty:7
ApproachRate:8
SliderMultiplier:1.6
SliderTickRate:1

[Events]
//Background and Video events
0,0,"IchihimeBG.jpg",0,0
//Break Periods
//Storyboard Layer 0 (Background)
//Storyboard Layer 1 (Fail)
//Storyboard Layer 2 (Pass)
//Storyboard Layer 3 (Foreground)
//Storyboard Sound Samples

[TimingPoints]
2044,463.141644152837,4,2,1,30,1,0
2044,-125,4,2,1,30,0,0
15938,-100,4,2,1,50,0,0
16864,-100,4,2,1,60,0,0
46505,-100,4,2,1,70,0,1
61326,-100,4,2,1,70,0,0
76146,-100,4,2,1,70,0,1
86357,463.141644152837,4,2,1,70,1,1
87283,-100,4,2,1,70,0,0
87399,-100,4,2,1,50,0,0
88209,-100,4,2,1,30,0,0
89135,-100,4,2,1,15,0,0
90062,-100,4,2,1,5,0,0

[Colours]
Combo1 : 255,255,145
Combo2 : 255,206,206
Combo3 : 98,98,98
Combo4 : 253,201,81

[HitObjects]
110,290,2044,5,2,0:0:0:0:
187,283,2275,1,0,0:0:0:0:
264,282,2507,1,2,0:0:0:0:
338,305,2738,1,0,0:0:0:0:
377,239,2970,2,0,L|380:175,1,64,2|0,3:2|0:0,0:0:0:0:
300,107,3433,2,0,L|303:170,1,64,2|0,0:0|0:0,0:0:0:0:
232,200,3896,5,2,0:0:0:0:
224,125,4128,1,0,0:0:0:0:
239,277,4359,2,0,L|302:271,1,64,2|0,0:0|0:0,0:0:0:0:
181,328,4822,2,0,B|141:320|141:320|53:328,1,128,2|2,3:2|0:0,0:0:0:0:
144,202,5749,6,0,L|208:202,1,64,2|0,0:0|0:0,0:0:0:0:
313,266,6212,2,0,L|249:266,1,64,2|0,0:0|0:0,0:0:0:0:
367,211,6675,2,0,P|392:268|365:323,1,128,2|2,3:2|0:0,0:0:0:0:
306,373,7370,1,0,0:0:0:0:
230,353,7601,6,0,P|199:345|167:347,1,64,2|0,0:0|0:0,0:0:0:0:
284,298,8064,2,0,L|291:234,1,64,2|0,0:0|0:0,0:0:0:0:
194,150,8527,2,0,L|202:278,1,128,2|2,3:2|0:0,0:0:0:0:
88,83,9454,5,2,0:0:0:0:
163,65,9685,1,0,0:0:0:0:
240,69,9917,1,2,0:0:0:0:
312,97,10148,1,0,0:0:0:0:
386,117,10380,2,0,L|399:54,1,64,2|0,3:2|0:0,0:0:0:0:
363,190,10843,1,2,0:0:0:0:
393,260,11075,1,0,0:0:0:0:
364,331,11306,6,0,L|300:340,1,64,2|0,0:0|0:0,0:0:0:0:
173,273,11769,1,2,0:0:0:0:
249,282,12001,1,0,0:0:0:0:
104,308,12233,2,0,L|84:176,1,128,2|2,3:2|0:0,0:0:0:0:
235,253,13159,6,0,L|231:316,1,64,2|0,0:0|0:0,0:0:0:0:
315,229,13622,2,0,L|318:292,1,64,2|0,0:0|0:0,0:0:0:0:
356,163,14085,2,0,B|321:153|321:153|229:163,1,128,2|2,3:2|0:0,0:0:0:0:
153,172,14780,1,0,0:0:0:0:
76,168,15011,6,0,P|58:141|54:109,1,64,2|0,0:0|0:0,0:0:0:0:
110,237,15475,2,0,P|112:269|99:298,1,64,2|0,0:0|0:0,0:0:0:0:
153,172,15938,2,0,L|239:162,1,80,2|0,3:2|0:0,0:0:0:0:
259,170,16285,1,0,0:0:0:0:
285,179,16401,2,0,L|371:169,1,80,0|0,0:0|0:0,0:0:0:0:
227,13,16864,6,0,P|212:49|224:86,1,80,6|0,0:0|0:0,0:0:0:0:
372,255,17327,2,0,L|460:249,1,80,10|0,0:0|3:0,0:0:0:0:
478,257,17675,2,0,L|486:177,1,80,0|0,3:0|0:0,0:0:0:0:
490,149,18022,1,0,3:0:0:0:
352,76,18253,2,0,L|360:159,1,80,10|0,0:0|0:0,0:0:0:0:
258,236,18717,6,0,B|249:315,1,80,2|0,0:0|0:0,0:0:0:0:
142,180,19180,2,0,B|133:101,1,80,10|0,0:0|3:0,0:0:0:0:
160,104,19527,2,0,B|188:108|188:108|240:104,1,80,0|0,3:0|0:0,0:0:0:0:
267,100,19874,1,0,3:0:0:0:
457,24,20106,2,0,L|445:104,1,80,10|2,0:0|0:0,0:0:0:0:
397,289,20569,6,0,P|358:298|318:290,1,80,2|0,3:2|0:0,0:0:0:0:
159,169,21032,2,0,P|120:161|80:168,1,80,10|0,0:0|3:0,0:0:0:0:
55,177,21380,2,0,B|75:259,1,80,0|0,3:0|0:0,0:0:0:0:
82,282,21727,1,0,3:0:0:0:
229,324,21959,2,0,B|208:246,1,80,10|0,0:0|0:0,0:0:0:0:
148,48,22422,5,6,3:2:0:0:
136,184,22653,1,2,0:0:0:0:
336,124,22885,5,2,3:2:0:0:
128,36,23116,1,2,0:0:0:0:
356,132,23348,5,10,3:2:0:0:
196,121,23580,1,6,0:0:0:0:
59,179,23811,2,0,P|46:216|59:253,1,80,0|0,0:0|3:0,0:0:0:0:
76,275,24159,1,0,3:0:0:0:
93,296,24274,6,0,B|61:292|13:296,1,80,4|0,3:2|0:0,0:0:0:0:
173,216,24737,2,0,B|205:212|205:212|253:216,1,80,10|0,0:0|0:0,0:0:0:0:
396,296,25201,2,0,B|364:300|364:300|316:296,1,80,2|0,3:2|0:0,0:0:0:0:
252,215,25664,1,10,0:0:0:0:
361,148,25895,1,0,0:0:0:0:
488,260,26127,6,0,P|496:298|487:337,1,80,2|0,3:2|0:0,0:0:0:0:
416,196,26590,2,0,P|408:160|416:116,1,80,10|2,0:0|0:0,0:0:0:0:
432,24,27053,2,0,L|352:20,2,80,2|0|10,3:2|0:0|0:0,0:0:0:0:
505,152,27748,1,2,3:2:0:0:
281,105,27979,6,0,B|109:91,1,160,2|8,3:2|0:0,0:0:0:0:
236,20,28674,1,2,0:0:0:0:
332,172,28906,2,0,L|408:150,1,80,0|2,3:0|0:0,0:0:0:0:
260,236,29369,2,0,L|180:228,1,80,8|2,0:0|0:0,0:0:0:0:
30,203,29832,5,2,3:2:0:0:
220,144,30064,1,2,0:0:0:0:
126,309,30295,2,0,L|206:317,1,80,10|0,0:0|0:0,0:0:0:0:
226,336,30642,1,0,0:0:0:0:
248,353,30758,2,0,L|329:343,1,80,2|0,3:2|0:0,0:0:0:0:
180,228,31221,1,8,0:0:0:0:
248,353,31453,1,0,3:0:0:0:
320,211,31685,6,0,P|358:203|398:210,1,80,2|0,3:2|0:0,0:0:0:0:
492,220,32148,2,0,L|480:140,2,80,10|0|2,0:0|0:0|3:2,0:0:0:0:
435,378,32842,2,0,P|427:338|436:300,1,80,0|10,0:0|0:0,0:0:0:0:
492,220,33306,1,2,0:0:0:0:
308,232,33537,6,0,B|279:237|279:237|227:233,1,80,2|0,3:2|0:0,0:0:0:0:
407,244,34000,2,0,P|414:283|413:323,1,80,10|0,0:0|0:0,0:0:0:0:
466,134,34463,2,0,P|493:164|512:200,1,80,2|2,3:2|0:0,0:0:0:0:
344,72,34927,1,8,0:0:0:0:
488,32,35158,1,2,0:0:0:0:
324,84,35390,6,0,B|288:88|288:88|244:84,2,80,2|0|8,3:2|0:0|0:0,0:0:0:0:
160,40,36084,1,2,3:2:0:0:
152,60,36200,1,0,3:0:0:0:
148,80,36316,2,0,L|160:164,1,80,0|0,3:0|0:0,0:0:0:0:
56,44,36779,1,10,0:0:0:0:
244,84,37011,1,2,0:0:0:0:
152,264,37242,6,0,B|120:268|120:268|73:266,1,80,2|0,3:2|0:0,0:0:0:0:
244,192,37705,2,0,B|276:188|276:188|323:190,1,80,10|0,0:0|0:0,0:0:0:0:
351,193,38053,1,8,0:0:0:0:
377,202,38169,2,0,L|373:114,1,80,8|0,3:2|0:0,0:0:0:0:
328,288,38632,1,8,0:0:0:0:
328,288,38747,1,8,0:0:0:0:
328,288,38863,1,8,0:0:0:0:
160,232,39095,5,6,3:2:0:0:
150,193,39211,1,0,3:0:0:0:
156,154,39326,1,0,3:2:0:0:
178,121,39442,1,0,3:0:0:0:
212,100,39558,2,0,P|236:96|256:84,1,40,10|0,3:2|0:0,0:0:0:0:
352,44,39790,2,0,L|340:88,1,40,2|0,3:2|0:0,0:0:0:0:
396,160,40021,2,0,B|424:163|424:163|475:158,1,80,0|2,3:0|0:0,0:0:0:0:
400,296,40484,1,8,3:2:0:0:
371,266,40600,1,0,3:0:0:0:
335,251,40716,1,2,3:2:0:0:
295,253,40832,1,0,3:0:0:0:
258,269,40947,5,2,3:2:0:0:
113,274,41179,1,0,3:0:0:0:
113,274,41295,1,0,3:0:0:0:
113,274,41411,2,0,P|110:289|112:314,1,40,10|0,3:2|0:0,0:0:0:0:
148,171,41642,2,0,P|151:156|149:131,1,40,0|0,3:0|0:0,0:0:0:0:
116,40,41874,2,0,B|147:36|147:36|204:40,1,80,2|2,3:2|3:2,0:0:0:0:
236,44,42221,1,0,3:0:0:0:
236,44,42337,1,8,3:2:0:0:
303,209,42568,1,2,3:2:0:0:
303,209,42684,1,0,3:0:0:0:
303,209,42801,6,0,P|342:213|382:208,2,80,2|0|10,3:2|0:0|0:0,0:0:0:0:
471,169,43495,1,10,0:0:0:0:
471,169,43610,1,8,0:0:0:0:
471,169,43726,1,8,3:2:0:0:
339,121,43958,1,10,0:0:0:0:
335,301,44189,1,2,3:2:0:0:
204,67,44421,1,6,0:0:0:0:
204,67,45579,5,8,0:0:0:0:
184,62,45695,1,8,0:0:0:0:
165,57,45810,1,0,3:0:0:0:
145,52,45926,1,0,3:0:0:0:
126,48,46042,1,8,0:0:0:0:
88,59,46158,1,8,0:0:0:0:
62,88,46274,1,8,0:0:0:0:
57,128,46389,1,8,0:0:0:0:
73,163,46505,5,6,3:2:0:0:
281,103,46737,1,0,3:0:0:0:
281,103,46852,1,0,3:0:0:0:
281,103,46968,2,0,B|285:67|285:67|281:23,1,80,10|0,3:2|0:0,0:0:0:0:
200,184,47431,1,2,3:2:0:0:
344,236,47663,1,2,0:0:0:0:
128,304,47895,2,0,B|72:308|72:308|48:304,1,80,8|2,0:0|0:0,0:0:0:0:
216,344,48358,2,0,P|224:296|216:264,1,80,2|0,3:2|0:0,0:0:0:0:
160,108,48821,5,10,0:0:0:0:
76,232,49052,1,2,0:0:0:0:
220,180,49284,2,0,P|256:176|300:180,1,80,2|0,3:2|0:0,0:0:0:0:
472,208,49747,1,10,0:0:0:0:
388,240,49979,1,2,3:2:0:0:
388,240,50094,1,0,3:0:0:0:
388,240,50210,6,0,B|384:212|384:212|388:160,1,80,2|0,3:2|0:0,0:0:0:0:
408,8,50673,1,10,0:0:0:0:
476,120,50905,1,2,0:0:0:0:
264,48,51137,2,0,B|232:44|232:44|176:52|176:52|140:48,1,120,2|2,3:2|0:0,0:0:0:0:
117,42,51600,2,0,L|122:129,1,80,8|2,0:0|0:0,0:0:0:0:
136,303,52063,5,2,3:2:0:0:
204,95,52294,1,2,0:0:0:0:
38,175,52526,1,8,0:0:0:0:
136,303,52758,1,2,0:0:0:0:
239,207,52989,5,8,3:2:0:0:
278,213,53105,1,8,0:0:0:0:
318,208,53221,1,8,0:0:0:0:
357,201,53336,1,8,0:0:0:0:
396,206,53452,2,0,P|419:216|437:242,1,40,8|8,0:0|0:0,0:0:0:0:
454,333,53684,2,0,P|452:358|433:383,1,40,8|8,0:0|0:0,0:0:0:0:
344,306,53915,6,0,B|261:298,1,80,6|0,3:2|3:0,0:0:0:0:
239,311,54263,1,0,3:0:0:0:
213,323,54379,2,0,B|130:315,1,80,10|0,3:2|0:0,0:0:0:0:
4,195,54842,1,2,3:2:0:0:
72,379,55073,1,2,0:0:0:0:
168,231,55305,2,0,P|175:193|168:154,1,80,8|2,0:0|0:0,0:0:0:0:
35,66,55768,2,0,L|115:74,1,80,2|0,3:2|0:0,0:0:0:0:
211,79,56231,5,10,0:0:0:0:
404,158,56463,2,0,P|333:127|262:159,1,160,2|2,0:0|0:0,0:0:0:0:
484,195,57157,2,0,B|492:114,1,80,8|2,0:0|0:0,0:0:0:0:
496,87,57505,1,0,3:0:0:0:
496,87,57620,5,2,3:2:0:0:
361,180,57852,1,0,3:0:0:0:
340,214,57968,1,0,3:0:0:0:
334,253,58084,1,2,3:2:0:0:
341,292,58199,1,0,3:0:0:0:
361,326,58315,2,0,L|261:322,1,80,2|0,3:2|0:0,0:0:0:0:
116,291,58778,2,0,P|110:312|110:336,1,40,2|0,3:2|3:0,0:0:0:0:
209,259,59010,2,0,B|215:229|215:229|212:176,1,80,10|0,3:2|0:0,0:0:0:0:
205,83,59473,6,0,L|248:75,1,40,2|0,3:2|0:0,0:0:0:0:
323,130,59705,2,0,L|362:137,1,40,2|0,3:2|0:0,0:0:0:0:
455,159,59936,2,0,P|462:177|465:197,1,40,2|0,3:2|0:0,0:0:0:0:
427,66,60168,2,0,P|430:46|437:27,1,40,2|0,3:2|0:0,0:0:0:0:
374,239,60399,5,8,3:2:0:0:
353,235,60515,1,8,0:0:0:0:
334,233,60630,1,8,0:0:0:0:
312,231,60746,1,8,0:0:0:0:
293,228,60862,1,8,0:0:0:0:
257,245,60978,1,8,0:0:0:0:
235,276,61094,1,8,0:0:0:0:
234,316,61209,1,8,0:0:0:0:
255,350,61326,6,0,L|169:363,1,80,6|0,3:2|0:0,0:0:0:0:
213,216,61789,2,0,L|292:227,1,80,10|0,0:0|3:0,0:0:0:0:
319,231,62136,1,0,3:0:0:0:
319,231,62252,1,2,3:2:0:0:
255,350,62483,1,2,0:0:0:0:
396,284,62715,2,0,L|475:273,1,80,8|2,0:0|0:0,0:0:0:0:
435,96,63178,6,0,L|275:81,1,160,2|8,3:2|0:0,0:0:0:0:
127,20,63873,2,0,B|149:103,1,80,2|0,0:0|3:0,0:0:0:0:
196,262,64336,1,2,0:0:0:0:
342,155,64568,1,10,0:0:0:0:
239,167,64799,1,0,0:0:0:0:
431,187,65031,6,0,P|379:244|301:240,1,160,2|8,3:2|0:0,0:0:0:0:
239,167,65725,1,2,0:0:0:0:
124,256,65957,2,0,B|156:264|156:264|204:256,1,80,0|0,3:0|0:0,0:0:0:0:
318,343,66420,2,0,B|272:336|272:336|240:344,1,80,10|0,0:0|0:0,0:0:0:0:
416,352,66883,5,2,3:2:0:0:
376,264,67115,1,2,0:0:0:0:
318,343,67346,1,8,0:0:0:0:
380,232,67578,1,2,3:2:0:0:
383,202,67694,1,0,3:0:0:0:
388,171,67810,2,0,L|398:85,1,80,2|0,3:2|0:0,0:0:0:0:
202,18,68273,2,0,L|219:150,1,120,10|0,0:0|0:0,0:0:0:0:
221,164,68736,6,0,L|141:157,1,80,6|0,3:2|0:0,0:0:0:0:
96,294,69199,2,0,L|176:287,1,80,10|0,0:0|3:0,0:0:0:0:
204,282,69546,1,0,3:0:0:0:
204,282,69662,1,2,3:2:0:0:
51,199,69894,1,2,0:0:0:0:
201,378,70125,2,0,P|239:370|275:347,1,80,8|2,0:0|0:0,0:0:0:0:
397,203,70588,5,2,3:2:0:0:
204,282,70820,1,0,0:0:0:0:
368,365,71052,1,10,0:0:0:0:
228,189,71283,1,2,3:2:0:0:
188,186,71399,1,0,3:0:0:0:
150,202,71515,2,0,P|112:212|73:208,1,80,2|0,3:2|0:0,0:0:0:0:
222,13,71978,2,0,L|218:93,1,80,10|0,0:0|0:0,0:0:0:0:
204,282,72441,5,4,0:0:0:0:
297,151,72673,1,2,0:0:0:0:
137,145,72904,1,0,3:0:0:0:
318,149,73136,5,4,0:0:0:0:
201,306,73367,1,2,0:0:0:0:
122,127,73599,1,0,3:0:0:0:
198,330,73830,1,0,3:0:0:0:
344,146,74062,6,0,B|422:131,1,80,4|0,0:0|0:0,0:0:0:0:
404,37,74525,1,2,3:2:0:0:
381,234,74757,1,2,3:2:0:0:
304,58,74988,1,2,0:0:0:0:
281,264,75220,5,8,0:0:0:0:
260,264,75336,1,8,0:0:0:0:
240,264,75451,1,0,3:0:0:0:
220,263,75567,1,0,3:0:0:0:
200,262,75683,1,8,0:0:0:0:
166,242,75799,1,8,0:0:0:0:
149,207,75915,1,8,0:0:0:0:
154,167,76030,1,8,0:0:0:0:
179,137,76146,5,6,3:2:0:0:
393,195,76378,1,0,3:0:0:0:
393,195,76494,1,0,3:0:0:0:
393,195,76609,2,0,B|429:199|429:199|472:195,1,80,10|0,3:2|0:0,0:0:0:0:
315,110,77072,1,2,3:2:0:0:
364,297,77304,1,2,0:0:0:0:
434,107,77536,2,0,B|438:51|438:51|434:27,1,80,8|2,0:0|0:0,0:0:0:0:
263,174,77999,2,0,B|259:230|259:230|263:254,1,80,2|0,3:2|0:0,0:0:0:0:
332,96,78462,5,10,0:0:0:0:
189,113,78693,1,2,0:0:0:0:
367,221,78925,2,0,P|406:223|446:219,1,80,2|0,3:2|0:0,0:0:0:0:
271,179,79388,1,10,0:0:0:0:
283,362,79620,1,2,3:2:0:0:
283,362,79736,1,0,3:0:0:0:
283,362,79851,6,0,B|287:334|287:334|283:282,1,80,2|0,3:2|0:0,0:0:0:0:
259,75,80314,1,10,0:0:0:0:
367,221,80546,1,2,0:0:0:0:
177,140,80778,2,0,B|95:131|95:131|58:139,1,120,2|2,3:2|0:0,0:0:0:0:
30,147,81241,2,0,P|16:111|21:71,1,80,8|2,0:0|0:0,0:0:0:0:
194,45,81704,5,2,3:2:0:0:
100,225,81935,1,2,0:0:0:0:
216,52,82167,1,8,0:0:0:0:
74,215,82398,1,2,0:0:0:0:
264,136,82630,2,0,L|355:124,1,80,2|2,3:2|0:0,0:0:0:0:
483,219,83093,2,0,L|404:209,1,80,8|2,0:0|0:0,0:0:0:0:
459,33,83556,6,0,B|444:112,1,80,6|0,3:2|3:0,0:0:0:0:
416,116,83904,1,0,3:0:0:0:
388,119,84020,2,0,L|308:129,1,80,10|0,3:2|0:0,0:0:0:0:
150,154,84483,1,2,3:2:0:0:
280,36,84714,1,2,0:0:0:0:
343,218,84946,2,0,P|350:256|342:295,1,80,8|2,0:0|0:0,0:0:0:0:
190,362,85409,2,0,L|270:370,1,80,2|0,3:2|0:0,0:0:0:0:
436,349,85872,1,10,0:0:0:0:
262,286,86104,1,2,0:0:0:0:
344,199,86357,6,0,L|337:239,1,40,8|8,3:2|0:0,0:0:0:0:
248,157,86588,2,0,L|255:197,1,40,8|8,0:0|0:0,0:0:0:0:
368,89,86820,2,0,L|361:129,1,40,8|8,0:0|0:0,0:0:0:0:
227,46,87051,2,0,L|234:86,1,40,8|8,0:0|0:0,0:0:0:0:
310,15,87283,1,4,0:0:0:0:
256,192,87399,12,0,90062,0:0:0:0:
