osu file format v14

[General]
AudioFilename: audio.mp3
AudioLeadIn: 0
PreviewTime: 45581
Countdown: 0
SampleSet: Soft
StackLeniency: 0.7
Mode: 0
LetterboxInBreaks: 0
WidescreenStoryboard: 0

[Editor]
DistanceSpacing: 1.2
BeatDivisor: 4
GridSize: 32
TimelineZoom: 1

[Metadata]
Title:echoes
TitleUnicode:echoes
Artist:universe
ArtistUnicode:universe
Creator:-Sh1n1-
Version:Advanced
Source:BLEACH
Tags:kurosaki ichigo inoue orihime ending ed24 shini kocari tv size
BeatmapID:1547910
BeatmapSetID:733435

[Difficulty]
HPDrainRate:5
CircleSize:4
OverallDifficulty:4
ApproachRate:5
SliderMultiplier:1.4
SliderTickRate:1

[Events]
//Background and Video events
0,0,"IchihimeBG.jpg",0,0
//Break Periods
//Storyboard Layer 0 (Background)
//Storyboard Layer 1 (Fail)
//Storyboard Layer 2 (Pass)
//Storyboard Layer 3 (Foreground)
//Storyboard Sound Samples

[TimingPoints]
2044,463.141644152837,4,2,1,30,1,0
2044,-100,4,2,1,30,0,0
15938,-100,4,2,1,50,0,0
16864,-100,4,2,1,60,0,0
46505,-100,4,2,1,70,0,1
61326,-100,4,2,1,70,0,0
76146,-100,4,2,1,70,0,1
86357,463.141644152837,4,2,1,70,1,1
87283,-100,4,2,1,70,0,0
87399,-100,4,2,1,50,0,0
88209,-100,4,2,1,30,0,0
89135,-100,4,2,1,15,0,0
90062,-100,4,2,1,5,0,0

[Colours]
Combo1 : 255,255,145
Combo2 : 255,206,206
Combo3 : 98,98,98
Combo4 : 253,201,81

[HitObjects]
76,221,2044,6,0,L|65:142,1,70,2|0,0:0|0:0,0:0:0:0:
55,75,2507,2,0,L|129:62,1,70,2|0,0:0|0:0,0:0:0:0:
194,93,2970,2,0,L|342:65,1,140,2|2,3:2|0:0,0:0:0:0:
407,58,3664,1,0,0:0:0:0:
469,102,3896,6,0,P|478:143|468:168,1,70,2|0,0:0|0:0,0:0:0:0:
415,224,4359,2,0,P|395:289|416:360,2,140,2|2|2,0:0|3:2|0:0,0:0:0:0:
495,92,5749,6,0,B|453:106|453:106|356:93,1,140,2|2,0:0|0:0,0:0:0:0:
281,83,6443,1,0,0:0:0:0:
204,72,6675,2,0,P|228:142|289:161,1,140,2|2,3:2|0:0,0:0:0:0:
393,270,7601,6,0,B|351:256|351:256|254:269,1,140,2|2,0:0|0:0,0:0:0:0:
179,279,8296,1,0,0:0:0:0:
107,306,8527,2,0,B|74:325|52:349|52:349|45:315|27:280,1,140,2|2,3:2|0:0,0:0:0:0:
7,130,9454,6,0,P|29:103|61:89,1,70,2|0,0:0|0:0,0:0:0:0:
57,11,9917,2,0,P|91:17|119:39,1,70,2|0,0:0|0:0,0:0:0:0:
135,115,10380,2,0,B|169:134|169:134|272:117,1,140,2|2,3:2|0:0,0:0:0:0:
344,104,11075,1,0,0:0:0:0:
404,151,11306,6,0,L|472:138,1,70,2|0,0:0|0:0,0:0:0:0:
494,212,11769,2,0,L|347:240,2,140,2|2|2,0:0|3:2|0:0,0:0:0:0:
399,333,13159,6,0,L|252:305,1,140,2|2,0:0|0:0,0:0:0:0:
191,339,13853,1,0,0:0:0:0:
113,335,14085,2,0,P|90:272|114:200,1,140,2|2,3:2|0:0,0:0:0:0:
168,61,15011,6,0,B|199:53|199:53|272:71|272:71|306:62,1,140,2|2,0:0|0:0,0:0:0:0:
378,40,15706,1,0,0:0:0:0:
450,14,15937,2,0,B|495:27|514:74|498:130|457:137|457:137|413:104,1,210,2|0,3:2|0:0,0:0:0:0:
378,40,16864,6,0,L|310:57,1,70,6|0,0:0|0:0,0:0:0:0:
246,100,17327,2,0,L|109:63,1,140,10|2,0:0|3:2,0:0:0:0:
35,46,18022,1,0,3:0:0:0:
35,46,18253,1,10,0:0:0:0:
42,200,18717,6,0,P|48:235|42:269,1,70,2|0,0:0|0:0,0:0:0:0:
110,304,19180,2,0,P|124:252|109:160,1,140,10|2,0:0|3:2,0:0:0:0:
49,123,19874,1,0,3:0:0:0:
49,123,20106,1,10,0:0:0:0:
198,160,20569,6,0,L|269:148,1,70,2|0,3:2|0:0,0:0:0:0:
336,180,21032,2,0,P|366:246|336:309,1,140,10|2,0:0|3:2,0:0:0:0:
267,328,21727,1,0,3:0:0:0:
267,328,21959,1,10,0:0:0:0:
117,291,22422,6,0,L|31:304,1,70,6|2,3:2|0:0,0:0:0:0:
26,227,22885,2,0,L|95:216,1,70,2|2,3:2|0:0,0:0:0:0:
171,208,23348,1,10,3:2:0:0:
246,193,23580,2,0,P|270:129|240:68,1,140,6|0,0:0|3:0,0:0:0:0:
174,29,24274,6,0,B|216:39|216:39|320:29,1,140,4|10,3:2|0:0,0:0:0:0:
389,27,24969,1,0,0:0:0:0:
455,65,25201,2,0,P|465:99|456:135,1,70,2|0,3:2|0:0,0:0:0:0:
415,196,25664,2,0,P|405:230|414:266,1,70,10|0,0:0|0:0,0:0:0:0:
447,331,26127,6,0,B|379:358|379:306|310:330,1,140,2|10,3:2|0:0,0:0:0:0:
235,345,26822,1,2,0:0:0:0:
159,330,27054,2,0,B|151:296|151:296|161:259,2,70,2|0|10,3:2|0:0|0:0,0:0:0:0:
235,345,27748,1,2,3:2:0:0:
311,329,27979,6,0,B|321:294|321:294|311:185,1,140,2|8,3:2|0:0,0:0:0:0:
246,149,28674,1,2,0:0:0:0:
174,178,28906,2,0,L|94:166,1,70,0|2,3:0|0:0,0:0:0:0:
67,99,29369,2,0,L|136:88,1,70,8|2,0:0|0:0,0:0:0:0:
212,77,29832,6,0,P|200:43|168:18,2,70,2|2|10,3:2|0:0|0:0,0:0:0:0:
287,94,30527,1,0,0:0:0:0:
362,77,30758,2,0,P|374:43|406:18,1,70,2|0,3:2|0:0,0:0:0:0:
437,87,31221,1,8,0:0:0:0:
412,239,31685,6,0,P|341:225|274:239,1,140,2|10,3:2|0:0,0:0:0:0:
201,258,32380,1,0,0:0:0:0:
129,284,32611,2,0,P|124:249|137:216,1,70,2|0,3:2|0:0,0:0:0:0:
78,165,33074,2,0,P|105:144|141:139,1,70,10|2,0:0|0:0,0:0:0:0:
207,179,33538,6,0,B|218:148|218:148|204:35,1,140,2|10,3:2|0:0,0:0:0:0:
280,57,34233,1,0,0:0:0:0:
354,75,34463,2,0,L|423:60,2,70,2|2|8,3:2|0:0|0:0,0:0:0:0:
337,149,35159,1,2,0:0:0:0:
315,222,35390,6,0,P|361:262|387:206,1,140,2|8,3:2|0:0,0:0:0:0:
337,149,36085,1,2,3:2:0:0:
260,141,36317,2,0,L|187:136,1,70,0|0,3:0|0:0,0:0:0:0:
127,181,36779,2,0,P|119:214|128:251,1,70,10|2,0:0|0:0,0:0:0:0:
190,294,37242,6,0,L|259:289,2,70,2|0|10,3:2|0:0|0:0,0:0:0:0:
118,325,37938,1,0,0:0:0:0:
43,304,38169,2,0,L|30:235,1,70,8|0,3:2|0:0,0:0:0:0:
13,159,38632,1,8,0:0:0:0:
13,159,38863,1,8,0:0:0:0:
67,104,39095,6,0,B|135:77|135:129|204:105,1,140,6|10,3:2|3:2,0:0:0:0:
277,84,39790,1,2,3:2:0:0:
345,117,40021,2,0,P|352:155|341:192,1,70,0|2,3:0|0:0,0:0:0:0:
307,252,40484,1,8,3:2:0:0:
307,252,40716,1,2,3:2:0:0:
230,242,40947,6,0,P|193:236|158:243,2,70,2|0|10,3:2|3:0|3:2,0:0:0:0:
307,252,41642,1,0,3:0:0:0:
382,270,41874,2,0,P|419:276|454:269,1,70,2|2,3:2|3:2,0:0:0:0:
502,213,42337,2,0,L|493:138,1,70,8|2,3:2|3:2,0:0:0:0:
481,67,42800,6,0,B|382:79|382:79|343:66,1,140,2|10,3:2|0:0,0:0:0:0:
270,43,43495,1,10,0:0:0:0:
208,89,43726,2,0,L|217:164,1,70,8|10,3:2|0:0,0:0:0:0:
283,196,44189,1,2,3:2:0:0:
283,196,44421,1,6,0:0:0:0:
283,196,45579,5,8,0:0:0:0:
357,179,45810,1,0,3:0:0:0:
419,224,46042,1,8,0:0:0:0:
433,299,46274,1,8,0:0:0:0:
386,360,46505,6,0,B|337:349|337:349|243:358,1,140,6|10,3:2|3:2,0:0:0:0:
171,368,47200,1,0,0:0:0:0:
100,337,47431,2,0,L|108:265,1,70,2|2,3:2|0:0,0:0:0:0:
151,203,47895,2,0,L|143:131,1,70,8|2,0:0|0:0,0:0:0:0:
219,119,48358,6,0,L|233:258,1,140,2|10,3:2|0:0,0:0:0:0:
303,288,49052,1,2,0:0:0:0:
376,264,49284,2,0,B|408:254|408:254|479:273|479:273|514:264,1,140,2|10,3:2|0:0,0:0:0:0:
481,194,49979,1,2,3:2:0:0:
455,121,50210,6,0,L|472:48,1,70,2|0,3:2|0:0,0:0:0:0:
393,57,50673,2,0,B|360:68|360:68|321:57,1,70,10|2,0:0|0:0,0:0:0:0:
250,43,51137,2,0,L|217:187,1,140,2|8,3:2|0:0,0:0:0:0:
200,254,51831,1,2,0:0:0:0:
140,303,52063,2,0,P|104:312|70:303,1,70,2|2,3:2|0:0,0:0:0:0:
13,254,52526,1,8,0:0:0:0:
13,254,52989,5,8,3:2:0:0:
16,177,53220,1,8,0:0:0:0:
19,99,53452,1,8,0:0:0:0:
22,21,53684,1,8,0:0:0:0:
96,38,53915,6,0,B|133:52|133:52|240:34,1,140,6|10,3:2|3:2,0:0:0:0:
308,22,54610,1,0,0:0:0:0:
380,47,54841,2,0,P|390:82|381:116,1,70,2|2,3:2|0:0,0:0:0:0:
351,184,55305,2,0,P|341:219|350:253,1,70,8|2,0:0|0:0,0:0:0:0:
383,320,55768,6,0,B|315:347|315:295|246:319,1,140,2|10,3:2|0:0,0:0:0:0:
174,343,56462,1,2,0:0:0:0:
102,314,56694,2,0,B|93:247|93:247|102:174,1,140,0|8,0:0|0:0,0:0:0:0:
176,154,57389,1,2,0:0:0:0:
249,177,57620,6,0,L|321:177,1,70,2|0,3:2|3:0,0:0:0:0:
392,200,58084,1,2,3:2:0:0:
455,156,58315,2,0,P|474:93|450:20,1,140,2|2,3:2|3:2,0:0:0:0:
382,56,59010,2,0,B|377:91|377:91|382:125,1,70,10|0,3:2|0:0,0:0:0:0:
455,156,59473,2,0,B|460:191|460:191|454:225,2,70,2|2|2,3:2|3:2|3:2,0:0:0:0:
304,125,60399,5,8,3:2:0:0:
231,150,60631,1,8,0:0:0:0:
158,125,60862,1,8,0:0:0:0:
85,150,61094,1,8,0:0:0:0:
11,125,61326,6,0,L|22:272,1,140,6|10,3:2|0:0,0:0:0:0:
68,325,62020,1,0,3:0:0:0:
142,305,62252,2,0,L|223:281,1,70,2|2,3:2|0:0,0:0:0:0:
280,315,62715,2,0,L|361:291,1,70,8|2,0:0|0:0,0:0:0:0:
421,275,63178,6,0,P|435:207|418:137,1,140,2|8,3:2|0:0,0:0:0:0:
345,116,63873,1,2,0:0:0:0:
271,139,64104,2,0,P|260:166|254:209,2,70,0|2|10,3:0|0:0|0:0,0:0:0:0:
233,71,64799,1,0,0:0:0:0:
157,88,65031,6,0,B|123:99|123:99|57:77|57:77|24:88,1,140,2|8,3:2|0:0,0:0:0:0:
58,156,65725,1,2,0:0:0:0:
96,223,65957,2,0,B|102:257|102:257|96:293,1,70,0|0,3:0|0:0,0:0:0:0:
88,368,66420,2,0,L|158:359,1,70,10|0,0:0|0:0,0:0:0:0:
226,323,66883,6,0,L|296:332,1,70,2|2,3:2|0:0,0:0:0:0:
371,345,67346,1,8,0:0:0:0:
441,313,67578,2,0,P|459:252|440:177,1,140,2|0,3:2|0:0,0:0:0:0:
379,132,68273,1,10,0:0:0:0:
237,191,68736,6,0,B|198:209|198:209|100:192,1,140,6|10,3:2|0:0,0:0:0:0:
26,181,69431,1,0,3:0:0:0:
23,257,69662,2,0,L|21:330,1,70,2|2,3:2|0:0,0:0:0:0:
86,368,70125,2,0,L|156:353,1,70,8|2,0:0|0:0,0:0:0:0:
208,298,70588,6,0,B|307:319|307:319|348:304,1,140,2|10,3:2|0:0,0:0:0:0:
302,240,71283,1,2,3:2:0:0:
252,181,71515,2,0,P|243:147|252:113,1,70,2|0,3:2|0:0,0:0:0:0:
324,87,71978,1,10,0:0:0:0:
324,87,72209,1,0,0:0:0:0:
376,144,72441,6,0,B|445:167|445:119|514:145,1,140,4|0,0:0|3:0,0:0:0:0:
477,213,73136,2,0,L|488:355,1,140,4|0,0:0|3:0,0:0:0:0:
413,371,73830,1,0,3:0:0:0:
337,353,74062,2,0,L|347:213,1,140,4|2,0:0|3:2,0:0:0:0:
356,136,74757,1,2,3:2:0:0:
356,136,75220,5,8,0:0:0:0:
283,160,75451,1,0,3:0:0:0:
206,152,75683,1,8,0:0:0:0:
129,146,75915,1,8,0:0:0:0:
54,165,76146,6,0,B|43:214|43:214|51:303,1,140,6|10,3:2|3:2,0:0:0:0:
120,351,76841,1,0,0:0:0:0:
191,308,77072,2,0,L|263:316,1,70,2|2,3:2|0:0,0:0:0:0:
334,357,77536,2,0,L|406:349,1,70,8|2,0:0|0:0,0:0:0:0:
486,334,77999,6,0,P|501:269|486:196,1,140,2|10,3:2|0:0,0:0:0:0:
414,156,78693,1,2,0:0:0:0:
343,202,78925,2,0,B|311:212|311:212|240:193|240:193|205:202,1,140,2|10,3:2|0:0,0:0:0:0:
137,246,79620,1,2,3:2:0:0:
57,218,79851,6,0,L|74:145,1,70,2|0,3:2|0:0,0:0:0:0:
148,111,80314,2,0,L|131:38,1,70,10|2,0:0|0:0,0:0:0:0:
211,12,80778,2,0,L|244:156,1,140,2|8,3:2|0:0,0:0:0:0:
321,175,81472,1,2,0:0:0:0:
382,117,81704,6,0,P|416:109|452:119,1,70,2|2,3:2|0:0,0:0:0:0:
510,175,82167,2,0,L|498:258,1,70,8|2,0:0|0:0,0:0:0:0:
485,327,82630,1,2,3:2:0:0:
401,324,82861,1,2,0:0:0:0:
317,321,83093,1,8,0:0:0:0:
233,318,83325,1,2,0:0:0:0:
149,315,83556,6,0,B|163:278|163:278|145:171,1,140,6|10,3:2|3:2,0:0:0:0:
127,96,84251,1,0,0:0:0:0:
178,30,84482,2,0,P|213:20|247:29,1,70,2|2,3:2|0:0,0:0:0:0:
321,60,84946,2,0,P|355:70|388:63,1,70,8|2,0:0|0:0,0:0:0:0:
465,28,85409,6,0,B|492:96|440:96|464:165,1,140,2|10,3:2|0:0,0:0:0:0:
479,246,86103,1,2,0:0:0:0:
463,328,86357,2,0,B|388:319,2,70,8|8|8,3:2|0:0|0:0,0:0:0:0:
479,246,87051,1,8,0:0:0:0:
463,163,87283,1,4,0:0:0:0:
256,192,87514,12,0,90062,0:0:0:0:
