osu file format v14

[General]
AudioFilename: audio.mp3
AudioLeadIn: 0
PreviewTime: 107443
Countdown: 0
SampleSet: Soft
StackLeniency: 0.4
Mode: 0
LetterboxInBreaks: 0
WidescreenStoryboard: 0

[Editor]
Bookmarks: 129225
DistanceSpacing: 1
BeatDivisor: 4
GridSize: 4
TimelineZoom: 1.3

[Metadata]
Title:Your favorite sidekick (feat. 8485)
TitleUnicode:Your favorite sidekick (feat. 8485)
Artist:underscores
ArtistUnicode:underscores
Creator:Vendanger
Version:Normal
Source:
Tags:fishmonger hyperpop pop rock eighty english FAVOURITE
BeatmapID:3218465
BeatmapSetID:1573155

[Difficulty]
HPDrainRate:3
CircleSize:3.2
OverallDifficulty:4.5
ApproachRate:5.5
SliderMultiplier:1
SliderTickRate:1

[Events]
//Background and Video events
0,0,"yfs.jpg",0,0
//Break Periods
2,44143,53485
2,86810,93485
//Storyboard Layer 0 (Background)
//Storyboard Layer 1 (Fail)
//Storyboard Layer 2 (Pass)
//Storyboard Layer 3 (Foreground)
//Storyboard Layer 4 (Overlay)
//Storyboard Sound Samples

[TimingPoints]
1277,333.333333333333,4,2,1,60,1,0
1277,-111.111111111111,4,2,2,60,0,0
1610,-111.111111111111,4,2,1,40,0,0
9276,-100,4,2,1,75,0,0
9443,-100,4,2,1,5,0,0
9610,-100,4,2,1,75,0,0
9776,-100,4,2,1,5,0,0
9943,-100,4,2,1,75,0,0
10610,-100,4,2,1,35,0,0
11943,-100,4,2,1,60,0,0
12276,-100,4,2,1,50,0,0
16276,-100,4,2,1,60,0,0
17610,-100,4,2,1,50,0,0
18943,-100,4,2,1,60,0,0
19276,-100,4,2,1,50,0,0
19943,-100,4,2,1,75,0,0
20110,-100,4,2,1,5,0,0
20277,-100,4,2,1,75,0,0
20443,-100,4,2,1,5,0,0
20610,-100,4,2,1,75,0,0
22276,-100,4,2,1,45,0,0
22610,-100,4,2,1,60,0,0
22943,-100,4,2,1,50,0,0
26943,-100,4,2,1,60,0,0
27943,-100,4,2,1,35,0,0
28610,-100,4,2,1,50,0,0
29610,-100,4,2,1,60,0,0
29943,-100,4,2,1,50,0,0
30610,-100,4,2,1,80,0,0
30776,-100,4,2,1,5,0,0
30943,-100,4,2,1,75,0,0
31109,-100,4,2,1,5,0,0
31276,-100,4,2,1,75,0,0
33276,-100,4,2,1,60,0,0
33610,-100,4,2,1,50,0,0
37610,-100,4,2,1,60,0,0
38943,-100,4,2,1,50,0,0
41276,-100,4,2,1,85,0,0
41443,-100,4,2,1,5,0,0
41610,-100,4,2,1,75,0,0
41776,-100,4,2,1,5,0,0
41943,-100,4,2,1,75,0,0
42276,-100,4,2,1,30,0,0
54610,-111.111111111111,4,2,2,35,0,0
63860,-100,4,2,3,55,0,0
64443,-100,4,2,1,35,0,0
65276,-100,4,2,1,60,0,0
65610,-100,4,2,1,50,0,0
69610,-100,4,2,1,60,0,0
70943,-100,4,2,1,50,0,0
72276,-100,4,2,1,60,0,0
73276,-100,4,2,1,75,0,0
73443,-100,4,2,1,5,0,0
73610,-100,4,2,1,75,0,0
73776,-100,4,2,1,5,0,0
73943,-100,4,2,1,75,0,0
75943,-100,4,2,1,60,0,0
76276,-100,4,2,1,50,0,0
80276,-100,4,2,1,60,0,0
81610,-100,4,2,1,50,0,0
82943,-100,4,2,1,60,0,0
83276,-100,4,2,1,50,0,0
83943,-100,4,2,1,75,0,0
84110,-100,4,2,1,5,0,0
84277,-100,4,2,1,75,0,0
84443,-100,4,2,1,5,0,0
84610,-100,4,2,1,75,0,0
86610,-100,4,2,1,60,0,0
94776,-100,4,2,1,5,0,0
94943,-100,4,2,1,75,0,0
95109,-100,4,2,1,5,0,0
95276,-100,4,2,1,75,0,0
97276,-100,4,2,1,60,0,0
105276,-100,4,2,1,75,0,0
105443,-100,4,2,1,5,0,0
105610,-100,4,2,1,75,0,0
105776,-100,4,2,1,5,0,0
105943,-100,4,2,1,75,0,0
107610,-100,4,2,2,85,0,0
107943,-90.9090909090909,4,2,2,80,0,1
115943,-90.9090909090909,4,2,1,75,0,0
116110,-90.9090909090909,4,2,1,5,0,0
116277,-90.9090909090909,4,2,1,75,0,0
116443,-90.9090909090909,4,2,1,5,0,0
116610,-90.9090909090909,4,2,1,75,0,0
117276,-90.9090909090909,4,2,2,80,0,1
126610,-90.9090909090909,4,2,1,75,0,0
126776,-90.9090909090909,4,2,1,5,0,0
126943,-90.9090909090909,4,2,1,75,0,0
127109,-90.9090909090909,4,2,1,5,0,0
127276,-90.9090909090909,4,2,1,75,0,0
127943,-90.9090909090909,4,2,2,80,0,1
129276,-100,4,2,1,45,0,0

[Colours]
Combo1 : 69,103,137
Combo2 : 168,204,208

[HitObjects]
0,28,1277,6,0,P|36:0|88:4,1,89.9999972534181,10|2,0:2|0:1,0:0:0:0:
148,60,1943,2,0,P|176:60|196:56,2,44.999998626709,2|2|2,0:0|0:0|0:1,0:0:0:0:
80,120,2610,1,2,0:0:0:0:
136,192,2943,1,2,0:0:0:0:
80,264,3276,2,0,L|88:360,1,89.9999972534181,2|2,0:1|0:1,0:0:0:0:
176,368,3943,6,0,L|168:278,1,89.9999972534181,2|2,0:0|0:1,0:0:0:0:
220,204,4610,2,0,P|248:224|268:228,2,44.999998626709,2|2|2,0:0|0:0|0:1,0:0:0:0:
160,136,5276,1,2,0:1:0:0:
212,64,5610,1,2,0:1:0:0:
148,0,5943,2,0,P|100:16|52:16,1,89.9999972534181,2|2,0:0|0:1,0:0:0:0:
4,84,6610,5,2,1:2:0:0:
60,152,6943,1,2,1:1:0:0:
16,228,7276,2,0,L|24:288,1,44.999998626709,10|2,0:2|1:2,0:0:0:0:
60,296,7610,1,2,1:1:0:0:
124,236,7943,1,2,1:2:0:0:
124,236,8110,2,0,P|160:228|180:228,1,44.999998626709,10|2,0:2|1:2,0:0:0:0:
232,292,8610,2,0,P|272:304|340:300,1,89.9999972534181,10|2,0:1|1:1,0:0:0:0:
396,240,9276,6,0,L|388:184,1,50,4|0,3:3|0:0,0:0:0:0:
348,160,9610,2,0,L|356:104,1,50,4|0,3:3|0:0,0:0:0:0:
392,76,9943,1,4,3:3:0:0:
392,76,10110,2,0,L|380:16,1,50,4|4,3:3|3:3,0:0:0:0:
392,76,11943,6,0,P|436:96|464:152,1,100,2|2,3:2|1:1,0:0:0:0:
448,240,12610,2,0,L|392:232,1,50,10|2,0:2|1:2,0:0:0:0:
360,264,12943,1,2,1:1:0:0:
288,196,13276,1,2,1:2:0:0:
212,264,13610,1,2,1:2:0:0:
128,208,13943,6,0,B|152:164|152:164|128:100,1,100,10|2,0:1|1:1,0:0:0:0:
204,48,14610,2,0,P|232:80|304:76,1,100,2|2,1:2|1:1,0:0:0:0:
348,4,15276,2,0,L|408:12,1,50,10|2,0:2|1:2,0:0:0:0:
428,52,15610,1,2,1:1:0:0:
476,140,15943,2,0,L|416:148,1,50,2|2,1:1|1:1,0:0:0:0:
400,188,16276,6,0,P|424:216|420:296,1,100,2|2,3:1|3:2,0:0:0:0:
388,304,16776,1,0,3:0:0:0:
388,304,16943,1,2,3:2:0:0:
300,348,17276,5,2,3:2:0:0:
212,300,17610,1,2,1:1:0:0:
144,372,17943,2,0,L|74:364,1,50,10|2,0:2|1:2,0:0:0:0:
64,328,18276,1,2,1:1:0:0:
4,247,18610,1,2,1:2:0:0:
60,164,18943,2,0,L|109:169,1,50,2|2,3:2|0:0,0:0:0:0:
141,207,19276,2,0,P|174:181|243:183,1,100,2|2,1:1|1:1,0:0:0:0:
314,232,19943,6,0,L|326:171,1,50,4|0,3:3|0:0,0:0:0:0:
365,155,20276,2,0,L|353:94,1,50,4|0,3:3|0:0,0:0:0:0:
322,76,20610,1,4,3:3:0:0:
322,76,20776,2,0,L|334:15,1,50,4|4,3:3|3:3,0:0:0:0:
322,76,22276,2,0,P|297:70|272:68,1,50,2|2,0:0|0:0,0:0:0:0:
246,24,22610,6,0,P|202:35|139:41,1,100,2|2,3:2|1:1,0:0:0:0:
53,4,23276,1,10,2:2:0:0:
10,94,23610,1,2,1:1:0:0:
93,148,23943,2,0,L|100:217,1,50,2|2,1:2|1:2,0:0:0:0:
71,240,24276,1,2,1:2:0:0:
160,285,24610,2,0,L|148:402,1,100,10|2,0:1|1:1,0:0:0:0:
241,345,25276,6,0,P|275:366|344:353,1,100,2|2,1:2|1:1,0:0:0:0:
385,274,25943,1,10,0:2:0:0:
449,354,26276,1,2,1:1:0:0:
510,274,26610,2,0,L|500:216,1,50,2|2,1:1|1:1,0:0:0:0:
461,195,26943,6,0,B|484:153|484:153|464:89,1,100,2|2,3:1|3:2,0:0:0:0:
436,71,27443,1,0,3:0:0:0:
436,71,27610,1,2,3:2:0:0:
499,2,27943,1,2,3:2:0:0:
294,49,28610,6,0,L|309:172,1,100,10|2,0:1|1:1,0:0:0:0:
392,197,29276,2,0,P|372:236|366:256,1,50,2|10,1:2|0:2,0:0:0:0:
395,285,29610,1,2,3:2:0:0:
339,368,29943,2,0,P|315:348|239:344,1,100,10|2,0:1|1:1,0:0:0:0:
165,285,30610,6,0,L|175:220,1,50,6|0,3:3|0:0,0:0:0:0:
217,213,30943,2,0,L|207:148,1,50,6|0,3:3|0:0,0:0:0:0:
176,126,31276,1,4,3:3:0:0:
176,126,31443,2,0,L|186:61,1,50,6|4,3:3|3:3,0:0:0:0:
170,132,33276,6,0,P|211:108|271:109,1,100,2|2,3:2|1:1,0:0:0:0:
336,174,33943,1,10,2:2:0:0:
403,100,34276,1,2,1:1:0:0:
475,169,34610,2,0,L|537:164,2,50,2|2|2,1:2|1:2|1:2,0:0:0:0:
447,210,35110,1,2,1:2:0:0:
447,210,35276,2,0,P|467:258|455:308,1,100,10|2,0:1|1:1,0:0:0:0:
386,374,35943,6,0,P|358:333|312:315,1,100,2|2,1:2|1:2,0:0:0:0:
243,242,36610,1,10,0:1:0:0:
147,270,36943,1,2,1:1:0:0:
80,192,37276,2,0,L|18:203,1,50,2|2,1:1|1:1,0:0:0:0:
1,241,37610,6,0,P|23:284|26:354,1,100,2|2,3:1|3:2,0:0:0:0:
18,384,38110,1,0,3:0:0:0:
18,384,38276,1,2,3:2:0:0:
118,384,38610,6,0,L|223:372,1,100,2|2,3:2|1:1,0:0:0:0:
287,301,39276,1,10,0:2:0:0:
234,215,39610,1,2,1:1:0:0:
291,133,39943,2,0,P|322:151|356:154,1,50,2|2,1:2|1:2,0:0:0:0:
380,130,40276,1,2,3:2:0:0:
451,200,40610,2,0,P|406:223|364:272,1,100,10|2,0:1|1:1,0:0:0:0:
343,354,41276,6,0,L|278:346,1,50,6|0,3:3|0:0,0:0:0:0:
255,314,41610,2,0,L|205:320,1,50,6|0,3:3|0:0,0:0:0:0:
167,353,41943,1,6,3:3:0:0:
167,353,42110,1,4,3:3:0:0:
167,353,43943,5,2,3:2:0:0:
297,337,54610,6,0,L|208:349,1,89.9999972534181,0|0,1:2|1:2,0:0:0:0:
159,273,55276,1,10,0:3:0:0:
159,273,55443,2,0,L|114:267,2,44.999998626709,2|2|2,1:2|1:2|1:2,0:0:0:0:
187,238,55943,2,0,P|173:198|188:140,1,89.9999972534181,2|2,1:2|1:2,0:0:0:0:
214,121,56443,1,2,1:2:0:0:
294,161,56776,1,2,1:2:0:0:
404,82,57276,6,0,L|410:173,1,89.9999972534181,0|0,1:2|1:2,0:0:0:0:
495,213,57943,1,10,0:3:0:0:
495,213,58110,2,0,L|498:157,2,44.999998626709,2|2|2,1:2|1:2|1:2,0:0:0:0:
473,252,58610,2,0,P|487:286|490:304,1,44.999998626709,2|2,1:2|1:2,0:0:0:0:
445,373,59110,1,2,1:2:0:0:
363,335,59443,1,2,1:2:0:0:
235,378,59943,6,0,P|219:340|247:281,1,89.9999972534181,0|0,1:2|1:2,0:0:0:0:
292,226,60610,1,10,0:3:0:0:
292,226,60776,2,0,P|331:238|350:239,2,44.999998626709,2|2|2,1:2|1:2|1:2,0:0:0:0:
274,184,61276,2,0,P|237:175|219:174,1,44.999998626709,2|2,1:2|1:2,0:0:0:0:
143,200,61776,1,2,1:2:0:0:
95,123,62110,1,2,1:2:0:0:
144,48,62443,2,0,B|188:55|188:55|234:20,1,89.9999972534181,2|2,1:2|1:2,0:0:0:0:
309,56,63110,2,0,B|344:29|344:29|389:36,1,89.9999972534181,2|2,1:2|1:2,0:0:0:0:
463,92,63776,6,0,B|473:129|441:152|441:152|429:174|454:207|454:207|431:235|435:264,1,179.999994506836,2|0,1:2|1:2,1:0:0:0:
479,287,64610,1,2,0:0:0:0:
479,287,64776,1,2,0:0:0:0:
364,380,65276,6,0,P|324:352|256:356,1,100,2|2,3:2|1:1,0:0:0:0:
220,264,65943,2,0,P|260:252|272:244,1,50,10|0,0:2|1:2,0:0:0:0:
284,200,66276,1,2,1:1:0:0:
372,244,66610,1,2,1:2:0:0:
428,160,66943,1,2,1:2:0:0:
364,84,67276,2,0,P|316:88|260:68,1,100,10|2,0:1|1:1,0:0:0:0:
196,4,67943,6,0,P|146:0|99:15,1,100,2|2,1:2|1:1,0:0:0:0:
28,84,68610,2,0,L|36:140,1,50,10|2,0:2|1:2,0:0:0:0:
12,176,68943,1,2,1:1:0:0:
88,240,69276,2,0,L|80:296,1,50,2|2,1:1|1:1,0:0:0:0:
56,332,69610,6,0,B|100:348|100:348|160:328,1,100,2|10,3:1|3:2,0:0:0:0:
188,300,70110,1,0,3:0:0:0:
188,300,70276,1,2,3:2:0:0:
244,216,70610,5,2,3:2:0:0:
184,136,70943,1,2,1:1:0:0:
240,52,71276,2,0,L|289:58,1,50,8|2,0:2|1:2,0:0:0:0:
328,92,71610,1,2,1:1:0:0:
404,24,71943,1,2,1:2:0:0:
468,104,72276,2,0,P|456:140|456:160,1,50,2|0,3:2|1:0,0:0:0:0:
488,188,72610,2,0,P|509:252|509:288,1,100,10|2,0:1|0:1,0:0:0:0:
444,360,73276,6,0,L|384:352,1,50,4|0,3:3|0:0,0:0:0:0:
352,328,73610,2,0,L|302:334,1,50,4|0,3:3|0:0,0:0:0:0:
265,367,73943,1,4,3:3:0:0:
265,367,74110,2,0,L|205:359,1,50,4|4,3:3|3:3,0:0:0:0:
232,276,75943,6,0,L|114:292,1,100,2|2,3:2|1:1,0:0:0:0:
52,228,76610,2,0,P|68:196|64:172,1,50,10|2,0:2|1:2,0:0:0:0:
44,140,76943,1,2,1:1:0:0:
112,64,77276,1,2,1:2:0:0:
196,120,77610,1,2,1:2:0:0:
280,64,77943,2,0,P|308:112|320:164,1,100,10|2,0:1|1:1,0:0:0:0:
416,180,78610,6,0,P|388:228|376:280,1,100,2|2,1:2|1:1,0:0:0:0:
332,360,79276,2,0,L|276:352,1,50,10|2,0:2|1:2,0:0:0:0:
264,308,79610,1,2,1:1:0:0:
216,220,79943,2,0,L|166:227,1,50,2|2,1:1|0:1,0:0:0:0:
132,264,80276,6,0,P|80:240|20:260,1,100,2|2,3:1|3:2,0:0:0:0:
12,292,80776,1,0,3:0:0:0:
12,292,80943,1,2,3:2:0:0:
64,376,81276,5,2,3:2:0:0:
160,344,81610,1,2,1:1:0:0:
252,308,81943,2,0,L|308:316,1,50,10|2,0:2|1:2,0:0:0:0:
332,356,82276,1,2,1:1:0:0:
404,288,82610,1,2,1:2:0:0:
360,200,82943,2,0,P|332:200|310:192,1,50,2|2,3:2|1:2,0:0:0:0:
284,152,83276,2,0,B|308:108|308:108|288:56,1,100,10|2,0:1|1:1,0:0:0:0:
216,0,83943,6,0,L|152:4,1,50,4|0,3:3|0:0,0:0:0:0:
138,45,84276,2,0,L|88:41,1,50,4|0,3:3|0:0,0:0:0:0:
49,9,84610,1,4,3:3:0:0:
49,9,84776,2,0,L|-15:13,1,50,4|4,3:3|3:3,0:0:0:0:
49,9,86610,5,2,0:0:0:0:
49,9,94610,6,0,L|99:6,1,50,4|0,3:3|0:0,0:0:0:0:
133,42,94943,2,0,L|183:46,1,50,4|0,3:3|0:0,0:0:0:0:
225,19,95276,1,4,3:3:0:0:
225,19,95443,2,0,L|275:16,1,50,4|4,3:3|3:3,0:0:0:0:
193,53,97276,6,0,P|199:29|213:8,2,50,2|2|10,3:2|0:0|0:0,0:0:0:0:
232,80,97776,2,0,L|344:76,1,100,2|0,0:0|0:0,0:0:0:0:
376,52,98276,1,10,0:0:0:0:
444,124,98610,1,10,0:0:0:0:
388,208,98943,2,0,P|408:252|416:312,1,100,10|10,0:0|0:0,0:0:0:0:
344,372,99610,1,10,0:0:0:0:
260,320,99943,6,0,L|196:328,2,50,2|2|10,3:2|0:0|0:0,0:0:0:0:
280,276,100443,2,0,P|292:228|268:176,1,100,2|0,0:0|0:0,0:0:0:0:
236,152,100943,1,10,0:0:0:0:
296,72,101276,1,10,0:0:0:0:
224,4,101610,2,0,L|112:12,1,100,10|10,0:0|0:0,0:0:0:0:
36,60,102276,1,10,0:0:0:0:
88,144,102610,6,0,P|132:132|152:132,2,50,2|2|10,3:2|0:0|0:0,0:0:0:0:
48,176,103110,2,0,P|68:216|72:276,1,100,2|0,0:0|0:0,0:0:0:0:
52,316,103610,1,10,0:0:0:0:
136,368,103943,1,10,0:0:0:0:
224,320,104276,2,0,P|227:270|248:225,1,100,10|10,0:0|0:0,0:0:0:0:
336,176,104943,1,10,0:0:0:0:
301,82,105276,6,0,L|372:67,1,50,4|0,3:3|0:0,0:0:0:0:
372,26,105610,2,0,L|420:36,1,50,4|0,3:3|0:0,0:0:0:0:
458,70,105943,1,4,3:3:0:0:
458,70,106110,2,0,L|529:55,1,50,4|4,3:3|3:3,0:0:0:0:
458,70,107610,1,8,0:0:0:0:
370,3,107943,6,0,L|305:11,1,55.0000016784668,4|0,3:2|3:0,0:0:0:0:
275,47,108276,1,8,0:0:0:0:
193,121,108610,2,0,L|138:114,1,55.0000016784668,2|2,1:2|3:2,0:0:0:0:
103,71,108943,1,10,0:0:0:0:
36,158,109276,1,2,3:2:0:0:
119,217,109610,6,0,P|121:243|112:272,1,55.0000016784668,10|2,0:2|3:2,0:0:0:0:
59,286,109943,2,0,P|52:315|60:359,1,55.0000016784668,2|0,1:2|3:0,0:0:0:0:
97,374,110276,1,10,0:0:0:0:
197,331,110610,2,0,P|226:338|271:341,1,55.0000016784668,0|0,3:0|3:0,0:0:0:0:
294,307,110943,2,0,P|277:273|296:203,1,110.000003356934,8|0,0:0|1:0,0:0:0:0:
396,165,111610,2,0,P|404:136|385:96,1,55.0000016784668,10|2,0:0|0:0,0:0:0:0:
380,60,111943,6,0,B|348:40|348:40|271:48,1,110.000003356934,2|10,3:2|0:0,0:0:0:0:
249,97,112443,1,2,3:2:0:0:
249,97,112610,1,2,1:2:0:0:
142,69,112943,1,10,0:0:0:0:
37,33,113276,6,0,P|18:76|27:141,1,110.000003356934,2|10,3:2|0:0,0:0:0:0:
117,199,113943,1,0,1:0:0:0:
208,137,114276,2,0,L|273:132,1,55.0000016784668,10|2,0:0|1:2,0:0:0:0:
287,83,114610,2,0,L|415:92,1,110.000003356934,2|10,3:2|0:0,0:0:0:0:
428,135,115110,1,2,3:2:0:0:
428,135,115276,2,0,P|408:177|408:250,1,110.000003356934,2|10,1:2|0:0,0:0:0:0:
472,328,115943,6,0,L|410:338,1,55.0000016784668,4|0,3:3|0:0,0:0:0:0:
371,366,116276,2,0,L|316:357,1,55.0000016784668,4|0,3:3|0:0,0:0:0:0:
276,318,116610,1,4,3:3:0:0:
276,318,116776,2,0,L|221:326,1,55.0000016784668,4|6,3:3|3:3,0:0:0:0:
252,220,117276,6,0,P|247:181|259:155,1,55.0000016784668,2|2,3:2|3:2,0:0:0:0:
304,148,117610,2,0,P|309:109|297:83,1,55.0000016784668,10|2,0:2|3:2,0:0:0:0:
272,52,117943,1,2,1:2:0:0:
168,16,118276,2,0,L|91:25,1,55.0000016784668,10|8,0:0|0:0,0:0:0:0:
60,4,118610,1,6,3:2:0:0:
4,100,118943,6,0,P|22:142|24:167,1,55.0000016784668,10|2,0:0|3:2,0:0:0:0:
72,176,119276,2,0,P|48:230|43:292,1,110.000003356934,2|10,0:0|0:0,0:0:0:0:
96,308,119776,1,2,0:0:0:0:
96,308,119943,2,0,L|163:299,1,55.0000016784668,2|2,3:2|3:2,0:0:0:0:
196,331,120276,1,10,0:0:0:0:
265,243,120610,2,0,L|319:250,1,55.0000016784668,2|0,1:2|3:0,0:0:0:0:
368,225,120943,1,10,0:0:0:0:
327,122,121276,6,0,L|217:136,1,110.000003356934,0|8,3:2|0:0,0:0:0:0:
149,50,121943,2,0,P|191:50|209:39,1,55.0000016784668,2|2,0:2|3:2,0:0:0:0:
245,10,122276,2,0,P|270:0|297:4,1,55.0000016784668,10|2,0:0|0:0,0:0:0:0:
342,36,122610,1,2,3:2:0:0:
446,1,122943,5,10,0:0:0:0:
493,99,123276,2,0,L|488:163,1,55.0000016784668,2|0,1:2|3:0,0:0:0:0:
453,196,123610,2,0,P|479:247|477:310,1,110.000003356934,10|2,0:0|3:2,0:0:0:0:
408,382,124276,2,0,P|351:362|277:359,1,110.000003356934,8|2,0:0|1:2,0:0:0:0:
251,372,124776,5,2,3:2:0:0:
251,372,124943,2,0,P|245:329|230:306,1,55.0000016784668,10|2,0:0|0:0,0:0:0:0:
191,293,125276,2,0,P|186:243|216:176,1,110.000003356934,2|10,3:2|0:0,0:0:0:0:
113,129,125943,2,0,L|58:119,1,55.0000016784668,2|2,1:2|3:2,0:0:0:0:
37,68,126276,1,10,0:0:0:0:
143,23,126610,6,0,L|215:10,1,55.0000016784668,4|0,3:3|0:0,0:0:0:0:
249,0,126943,2,0,L|321:13,1,55.0000016784668,4|0,3:3|0:0,0:0:0:0:
341,44,127276,1,4,3:3:0:0:
341,44,127443,2,0,L|395:34,1,55.0000016784668,4|6,3:3|3:3,0:0:0:0:
488,92,127943,6,0,P|511:129|495:204,1,110.000003356934,10|10,0:0|0:0,0:0:0:0:
464,232,128443,1,2,3:2:0:0:
464,232,128610,2,0,L|392:237,1,55.0000016784668,10|10,1:2|0:0,0:0:0:0:
371,275,128943,2,0,L|317:271,1,55.0000016784668,10|8,1:2|1:2,0:0:0:0:
281,236,129276,5,2,3:1:0:0:
