osu file format v14

[General]
AudioFilename: audio.mp3
AudioLeadIn: 0
PreviewTime: 107443
Countdown: 0
SampleSet: Soft
StackLeniency: 0.4
Mode: 0
LetterboxInBreaks: 0
WidescreenStoryboard: 0

[Editor]
DistanceSpacing: 0.4
BeatDivisor: 4
GridSize: 4
TimelineZoom: 1.3

[Metadata]
Title:Your favorite sidekick (feat. 8485)
TitleUnicode:Your favorite sidekick (feat. 8485)
Artist:underscores
ArtistUnicode:underscores
Creator:Vendanger
Version:Middle of nowhere
Source:
Tags:fishmonger hyperpop pop rock eighty english FAVOURITE
BeatmapID:3212067
BeatmapSetID:1573155

[Difficulty]
HPDrainRate:5
CircleSize:4.2
OverallDifficulty:8.2
ApproachRate:9.2
SliderMultiplier:1.5
SliderTickRate:1

[Events]
//Background and Video events
0,0,"yfs.jpg",0,0
//Break Periods
2,44143,54010
2,86810,94010
//Storyboard Layer 0 (Background)
//Storyboard Layer 1 (Fail)
//Storyboard Layer 2 (Pass)
//Storyboard Layer 3 (Foreground)
//Storyboard Layer 4 (Overlay)
//Storyboard Sound Samples

[TimingPoints]
1277,333.333333333333,4,2,1,60,1,0
1277,-83.3333333333333,4,2,2,60,0,0
1610,-111.111111111111,4,2,1,40,0,0
9276,-71.4285714285714,4,2,1,75,0,0
9526,-71.4285714285714,4,2,1,5,0,0
9610,-71.4285714285714,4,2,1,75,0,0
9860,-71.4285714285714,4,2,1,5,0,0
9943,-71.4285714285714,4,2,1,75,0,0
10026,-71.4285714285714,4,2,1,5,0,0
10110,-71.4285714285714,4,2,1,75,0,0
10193,-71.4285714285714,4,2,1,5,0,0
10277,-71.4285714285714,4,2,1,75,0,0
10360,-71.4285714285714,4,2,1,5,0,0
10610,-166.666666666667,4,2,1,35,0,0
11943,-83.3333333333333,4,2,1,60,0,0
12276,-100,4,2,1,50,0,0
16276,-83.3333333333333,4,2,1,60,0,0
16693,-83.3333333333333,4,2,1,5,0,0
16776,-83.3333333333333,4,2,1,60,0,0
16859,-83.3333333333333,4,2,1,5,0,0
16943,-83.3333333333333,4,2,1,60,0,0
17610,-100,4,2,1,50,0,0
18943,-83.3333333333333,4,2,1,60,0,0
19276,-100,4,2,1,50,0,0
19943,-71.4285714285714,4,2,1,75,0,0
20193,-71.4285714285714,4,2,1,5,0,0
20277,-71.4285714285714,4,2,1,75,0,0
20527,-71.4285714285714,4,2,1,5,0,0
20610,-71.4285714285714,4,2,1,75,0,0
20693,-71.4285714285714,4,2,1,5,0,0
20776,-71.4285714285714,4,2,1,75,0,0
20859,-71.4285714285714,4,2,1,5,0,0
20943,-71.4285714285714,4,2,1,75,0,0
21026,-71.4285714285714,4,2,1,5,0,0
21276,-166.666666666667,4,2,1,35,0,0
22110,-166.666666666667,4,2,1,5,0,0
22276,-166.666666666667,4,2,1,45,0,0
22610,-83.3333333333333,4,2,1,60,0,0
22943,-100,4,2,1,50,0,0
26943,-83.3333333333333,4,2,1,60,0,0
27360,-83.3333333333333,4,2,1,5,0,0
27443,-83.3333333333333,4,2,1,60,0,0
27526,-83.3333333333333,4,2,1,5,0,0
27610,-83.3333333333333,4,2,1,60,0,0
27693,-83.3333333333333,4,2,1,5,0,0
27943,-83.3333333333333,4,2,1,35,0,0
28610,-100,4,2,1,50,0,0
29610,-83.3333333333333,4,2,1,60,0,0
29943,-100,4,2,1,50,0,0
30610,-71.4285714285714,4,2,1,80,0,0
30860,-71.4285714285714,4,2,1,5,0,0
30943,-71.4285714285714,4,2,1,80,0,0
31193,-71.4285714285714,4,2,1,5,0,0
31276,-71.4285714285714,4,2,1,80,0,0
31360,-71.4285714285714,4,2,1,5,0,0
31443,-71.4285714285714,4,2,1,80,0,0
31526,-71.4285714285714,4,2,1,5,0,0
31609,-71.4285714285714,4,2,1,80,0,0
31693,-71.4285714285714,4,2,1,5,0,0
31943,-166.666666666667,4,2,1,30,0,0
32860,-166.666666666667,4,2,1,5,0,0
32943,-166.666666666667,4,2,1,30,0,0
33276,-83.3333333333333,4,2,1,60,0,0
33610,-100,4,2,1,50,0,0
37610,-83.3333333333333,4,2,1,60,0,0
38026,-83.3333333333333,4,2,1,5,0,0
38110,-83.3333333333333,4,2,1,60,0,0
38193,-83.3333333333333,4,2,1,5,0,0
38276,-83.3333333333333,4,2,1,60,0,0
38943,-100,4,2,1,50,0,0
41276,-71.4285714285714,4,2,1,85,0,0
41526,-71.4285714285714,4,2,1,5,0,0
41610,-71.4285714285714,4,2,1,85,0,0
41860,-71.4285714285714,4,2,1,5,0,0
41943,-71.4285714285714,4,2,1,85,0,0
42026,-71.4285714285714,4,2,1,5,0,0
42110,-71.4285714285714,4,2,1,85,0,0
42193,-71.4285714285714,4,2,1,5,0,0
42276,-166.666666666667,4,2,1,30,0,0
43526,-166.666666666667,4,2,1,5,0,0
43610,-166.666666666667,4,2,1,30,0,0
54610,-125,4,2,2,35,0,0
57193,-125,4,2,2,5,0,0
57276,-125,4,2,2,35,0,0
59860,-125,4,2,2,5,0,0
59943,-125,4,2,2,35,0,0
63860,-125,4,2,3,55,0,0
64443,-125,4,2,1,35,0,0
65276,-83.3333333333333,4,2,1,60,0,0
65610,-100,4,2,1,50,0,0
69610,-83.3333333333333,4,2,1,60,0,0
70026,-83.3333333333333,4,2,1,5,0,0
70110,-83.3333333333333,4,2,1,60,0,0
70193,-83.3333333333333,4,2,1,5,0,0
70277,-83.3333333333333,4,2,1,60,0,0
70943,-100,4,2,1,50,0,0
72276,-83.3333333333333,4,2,1,60,0,0
73276,-71.4285714285714,4,2,1,75,0,0
73526,-71.4285714285714,4,2,1,5,0,0
73610,-71.4285714285714,4,2,1,75,0,0
73860,-71.4285714285714,4,2,1,5,0,0
73943,-71.4285714285714,4,2,1,75,0,0
74026,-71.4285714285714,4,2,1,5,0,0
74109,-71.4285714285714,4,2,1,75,0,0
74193,-71.4285714285714,4,2,1,5,0,0
74276,-71.4285714285714,4,2,1,75,0,0
74360,-71.4285714285714,4,2,1,5,0,0
74610,-166.666666666667,4,2,1,35,0,0
75943,-83.3333333333333,4,2,1,60,0,0
76276,-100,4,2,1,50,0,0
80276,-83.3333333333333,4,2,1,60,0,0
80693,-83.3333333333333,4,2,1,5,0,0
80776,-83.3333333333333,4,2,1,60,0,0
80860,-83.3333333333333,4,2,1,5,0,0
80943,-83.3333333333333,4,2,1,60,0,0
81610,-100,4,2,1,50,0,0
82943,-83.3333333333333,4,2,1,60,0,0
83276,-100,4,2,1,50,0,0
83943,-71.4285714285714,4,2,1,75,0,0
84193,-71.4285714285714,4,2,1,5,0,0
84276,-71.4285714285714,4,2,1,75,0,0
84526,-71.4285714285714,4,2,1,5,0,0
84609,-71.4285714285714,4,2,1,75,0,0
84693,-71.4285714285714,4,2,1,5,0,0
84776,-71.4285714285714,4,2,1,75,0,0
84860,-71.4285714285714,4,2,1,5,0,0
84943,-71.4285714285714,4,2,1,75,0,0
85026,-71.4285714285714,4,2,1,5,0,0
85276,-166.666666666667,4,2,1,25,0,0
85610,-142.857142857143,4,2,1,30,0,0
85943,-125,4,2,1,35,0,0
86110,-125,4,2,1,5,0,0
86276,-111.111111111111,4,2,1,40,0,0
86443,-111.111111111111,4,2,1,5,0,0
86610,-111.111111111111,4,2,1,60,0,0
94610,-71.4285714285714,4,2,1,75,0,0
94860,-71.4285714285714,4,2,1,5,0,0
94943,-71.4285714285714,4,2,1,75,0,0
95193,-71.4285714285714,4,2,1,5,0,0
95276,-71.4285714285714,4,2,1,75,0,0
95360,-71.4285714285714,4,2,1,5,0,0
95443,-71.4285714285714,4,2,1,75,0,0
95526,-71.4285714285714,4,2,1,5,0,0
95609,-71.4285714285714,4,2,1,75,0,0
95693,-71.4285714285714,4,2,1,5,0,0
97276,-83.3333333333333,4,2,1,60,0,0
105276,-71.4285714285714,4,2,1,75,0,0
105526,-71.4285714285714,4,2,1,5,0,0
105610,-71.4285714285714,4,2,1,75,0,0
105860,-71.4285714285714,4,2,1,5,0,0
105944,-71.4285714285714,4,2,1,75,0,0
106026,-71.4285714285714,4,2,1,5,0,0
106110,-71.4285714285714,4,2,1,75,0,0
106193,-71.4285714285714,4,2,1,5,0,0
106277,-71.4285714285714,4,2,1,75,0,0
106360,-71.4285714285714,4,2,1,5,0,0
107610,-71.4285714285714,4,2,2,85,0,0
107943,-66.6666666666667,4,2,2,80,0,1
112860,-66.6666666666667,4,2,2,5,0,1
112943,-66.6666666666667,4,2,2,80,0,1
115860,-66.6666666666667,4,2,2,5,0,1
115943,-71.4285714285714,4,2,1,75,0,0
116193,-71.4285714285714,4,2,1,5,0,0
116276,-71.4285714285714,4,2,1,75,0,0
116526,-71.4285714285714,4,2,1,5,0,0
116609,-71.4285714285714,4,2,1,75,0,0
116693,-71.4285714285714,4,2,1,5,0,0
116776,-71.4285714285714,4,2,1,75,0,0
116860,-71.4285714285714,4,2,1,5,0,0
116943,-71.4285714285714,4,2,1,75,0,0
117276,-66.6666666666667,4,2,2,80,0,1
118193,-66.6666666666667,4,2,2,5,0,1
118276,-66.6666666666667,4,2,2,80,0,1
126526,-66.6666666666667,4,2,2,5,0,1
126610,-71.4285714285714,4,2,1,75,0,0
126860,-71.4285714285714,4,2,1,5,0,0
126943,-71.4285714285714,4,2,1,75,0,0
127193,-71.4285714285714,4,2,1,5,0,0
127276,-71.4285714285714,4,2,1,75,0,0
127360,-71.4285714285714,4,2,1,5,0,0
127443,-71.4285714285714,4,2,1,75,0,0
127526,-71.4285714285714,4,2,1,5,0,0
127609,-71.4285714285714,4,2,1,75,0,0
127693,-71.4285714285714,4,2,1,5,0,0
127776,-71.4285714285714,4,2,1,75,0,0
127943,-66.6666666666667,4,2,2,80,0,1
129276,-100,4,2,1,45,0,0

[Colours]
Combo1 : 69,103,137
Combo2 : 168,204,208

[HitObjects]
208,192,1277,6,0,B|169:167|149:173|149:173|133:197|132:190,1,89.9999972534181,10|0,0:2|0:0,0:0:0:0:
28,57,1610,2,0,P|53:82|87:82,1,67.4999979400635,2|0,0:1|0:1,0:0:0:0:
257,20,1943,1,2,0:0:0:0:
183,7,2110,1,2,0:0:0:0:
209,77,2276,1,2,0:1:0:0:
399,122,2610,6,0,P|383:166|379:198,1,67.4999979400635,2|2,0:0|0:0,0:0:0:0:
304,200,2943,2,0,P|312:246|324:275,1,67.4999979400635,2|2,0:0|0:0,0:0:0:0:
439,262,3276,2,2,L|462:258,5,22.4999993133545,2|2|2|2|2|2,0:1|0:1|0:1|0:1|0:1|0:1,0:1:0:0:
427,270,3610,2,0,P|414:303|414:324,2,44.999998626709,2|2|2,0:1|0:1|0:1,0:0:0:0:
308,356,3943,6,0,B|192:336,1,101.249996910095,2|0,0:0|0:0,0:0:0:0:
219,330,4276,1,2,0:1:0:0:
127,346,4443,1,2,0:1:0:0:
73,295,4610,1,2,0:0:0:0:
79,286,4776,1,2,0:0:0:0:
3,191,4943,2,0,B|72:176,1,67.4999979400635,2|0,0:1|0:0,0:0:0:0:
244,84,5276,5,2,0:1:0:0:
168,72,5443,1,2,0:1:0:0:
252,96,5610,1,2,0:1:0:0:
176,84,5777,1,2,0:1:0:0:
308,16,5943,2,0,P|336:24|376:28,1,67.4999979400635,2|0,0:0|0:0,0:0:0:0:
496,76,6276,2,0,P|460:80|428:88,1,67.4999979400635,2|0,0:1|0:0,0:0:0:0:
360,228,6610,6,0,B|377:258|377:258|374:290,1,67.4999979400635,2|0,1:2|1:2,1:2:0:0:
296,360,6943,2,0,B|280:332|280:332|284:288,1,67.4999979400635,2|2,1:1|1:1,1:2:0:0:
368,216,7276,1,10,0:2:0:0:
308,144,7443,1,2,1:2:0:0:
352,84,7610,2,0,P|396:76|428:72,1,67.4999979400635,2|0,1:1|1:2,1:2:0:0:
204,0,7943,5,2,1:2:0:0:
128,0,8110,2,0,P|168:8|208:8,1,67.4999979400635,10|2,0:2|1:2,1:2:0:0:
240,72,8443,1,2,1:2:0:0:
144,156,8610,2,2,L|140:134,5,22.4999993133545,10|2|2|2|2|2,0:1|0:1|0:1|1:1|0:1|0:1,0:1:0:0:
128,164,8943,5,2,1:1:0:0:
176,224,9054,1,2,1:1:0:0:
140,292,9165,1,2,1:1:0:0:
208,384,9276,6,0,B|236:368|256:364|256:364|280:368|308:384|308:384|348:384|392:368,1,157.499995193482,4|0,3:3|0:0,0:0:0:0:
480,292,9610,2,0,B|452:308|432:312|432:312|408:308|380:292|380:292|336:288|296:308,1,157.499995193482,4|0,3:3|0:0,0:0:0:0:
264,244,9943,2,0,P|280:223|288:198,1,52.4999983978272,4|0,3:3|0:0,0:0:0:0:
376,128,10110,2,0,P|349:124|324:130,1,52.4999983978272,4|0,3:3|0:0,0:0:0:0:
220,92,10276,2,0,P|230:116|247:135,1,52.4999983978272,4|0,3:3|0:0,0:0:0:0:
512,8,10610,6,0,L|504:68,1,44.999998626709,2|2,0:1|0:1,0:0:0:0:
440,212,10943,2,0,B|434:190|434:190|417:212,1,44.999998626709,2|2,0:1|0:1,0:0:0:0:
352,240,11276,2,0,L|372:336,1,89.9999972534181,2|2,0:0|0:1,0:0:0:0:
0,268,11943,6,0,B|33:264|33:264|52:244|52:244|87:250,1,89.9999972534181,2|0,3:2|0:0,0:0:0:0:
132,304,12276,1,2,1:1:0:0:
224,160,12443,1,2,1:1:0:0:
228,172,12526,1,0,1:2:0:0:
232,184,12610,2,0,P|176:164|132:160,1,75,10|2,0:2|1:2,1:2:0:0:
56,104,12943,2,0,P|92:96|127:81,1,75,2|0,1:1|1:2,1:2:0:0:
232,4,13276,5,2,1:2:0:0:
296,40,13443,1,2,1:2:0:0:
324,168,13610,1,2,1:2:0:0:
393,143,13777,1,2,1:2:0:0:
512,216,13943,2,2,L|508:248,5,25,10|2|2|2|2|2,0:1|0:1|0:1|1:1|0:1|1:1,0:1:0:0:
492,256,14276,2,0,L|500:312,2,50,2|2|2,1:1|0:1|0:1,1:2:0:0:
416,244,14610,6,0,P|372:264|328:264,1,75,2|0,1:2|1:2,1:2:0:0:
248,156,14943,1,2,1:1:0:0:
192,208,15110,1,0,1:1:0:0:
324,168,15276,1,10,0:2:0:0:
250,145,15443,1,2,1:2:0:0:
224,72,15610,1,2,1:1:0:0:
264,4,15776,2,0,L|320:0,1,37.5,0|0,1:1|1:2,1:2:0:0:
436,24,15943,1,2,1:1:0:0:
364,56,16110,1,2,1:1:0:0:
472,232,16276,6,0,B|488:208|488:184|468:160|468:160|436:172,1,89.9999972534181,2|2,3:1|1:1,0:0:0:0:
332,276,16610,2,0,P|302:289|282:287,1,44.999998626709,2|0,3:2|0:0,0:0:0:0:
273,206,16776,2,0,P|302:192|322:194,1,44.999998626709,0|0,3:0|0:0,0:0:0:0:
359,286,16943,2,0,P|307:309|272:306,1,89.9999972534181,2|0,3:2|1:0,0:0:0:0:
80,256,17276,6,0,B|84:232|104:216|104:216|100:192|88:175,1,89.9999972534181,2|0,3:2|1:0,0:0:0:0:
180,100,17610,2,0,B|167:132|167:132|184:184,1,75,2|0,1:1|1:1,1:2:0:0:
92,88,17943,1,10,0:2:0:0:
132,24,18110,1,2,1:2:0:0:
88,96,18276,2,0,P|44:90|4:88,1,75,2|0,1:1|1:2,1:2:0:0:
256,132,18610,5,2,1:2:0:0:
278,204,18777,1,10,0:2:0:0:
168,292,18943,2,0,B|176:308|176:308|164:332|164:352|164:352|188:384,1,89.9999972534181,2|2,3:2|0:0,0:0:0:0:
52,268,19276,2,2,L|92:260,5,25,2|2|2|2|2|2,1:1|0:1|0:1|3:1|0:1|0:1,0:1:0:0:
40,256,19610,5,2,1:1:0:0:
80,188,19721,1,2,0:1:0:0:
40,120,19832,1,2,0:1:0:0:
64,40,19943,6,0,B|80:68|84:88|84:88|80:116|64:140|64:140|64:180|80:224,1,157.499995193482,4|0,3:3|0:0,0:0:0:0:
176,224,20276,2,0,B|160:196|156:176|156:176|156:152|176:124|176:124|176:84|160:40,1,157.499995193482,4|0,3:3|0:0,0:0:0:0:
224,16,20610,2,0,P|256:32|280:40,1,52.4999983978272,4|0,3:3|0:0,0:0:0:0:
392,0,20776,2,0,P|367:9|344:21,1,52.4999983978272,4|0,3:3|0:0,0:0:0:0:
432,68,20943,2,0,P|456:77|479:89,1,52.4999983978272,4|0,3:3|0:0,0:0:0:0:
504,256,21276,6,0,P|476:255|449:251,1,44.999998626709,2|2,0:1|0:1,0:0:0:0:
368,384,21610,2,0,B|392:380|392:380|368:364,1,44.999998626709,2|2,0:1|0:1,0:0:0:0:
328,312,21943,2,0,P|305:314|283:315,1,44.999998626709,2|0,0:0|0:1,0:0:0:0:
192,260,22276,1,2,0:0:0:0:
196,248,22360,1,2,0:0:0:0:
252,204,22443,1,2,0:0:0:0:
240,184,22526,1,2,0:0:0:0:
172,156,22610,6,0,B|200:176|220:180|220:180|240:160|268:156,1,89.9999972534181,2|0,3:2|1:0,0:0:0:0:
288,76,22943,1,2,1:1:0:0:
120,20,23110,1,2,1:1:0:0:
124,32,23193,1,0,1:2:0:0:
124,44,23276,2,0,P|60:60|20:60,1,75,10|0,2:2|1:2,1:2:0:0:
0,188,23610,2,0,P|37:193|72:204,1,75,2|0,1:1|1:2,1:2:0:0:
188,308,23943,5,2,1:2:0:0:
260,280,24110,1,2,1:2:0:0:
332,252,24276,2,0,L|340:340,1,75,2|0,1:2|1:2,1:2:0:0:
252,272,24610,2,2,L|256:228,5,25,10|2|2|2|2|2,0:1|0:1|0:1|1:1|0:1|0:1,0:1:0:0:
260,240,24943,2,0,L|255:186,2,50,2|2|2,1:1|0:1|0:1,0:0:0:0:
173,133,25276,6,0,P|148:159|112:160,1,75,2|0,1:2|1:2,1:2:0:0:
0,72,25610,1,2,1:1:0:0:
24,0,25776,1,2,1:1:0:0:
36,144,25943,2,0,P|24:188|20:232,1,75,10|0,0:2|1:2,1:2:0:0:
96,340,26276,1,2,1:1:0:0:
148,284,26443,2,0,P|144:265|138:247,1,37.5,2|0,1:1|1:2,1:2:0:0:
240,180,26610,1,2,1:1:0:0:
292,236,26777,1,2,1:1:0:0:
440,120,26943,6,0,B|416:144|420:172|420:172|440:196|428:216,1,89.9999972534181,2|2,3:1|1:1,0:0:0:0:
496,336,27276,2,0,L|428:328,1,44.999998626709,2|0,3:2|0:0,0:0:0:0:
400,384,27443,2,0,L|332:376,1,44.999998626709,0|0,3:0|0:0,0:0:0:0:
288,340,27610,2,0,L|408:352,1,89.9999972534181,2|0,3:2|1:0,0:0:0:0:
232,224,27943,6,0,B|240:192|240:192|228:140,1,59.9999981689454,2|2,3:2|0:0,0:0:0:0:
176,120,28165,1,2,0:0:0:0:
372,16,28610,6,0,P|388:52|396:96,1,75,10|0,0:1|1:0,1:2:0:0:
488,180,28943,2,0,P|495:143|511:109,1,75,2|0,1:1|1:2,1:2:0:0:
360,160,29276,1,2,1:2:0:0:
292,120,29443,1,10,0:2:0:0:
156,48,29610,2,0,B|164:80|184:92|184:92|184:124|160:152,1,89.9999972534181,2|0,3:2|1:0,0:0:0:0:
114,176,29943,2,2,L|67:168,5,25,10|2|2|2|2|2,0:1|0:1|0:1|0:1|0:1|0:1,0:1:0:0:
72,156,30276,5,2,1:1:0:0:
28,220,30388,1,2,0:1:0:0:
76,280,30499,1,2,0:1:0:0:
12,352,30610,6,0,B|36:331|55:323|55:323|88:324|110:334|110:334|152:336|190:304,1,157.499995193482,6|0,3:3|0:0,0:0:0:0:
172,240,30943,2,0,B|196:260|215:268|215:268|244:268|270:257|270:257|312:256|350:287,1,157.499995193482,6|0,3:3|0:0,0:0:0:0:
388,304,31276,2,0,L|399:355,1,52.4999983978272,6|0,3:3|0:0,0:0:0:0:
428,208,31443,2,0,L|452:254,1,52.4999983978272,6|0,3:3|0:0,0:0:0:0:
444,104,31610,2,0,L|479:142,1,52.4999983978272,6|0,3:3|0:0,0:0:0:0:
260,4,31943,6,0,P|228:8|204:16,1,44.999998626709,2|2,0:0|0:0,0:0:0:0:
136,72,32276,2,0,P|168:76|192:84,1,44.999998626709,2|2,0:0|0:0,0:0:0:0:
236,132,32610,2,0,P|216:160|212:196,1,67.4999979400635,2|0,0:0|0:0,0:0:0:0:
188,220,32943,1,2,0:0:0:0:
196,236,33026,1,2,0:0:0:0:
220,252,33110,1,2,0:0:0:0:
218,269,33193,1,2,0:0:0:0:
208,360,33276,6,0,B|192:340|152:336|152:336|132:352|104:344,1,89.9999972534181,2|0,3:2|1:0,0:0:0:0:
56,384,33610,1,2,1:1:0:0:
0,248,33776,1,0,1:1:0:0:
4,260,33860,1,0,1:2:0:0:
13,266,33943,2,0,P|25:206|45:170,1,75,10|0,2:2|1:2,1:2:0:0:
132,116,34276,2,0,P|125:71|107:30,1,75,2|0,1:1|1:2,1:2:0:0:
188,168,34610,5,2,1:2:0:0:
256,128,34776,1,2,1:2:0:0:
304,0,34943,1,2,1:2:0:0:
380,21,35109,1,2,1:2:0:0:
460,128,35276,2,2,L|504:120,5,25,10|2|2|2|2|2,0:1|0:1|0:1|1:1|0:1|0:1,0:1:0:0:
452,144,35610,2,0,L|380:136,2,50,2|2|2,1:1|0:1|0:1,0:0:0:0:
512,216,35943,6,0,B|496:252|496:252|512:292,1,75,2|0,1:2|1:2,1:2:0:0:
412,376,36276,1,2,1:2:0:0:
344,344,36443,1,2,1:1:0:0:
216,384,36610,2,0,B|232:348|232:348|216:308,1,75,10|0,0:1|1:2,1:2:0:0:
196,244,36943,1,2,1:1:0:0:
228,128,37110,2,0,L|276:132,1,37.5,2|0,1:1|1:2,1:2:0:0:
128,80,37276,1,2,1:1:0:0:
98,153,37443,1,2,1:1:0:0:
24,308,37610,5,2,3:1:0:0:
10,231,37777,1,2,1:1:0:0:
96,356,37943,2,0,P|116:346|137:340,1,44.999998626709,2|0,3:2|0:0,0:0:0:0:
136,264,38110,2,0,P|158:265|180:270,1,44.999998626709,0|0,3:0|0:0,0:0:0:0:
212,200,38276,2,0,P|250:223|281:257,1,89.9999972534181,2|0,3:2|1:0,0:0:0:0:
32,96,38610,6,0,B|56:104|64:120|64:120|96:120|144:92,1,89.9999972534181,2|0,3:2|0:0,0:0:0:0:
176,64,38943,1,2,1:1:0:0:
132,0,39110,1,2,1:1:0:0:
188,68,39276,2,0,P|200:120|192:152,1,75,10|0,0:2|1:2,1:2:0:0:
307,84,39610,2,0,P|304:47|316:12,1,75,2|0,1:1|1:2,1:2:0:0:
416,184,39943,5,2,1:2:0:0:
476,120,40110,1,2,1:2:0:0:
424,280,40276,1,2,3:2:0:0:
404,192,40443,1,2,1:2:0:0:
320,160,40610,2,2,L|316:200,5,25,10|2|2|2|2|2,0:1|0:1|0:1|3:1|0:1|0:1,0:1:0:0:
304,148,40943,5,2,1:1:0:0:
244,196,41054,1,2,1:1:0:0:
176,160,41165,1,2,1:1:0:0:
108,216,41276,6,0,B|88:192|80:173|80:173|80:144|91:118|91:118|92:76|81:70,1,157.499995193482,6|0,3:3|0:0,0:0:0:0:
192,8,41610,2,0,B|180:14|182:55|182:55|192:82|192:110|192:110|185:129|165:153,1,157.499995193482,6|0,3:3|0:0,0:0:0:0:
236,204,41943,2,0,P|222:227|216:252,1,52.4999983978272,6|0,3:3|0:0,0:0:0:0:
168,340,42110,2,0,P|161:314|148:292,1,52.4999983978272,4|0,3:3|0:0,0:0:0:0:
244,384,42276,6,0,L|304:376,1,44.999998626709,2|2,0:0|0:0,0:0:0:0:
384,360,42610,1,2,0:1:0:0:
372,284,42777,1,2,0:1:0:0:
396,368,42944,1,2,0:1:0:0:
384,292,43111,1,2,0:1:0:0:
476,268,43276,2,0,L|468:188,1,67.4999979400635,2|0,0:0|0:0,0:0:0:0:
452,188,43610,1,2,0:1:0:0:
512,36,43943,5,2,3:2:0:0:
512,36,54610,5,0,1:2:0:0:
440,48,54776,1,0,1:2:0:0:
368,60,54943,1,0,1:2:0:0:
296,72,55110,1,0,1:2:0:0:
292,84,55193,1,0,1:2:0:0:
292,96,55276,5,10,0:3:0:0:
396,176,55443,1,2,1:2:0:0:
376,252,55610,1,2,1:2:0:0:
300,272,55776,1,2,1:2:0:0:
256,208,55943,2,0,L|180:220,1,60,2|0,1:2|1:2,1:2:0:0:
8,168,56276,1,2,1:2:0:0:
72,120,56443,6,0,P|88:172|80:200,1,60,2|10,1:2|0:3,1:2:0:0:
136,72,56776,2,0,P|164:108|260:84,1,150,2|0,1:2|0:2,1:2:0:0:
256,76,57276,1,0,1:2:0:0:
312,24,57443,1,0,1:2:0:0:
380,56,57610,1,0,1:2:0:0:
372,132,57776,1,0,1:2:0:0:
488,220,57943,5,10,0:3:0:0:
496,296,58110,1,2,1:2:0:0:
426,264,58276,1,2,1:2:0:0:
488,308,58443,1,2,1:2:0:0:
468,381,58610,1,2,1:2:0:0:
392,384,58776,2,0,P|340:368|320:368,1,60,2|0,1:2|1:2,1:2:0:0:
248,308,59110,6,0,P|275:297|305:293,1,60,2|10,1:2|0:3,1:2:0:0:
212,384,59443,2,0,P|224:352|192:240,1,150,2|0,1:2|0:2,1:2:0:0:
184,244,59943,1,0,1:2:0:0:
138,305,60110,1,0,1:2:0:0:
66,287,60277,1,0,1:2:0:0:
64,212,60443,1,0,1:2:0:0:
192,120,60610,5,10,0:3:0:0:
260,144,60776,1,2,1:2:0:0:
248,72,60943,1,2,1:2:0:0:
276,144,61110,1,2,1:2:0:0:
352,132,61276,2,0,L|424:120,1,60,2|0,1:2|1:2,1:2:0:0:
420,112,61526,1,2,1:2:0:0:
512,224,61776,2,0,P|492:246|487:275,1,60,2|10,1:2|0:3,1:2:0:0:
428,356,62110,2,0,P|423:326|403:304,1,60,2|0,1:2|1:2,1:2:0:0:
260,248,62443,6,0,P|248:296|252:320,1,60,2|0,1:2|1:2,1:2:0:0:
336,212,62776,2,0,P|300:177|277:169,1,60,2|0,1:2|1:0,1:2:0:0:
152,100,63110,2,0,P|199:86|218:70,1,60,2|0,1:2|1:2,1:2:0:0:
76,56,63443,2,0,P|64:103|68:128,1,60,2|0,1:2|1:2,1:2:0:0:
291,173,63776,6,0,B|243:164|218:207|218:207|191:224|147:196|147:196|114:228|77:227,1,240,2|0,1:2|1:2,1:0:0:0:
283,253,64610,1,2,0:0:0:0:
275,329,64776,1,2,0:0:0:0:
416,384,65276,6,0,B|396:364|396:364|396:340|436:312,1,89.9999972534181,2|0,3:2|1:0,0:0:0:0:
512,220,65610,1,2,1:1:0:0:
472,128,65776,1,2,1:1:0:0:
476,140,65860,1,0,1:2:0:0:
476,152,65943,2,0,P|420:140|372:140,1,75,10|0,0:2|1:2,1:2:0:0:
304,40,66276,2,0,P|341:36|377:26,1,75,2|0,1:1|1:2,1:2:0:0:
294,130,66610,5,2,1:2:0:0:
230,93,66776,1,2,1:2:0:0:
112,204,66943,1,2,1:2:0:0:
39,222,67109,1,2,1:2:0:0:
192,236,67276,2,2,L|196:280,5,25,10|2|2|2|2|2,0:1|0:1|0:1|1:1|0:1|0:1,0:1:0:0:
208,272,67610,2,0,L|202:332,2,50,2|2|2,1:1|0:1|0:1,0:0:0:0:
264,372,67943,6,0,P|308:356|360:356,1,75,2|0,1:2|1:2,1:2:0:0:
472,384,68276,1,2,1:1:0:0:
432,320,68443,1,2,1:1:0:0:
512,204,68610,1,10,0:2:0:0:
502,278,68777,1,2,1:2:0:0:
432,308,68943,1,2,1:1:0:0:
372,264,69110,2,0,L|320:260,1,37.5,2|0,1:1|1:2,1:2:0:0:
200,124,69276,1,2,1:1:0:0:
210,198,69443,1,2,1:1:0:0:
284,68,69610,6,0,B|278:74|302:106|302:106|310:134|282:142,1,89.9999972534181,2|10,3:1|1:2,0:0:0:0:
120,196,69943,2,0,P|100:244|96:276,1,44.999998626709,10|0,3:2|0:0,0:0:0:0:
36,280,70110,2,0,P|28:258|17:239,1,44.999998626709,0|0,3:0|0:0,0:0:0:0:
124,351,70276,2,0,P|145:312|175:278,1,89.9999972534181,2|0,3:2|1:0,0:0:0:0:
356,244,70610,6,0,B|380:256|384:276|384:276|432:276|424:256,1,89.9999972534181,2|0,3:2|1:0,0:0:0:0:
464,176,70943,2,0,P|420:148|380:152,1,75,2|2,1:1|1:1,1:2:0:0:
260,232,71276,1,8,0:2:0:0:
200,184,71443,1,2,1:2:0:0:
268,240,71610,2,0,L|256:324,1,75,2|0,1:1|1:2,1:2:0:0:
268,132,71943,5,2,1:2:0:0:
208,180,72110,1,10,0:2:0:0:
52,108,72276,2,0,B|68:96|68:96|40:80|56:56|56:56|76:28,1,89.9999972534181,2|0,3:2|1:0,0:0:0:0:
168,4,72610,2,2,L|128:0,5,29.9999990844727,10|10|2|10|2|10,0:1|0:1|0:1|3:1|0:1|0:1,0:1:0:0:
184,16,72943,5,2,0:1:0:0:
256,0,73054,1,2,0:1:0:0:
304,56,73165,1,2,0:1:0:0:
376,16,73276,6,0,B|388:45|390:66|390:66|382:93|363:115|363:115|354:148|369:200,1,157.499995193482,4|0,3:3|0:0,0:0:0:0:
456,180,73610,2,0,B|443:209|441:230|441:230|449:257|468:279|468:279|477:312|462:364,1,157.499995193482,4|0,3:3|0:0,0:0:0:0:
396,384,73943,2,0,P|372:364|340:356,1,52.4999983978272,4|0,3:3|0:0,0:0:0:0:
360,272,74110,2,0,P|328:274|300:291,1,52.4999983978272,4|0,3:3|0:0,0:0:0:0:
260,216,74276,2,0,P|240:240|232:272,1,52.4999983978272,4|0,3:3|0:0,0:0:0:0:
92,384,74610,6,0,L|88:332,1,44.999998626709,2|2,0:1|0:1,0:0:0:0:
16,196,74943,2,0,B|0:212|0:212|4:181,1,44.999998626709,2|2,0:1|0:1,0:0:0:0:
84,164,75276,2,0,P|104:188|164:180,1,89.9999972534181,2|2,0:0|0:1,0:0:0:0:
352,24,75943,6,0,B|332:44|332:44|300:24|300:24|276:28|248:20,1,89.9999972534181,2|0,3:2|1:0,0:0:0:0:
368,160,76276,1,2,1:1:0:0:
460,116,76443,1,2,1:1:0:0:
468,123,76526,1,0,1:2:0:0:
474,132,76610,2,0,P|494:196|498:224,1,75,10|2,0:2|1:2,1:2:0:0:
388,332,76943,2,0,P|396:295|409:260,1,75,2|0,1:1|1:2,1:2:0:0:
484,316,77276,5,2,1:2:0:0:
396,344,77443,1,2,1:2:0:0:
240,384,77610,1,2,1:2:0:0:
152,356,77777,1,2,1:2:0:0:
216,296,77943,2,2,L|240:290,5,25,10|2|2|2|2|2,0:1|0:1|0:1|1:1|0:1|0:1,0:1:0:0:
252,270,78276,2,0,L|203:282,2,50,2|2|2,1:1|0:1|0:1,0:0:0:0:
264,156,78610,6,0,L|245:83,1,75,2|0,1:2|1:2,1:2:0:0:
116,56,78943,1,2,1:1:0:0:
196,8,79110,1,2,1:1:0:0:
40,48,79276,1,10,0:2:0:0:
128,68,79443,1,2,1:2:0:0:
172,188,79610,1,2,1:1:0:0:
300,160,79776,2,0,L|260:172,1,37.5,2|0,1:1|1:2,1:2:0:0:
80,224,79943,1,2,1:1:0:0:
168,204,80110,1,2,0:1:0:0:
168,384,80276,6,0,B|192:376|208:360|208:360|232:344|276:356,1,89.9999972534181,2|2,3:1|1:1,0:0:0:0:
440,324,80610,2,0,P|450:355|446:374,1,44.999998626709,2|0,3:2|0:0,0:0:0:0:
365,376,80776,2,0,P|353:345|357:326,1,44.999998626709,0|0,3:0|0:0,0:0:0:0:
452,297,80943,2,0,P|470:350|464:385,1,89.9999972534181,2|0,3:2|1:0,0:0:0:0:
308,168,81276,6,0,B|336:176|336:176|348:200|348:200|384:200|392:164,1,89.9999972534181,2|0,3:2|1:0,0:0:0:0:
512,112,81610,2,0,L|438:98,1,75,2|2,1:1|1:1,1:2:0:0:
316,0,81943,1,10,0:2:0:0:
228,32,82110,1,2,1:2:0:0:
140,60,82276,2,0,L|213:46,1,75,2|0,1:1|1:2,1:2:0:0:
268,124,82610,5,2,1:2:0:0:
244,256,82776,1,10,0:2:0:0:
88,208,82943,2,0,B|112:224|112:244|112:244|92:264|84:300,1,89.9999972534181,2|2,3:2|1:2,0:0:0:0:
144,360,83276,2,2,L|192:352,5,25,10|2|2|2|2|2,0:1|0:1|0:1|3:1|0:1|0:1,0:1:0:0:
184,340,83610,5,2,1:1:0:0:
248,384,83721,1,2,0:1:0:0:
312,340,83832,1,2,0:1:0:0:
384,384,83943,6,0,B|396:354|398:333|398:333|390:306|371:284|371:284|362:251|377:199,1,157.499995193482,4|0,3:3|0:0,0:0:0:0:
456,228,84276,2,0,B|448:196|450:176|450:176|462:150|485:132|485:132|500:101|494:47,1,157.499995193482,4|0,3:3|0:0,0:0:0:0:
428,32,84610,2,0,P|399:45|375:71,1,52.4999983978272,4|0,3:3|0:0,0:0:0:0:
325,153,84776,2,0,P|327:121|315:87,1,52.4999983978272,4|0,3:3|0:0,0:0:0:0:
270,2,84943,2,0,P|295:19|330:26,1,52.4999983978272,4|0,3:3|0:3,0:3:0:0:
164,124,85276,6,0,L|108:116,1,44.999998626709,2|2,0:0|0:0,0:0:0:0:
104,44,85610,2,0,L|51:51,1,52.4999983978272,2|2,0:0|0:0,0:0:0:0:
180,140,85943,2,0,L|106:129,1,60,2|0,0:0|0:0,0:0:0:0:
112,36,86276,2,0,L|43:45,1,67.4999979400635,2|0,0:0|0:0,0:0:0:0:
0,200,86610,5,2,0:0:0:0:
0,304,94610,6,0,B|29:291|50:289|50:289|77:297|99:316|99:316|132:325|184:310,1,157.499995193482,4|0,3:3|0:0,0:0:0:0:
280,248,94943,2,0,B|250:260|229:262|229:262|202:254|180:235|180:235|147:226|95:241,1,157.499995193482,4|0,3:3|0:0,0:0:0:0:
63,172,95276,2,0,P|78:150|84:125,1,52.4999983978272,4|0,3:3|0:0,0:0:0:0:
172,139,95443,2,0,P|175:114|167:89,1,52.4999983978272,4|0,3:3|0:0,0:0:0:0:
251,63,95610,2,0,P|240:40|221:22,1,52.4999983978272,4|0,3:3|0:0,0:0:0:0:
0,340,97276,6,0,B|32:352|32:352|84:332,1,89.9999972534181,2|2,3:2|0:0,0:0:0:0:
192,384,97609,1,10,0:0:0:0:
252,336,97776,1,2,0:0:0:0:
368,384,97943,2,0,L|360:288,1,89.9999972534181,2|0,0:0|0:0,0:0:0:0:
448,100,98276,6,0,P|390:119|352:109,1,89.9999972534181,10|0,0:0|0:0,0:0:0:0:
348,20,98610,2,0,P|405:0|443:10,1,89.9999972534181,10|0,0:0|0:0,0:0:0:0:
460,112,98943,2,0,P|402:131|364:121,1,89.9999972534181,10|0,0:0|0:0,0:0:0:0:
360,32,99277,2,0,P|417:12|455:22,1,89.9999972534181,10|0,0:0|0:0,0:0:0:0:
472,124,99610,2,0,P|414:143|376:133,1,89.9999972534181,10|0,0:0|0:0,0:0:0:0:
208,60,99943,6,0,B|220:92|220:92|200:144,1,89.9999972534181,2|2,3:2|0:0,0:0:0:0:
108,236,100276,1,10,0:0:0:0:
92,160,100443,1,2,0:0:0:0:
4,264,100610,2,0,P|48:256|104:252,1,89.9999972534181,2|0,0:0|0:0,0:0:0:0:
260,344,100943,6,0,P|280:304|260:248,1,89.9999972534181,10|0,0:0|0:0,0:0:0:0:
376,188,101276,2,0,P|366:231|386:270,1,89.9999972534181,10|0,0:0|0:0,0:0:0:0:
272,336,101610,2,0,P|292:296|272:240,1,89.9999972534181,10|0,0:0|0:0,0:0:0:0:
388,180,101943,2,0,P|378:223|398:262,1,89.9999972534181,10|0,0:0|0:0,0:0:0:0:
280,332,102276,2,0,P|300:292|280:236,1,89.9999972534181,10|0,0:0|0:0,0:0:0:0:
100,140,102610,6,0,B|132:152|132:152|184:132,1,89.9999972534181,2|2,3:2|0:0,0:0:0:0:
300,68,102943,1,10,0:0:0:0:
372,92,103110,1,2,0:0:0:0:
476,32,103276,2,0,P|460:80|460:128,1,89.9999972534181,2|0,0:0|0:0,0:0:0:0:
512,304,103610,6,0,L|408:292,1,89.9999972534181,10|0,0:0|0:0,0:0:0:0:
292,204,103943,2,0,L|396:192,1,89.9999972534181,10|0,0:0|0:0,0:0:0:0:
504,312,104276,2,0,L|400:300,1,89.9999972534181,10|0,0:0|0:0,0:0:0:0:
284,212,104609,2,0,L|388:200,1,89.9999972534181,10|0,0:0|0:0,0:0:0:0:
500,320,104943,2,0,B|476:340|476:340|396:308,1,89.9999972534181,10|0,0:0|0:0,0:0:0:0:
280,120,105276,6,0,B|250:107|229:105|229:105|202:113|180:132|180:132|147:141|95:126,1,157.499995193482,4|0,3:3|0:0,0:0:0:0:
56,228,105610,2,0,B|85:240|106:242|106:242|133:234|155:215|155:215|188:206|240:221,1,157.499995193482,4|0,3:3|0:0,0:0:0:0:
272,272,105943,2,0,P|288:308|292:340,1,52.4999983978272,4|0,3:3|0:0,0:0:0:0:
372,372,106110,2,0,P|378:346|390:323,1,52.4999983978272,4|0,3:3|0:0,0:0:0:0:
476,280,106276,2,0,P|499:311|524:331,1,52.4999983978272,4|0,3:3|0:0,0:0:0:0:
256,188,107610,5,8,0:0:0:0:
508,40,107943,5,4,3:2:0:0:
288,92,108110,1,0,3:0:0:0:
364,120,108276,2,0,P|312:112|232:104,1,112.500004291535,8|0,0:0|3:0,0:0:0:0:
212,44,108526,1,0,1:0:0:0:
196,36,108610,2,0,P|168:40|112:44,1,56.2500021457673,2|0,1:2|1:0,0:0:0:0:
64,216,108776,1,2,3:2:0:0:
120,160,108943,2,0,P|139:227|103:300,1,112.500004291535,10|0,0:0|0:0,0:0:0:0:
272,384,109276,5,2,3:2:0:0:
392,296,109443,1,0,3:0:0:0:
456,344,109610,1,10,0:0:0:0:
424,164,109776,1,2,3:2:0:0:
504,44,109943,1,2,1:2:0:0:
512,60,110026,2,0,L|504:128,1,56.2500021457673,8|0,0:0|3:0,0:0:0:0:
272,16,110276,2,0,L|287:147,1,112.500004291535,10|0,0:0|0:0,0:0:0:0:
384,292,110610,5,0,3:0:0:0:
196,368,110776,1,0,3:0:0:0:
140,312,110943,2,8,P|152:276|136:200,1,112.500004291535,8|8,0:0|3:0,0:0:0:0:
64,188,111194,1,0,1:0:0:0:
50,157,111277,1,0,1:0:0:0:
54,125,111360,1,0,1:0:0:0:
74,100,111443,1,8,3:0:0:0:
149,126,111610,1,10,0:2:0:0:
336,165,111776,1,2,0:0:0:0:
416,56,111943,5,2,3:2:0:0:
224,100,112109,1,2,3:2:0:0:
164,48,112276,1,10,0:0:0:0:
344,88,112443,1,2,3:2:0:0:
344,121,112526,1,0,1:0:0:0:
345,155,112609,1,2,1:2:0:0:
346,189,112692,1,8,0:0:0:0:
348,244,112776,2,0,L|417:234,1,56.2500021457673,2|0,3:2|0:0,0:0:0:0:
252,384,112943,2,0,B|216:356|216:356|128:364,1,112.500004291535,10|0,0:0|0:0,0:0:0:0:
6,242,113276,6,0,P|72:240|99:186,1,112.500004291535,2|0,3:2|3:0,0:0:0:0:
164,36,113610,2,0,P|98:38|70:92,1,112.500004291535,10|0,0:0|3:0,0:0:0:0:
140,112,113861,1,0,1:0:0:0:
163,133,113944,1,0,1:0:0:0:
179,164,114027,1,0,1:0:0:0:
182,197,114110,1,0,3:0:0:0:
146,268,114276,1,10,0:0:0:0:
316,348,114443,1,2,1:2:0:0:
280,128,114610,5,2,3:2:0:0:
304,344,114776,1,2,3:2:0:0:
236,384,114943,1,10,0:0:0:0:
328,192,115109,1,2,3:2:0:0:
220,48,115276,1,2,1:2:0:0:
216,64,115360,2,0,L|144:56,1,56.2500021457673,8|0,0:0|3:0,0:0:0:0:
8,160,115610,2,0,L|175:141,1,168.750006437302,10|0,0:0|0:0,0:0:0:0:
0,172,115943,6,0,B|-12:201|-14:222|-14:222|-6:249|12:271|12:271|21:304|6:356,1,157.499995193482,4|0,3:3|0:0,0:0:0:0:
116,384,116276,2,0,B|128:354|130:333|130:333|122:306|103:284|103:284|94:251|109:199,1,157.499995193482,4|0,3:3|0:0,0:0:0:0:
208,208,116610,2,0,L|208:264,1,52.4999983978272,4|0,3:3|0:0,0:0:0:0:
288,348,116776,2,0,L|288:295,1,52.4999983978272,4|0,3:3|0:0,0:0:0:0:
208,384,116943,1,6,3:3:0:0:
460,268,117276,5,2,3:2:0:0:
380,96,117443,1,2,3:2:0:0:
440,48,117610,1,10,0:2:0:0:
390,230,117776,1,2,3:2:0:0:
361,212,117859,1,0,1:0:0:0:
330,199,117942,1,2,1:2:0:0:
297,191,118025,1,8,0:0:0:0:
240,192,118110,2,0,L|248:260,1,56.2500021457673,0|0,3:0|0:0,0:0:0:0:
16,96,118276,1,10,0:0:0:0:
12,146,118359,1,8,0:0:0:0:
9,197,118442,1,8,0:0:0:0:
5,247,118525,1,8,0:0:0:0:
2,298,118610,6,0,B|32:268|32:268|20:192,1,112.500004291535,6|0,3:2|3:0,0:0:0:0:
92,12,118943,1,10,0:0:0:0:
300,72,119110,1,2,3:2:0:0:
88,164,119276,1,2,0:0:0:0:
296,224,119443,1,2,3:2:0:0:
236,176,119610,1,10,0:0:0:0:
296,384,119777,1,2,0:0:0:0:
384,172,119943,5,2,3:2:0:0:
196,244,120110,1,2,3:2:0:0:
260,292,120276,1,10,0:0:0:0:
60,264,120443,1,2,3:2:0:0:
8,92,120610,1,2,1:2:0:0:
20,100,120693,2,0,L|12:188,1,56.2500021457673,8|0,0:0|3:0,0:0:0:0:
208,0,120943,2,0,L|220:137,1,112.500004291535,10|0,0:0|0:0,0:0:0:0:
288,312,121276,5,0,3:2:0:0:
452,156,121443,1,0,3:0:0:0:
456,80,121610,2,0,P|476:152|480:204,1,112.500004291535,8|0,0:0|3:0,0:0:0:0:
400,228,121860,1,0,1:0:0:0:
416,232,121943,2,0,P|416:264|408:288,1,56.2500021457673,2|0,0:2|1:1,0:0:0:0:
248,384,122110,1,2,3:2:0:0:
292,324,122276,1,10,0:0:0:0:
216,136,122443,1,2,0:0:0:0:
320,0,122610,5,2,3:2:0:0:
204,148,122776,1,2,3:2:0:0:
148,92,122943,1,10,0:0:0:0:
168,276,123110,2,0,L|224:281,1,56.2500021457673,2|0,3:2|1:0,0:0:0:0:
92,376,123276,1,2,1:2:0:0:
100,360,123360,2,0,L|188:352,1,56.2500021457673,0|0,1:0|3:0,0:0:0:0:
372,224,123610,2,0,L|259:213,1,112.500004291535,10|0,0:0|0:0,0:0:0:0:
84,136,123943,5,2,3:2:0:0:
28,320,124110,1,2,3:2:0:0:
0,252,124276,1,8,0:0:0:0:
164,156,124443,1,2,3:2:0:0:
164,124,124526,1,2,1:2:0:0:
164,92,124610,1,2,1:2:0:0:
0,0,124776,1,2,3:2:0:0:
36,68,124943,1,10,0:0:0:0:
216,4,125110,1,2,0:0:0:0:
152,152,125276,5,2,3:2:0:0:
332,216,125443,1,2,3:2:0:0:
296,148,125610,1,10,0:0:0:0:
320,352,125776,1,0,3:0:0:0:
448,300,125943,1,2,1:2:0:0:
436,288,126026,2,0,L|364:296,1,56.2500021457673,8|2,0:0|3:2,0:0:0:0:
168,384,126276,2,0,L|-46:360,1,168.750006437302,10|0,0:0|0:0,0:0:0:0:
188,380,126610,6,0,B|181:363|193:331|193:331|213:311|223:284|223:284|223:263|212:233,1,157.499995193482,4|0,3:3|0:0,0:0:0:0:
112,268,126943,2,0,B|118:251|106:219|106:219|86:199|76:172|76:172|76:151|87:121,1,157.499995193482,4|0,3:3|0:0,0:0:0:0:
144,52,127276,2,0,L|220:76,1,52.4999983978272,4|0,3:3|0:0,0:0:0:0:
272,132,127443,2,0,L|323:120,1,52.4999983978272,4|0,3:3|0:0,0:0:0:0:
392,48,127610,2,0,L|444:54,1,52.4999983978272,6|0,3:3|0:0,0:0:0:0:
512,148,127776,1,2,0:0:0:0:
488,224,127943,5,10,0:0:0:0:
268,124,128110,1,2,3:2:0:0:
292,48,128276,1,10,0:0:0:0:
68,112,128443,1,2,3:2:0:0:
72,156,128526,1,8,1:2:0:0:
76,200,128610,1,10,1:2:0:0:
180,56,128776,1,10,0:0:0:0:
348,196,128943,1,10,1:2:0:0:
344,240,129026,1,8,1:2:0:0:
340,284,129110,1,8,1:2:0:0:
256,380,129276,5,2,3:1:0:0:
