osu file format v14

[General]
AudioFilename: audio.mp3
AudioLeadIn: 0
PreviewTime: 107443
Countdown: 0
SampleSet: Soft
StackLeniency: 0.4
Mode: 0
LetterboxInBreaks: 0
WidescreenStoryboard: 1

[Editor]
DistanceSpacing: 0.5
BeatDivisor: 6
GridSize: 4
TimelineZoom: 1.3

[Metadata]
Title:Your favorite sidekick (feat. 8485)
TitleUnicode:Your favorite sidekick (feat. 8485)
Artist:underscores
ArtistUnicode:underscores
Creator:Vendanger
Version:Insane
Source:
Tags:fishmonger hyperpop pop rock eighty english FAVOURITE
BeatmapID:3480344
BeatmapSetID:1573155

[Difficulty]
HPDrainRate:5
CircleSize:4.2
OverallDifficulty:7.5
ApproachRate:9
SliderMultiplier:1.4
SliderTickRate:1

[Events]
//Background and Video events
0,0,"yfs.jpg",0,0
//Break Periods
2,44143,54010
2,86810,94010
//Storyboard Layer 0 (Background)
//Storyboard Layer 1 (Fail)
//Storyboard Layer 2 (Pass)
//Storyboard Layer 3 (Foreground)
//Storyboard Layer 4 (Overlay)
//Storyboard Sound Samples

[TimingPoints]
1277,333.333333333333,4,2,2,60,1,0
1277,-90.9090909090909,4,2,2,60,0,0
1610,-125,4,2,1,40,0,0
9276,-76.9230769230769,4,2,1,75,0,0
9525,-76.9230769230769,4,2,1,5,0,0
9610,-76.9230769230769,4,2,1,75,0,0
9859,-76.9230769230769,4,2,1,5,0,0
9943,-76.9230769230769,4,2,1,75,0,0
11943,-90.9090909090909,4,2,1,60,0,0
12276,-90.9090909090909,4,2,1,50,0,0
12610,-100,4,2,1,50,0,0
16276,-90.9090909090909,4,2,1,60,0,0
17610,-100,4,2,1,50,0,0
18943,-90.9090909090909,4,2,1,60,0,0
19276,-100,4,2,1,50,0,0
19943,-76.9230769230769,4,2,1,75,0,0
20192,-76.9230769230769,4,2,1,5,0,0
20276,-76.9230769230769,4,2,1,75,0,0
20525,-76.9230769230769,4,2,1,5,0,0
20610,-76.9230769230769,4,2,1,75,0,0
22276,-100,4,2,1,45,0,0
22610,-90.9090909090909,4,2,1,60,0,0
22943,-90.9090909090909,4,2,1,50,0,0
23276,-100,4,2,1,50,0,0
26943,-90.9090909090909,4,2,1,60,0,0
27693,-90.9090909090909,4,2,1,5,0,0
27943,-90.9090909090909,4,2,1,35,0,0
28610,-100,4,2,1,50,0,0
29610,-90.9090909090909,4,2,1,60,0,0
29943,-100,4,2,1,50,0,0
30610,-76.9230769230769,4,2,1,80,0,0
30859,-76.9230769230769,4,2,1,5,0,0
30943,-76.9230769230769,4,2,1,80,0,0
31192,-76.9230769230769,4,2,1,5,0,0
31276,-76.9230769230769,4,2,1,80,0,0
33276,-90.9090909090909,4,2,1,60,0,0
33610,-90.9090909090909,4,2,1,50,0,0
33943,-100,4,2,1,50,0,0
37610,-90.9090909090909,4,2,1,60,0,0
38943,-100,4,2,1,50,0,0
40276,-90.9090909090909,4,2,1,50,0,0
41276,-76.9230769230769,4,2,1,85,0,0
41525,-76.9230769230769,4,2,1,5,0,0
41610,-76.9230769230769,4,2,1,85,0,0
41859,-76.9230769230769,4,2,1,5,0,0
41943,-76.9230769230769,4,2,1,85,0,0
43943,-76.9230769230769,4,2,1,30,0,0
54610,-125,4,2,2,35,0,0
57192,-125,4,2,2,5,0,0
57276,-125,4,2,2,35,0,0
59859,-125,4,2,2,5,0,0
59943,-125,4,2,2,35,0,0
63860,-125,4,2,3,55,0,0
64442,-125,4,2,1,35,0,0
65276,-90.9090909090909,4,2,1,60,0,0
65610,-90.9090909090909,4,2,1,50,0,0
65943,-100,4,2,1,50,0,0
69610,-90.9090909090909,4,2,1,60,0,0
70943,-100,4,2,1,50,0,0
72276,-90.9090909090909,4,2,1,60,0,0
73276,-76.9230769230769,4,2,1,75,0,0
73525,-76.9230769230769,4,2,1,5,0,0
73610,-76.9230769230769,4,2,1,75,0,0
73859,-76.9230769230769,4,2,1,5,0,0
73943,-76.9230769230769,4,2,1,75,0,0
75943,-90.9090909090909,4,2,1,60,0,0
76276,-90.9090909090909,4,2,1,50,0,0
76610,-100,4,2,1,50,0,0
80276,-90.9090909090909,4,2,1,60,0,0
81610,-100,4,2,1,50,0,0
82943,-90.9090909090909,4,2,1,60,0,0
83276,-100,4,2,1,50,0,0
83943,-76.9230769230769,4,2,1,75,0,0
84192,-76.9230769230769,4,2,1,5,0,0
84276,-76.9230769230769,4,2,1,75,0,0
84525,-76.9230769230769,4,2,1,5,0,0
84610,-76.9230769230769,4,2,1,75,0,0
86610,-76.9230769230769,4,2,1,60,0,0
94610,-76.9230769230769,4,2,1,75,0,0
94859,-76.9230769230769,4,2,1,5,0,0
94943,-76.9230769230769,4,2,1,75,0,0
95192,-76.9230769230769,4,2,1,5,0,0
95276,-76.9230769230769,4,2,1,75,0,0
97276,-90.9090909090909,4,2,1,60,0,0
105276,-76.9230769230769,4,2,1,75,0,0
105525,-76.9230769230769,4,2,1,5,0,0
105610,-76.9230769230769,4,2,1,75,0,0
105859,-76.9230769230769,4,2,1,5,0,0
105943,-76.9230769230769,4,2,1,75,0,0
107610,-76.9230769230769,4,2,2,85,0,0
107943,-76.9230769230769,4,2,2,80,0,1
109526,-76.9230769230769,4,2,2,5,0,1
109610,-76.9230769230769,4,2,2,80,0,1
115859,-76.9230769230769,4,2,2,5,0,1
115943,-76.9230769230769,4,2,1,75,0,0
116192,-76.9230769230769,4,2,1,5,0,0
116276,-76.9230769230769,4,2,1,75,0,0
116525,-76.9230769230769,4,2,1,5,0,0
116610,-76.9230769230769,4,2,1,75,0,0
117276,-76.9230769230769,4,2,1,80,0,1
117610,-76.9230769230769,4,2,2,80,0,1
126525,-76.9230769230769,4,2,2,5,0,1
126610,-76.9230769230769,4,2,1,75,0,0
126859,-76.9230769230769,4,2,1,5,0,0
126943,-76.9230769230769,4,2,1,75,0,0
127192,-76.9230769230769,4,2,1,5,0,0
127276,-76.9230769230769,4,2,1,75,0,0
127943,-76.9230769230769,4,2,2,80,0,1
129276,-76.9230769230769,4,2,1,45,0,0

[Colours]
Combo1 : 69,103,137
Combo2 : 168,204,208

[HitObjects]
4,48,1277,6,0,B|21:32|21:32|72:64,1,77.0000023498536,10|0,2:0|2:0,2:0:0:0:
128,108,1610,2,0,L|192:96,1,56,2|0,2:1|2:1,2:0:0:0:
248,52,1943,1,2,2:0:0:0:
196,108,2110,1,2,2:0:0:0:
264,52,2276,1,2,2:1:0:0:
224,232,2610,6,0,L|304:244,1,56,2|2,2:0|2:0,2:0:0:0:
332,300,2943,2,0,L|392:288,1,56,2|2,2:0|2:0,2:0:0:0:
456,236,3276,2,0,P|448:224|448:208,5,18.6666666666667,2|2|2|2|2|2,2:1|2:1|2:1|2:1|2:1|2:1,2:0:0:0:
428,208,3610,2,0,P|432:184|452:164,2,37.3333333333333,2|2|2,2:1|2:1|2:1,2:0:0:0:
504,132,3943,6,0,P|488:88|460:48,1,84,2|0,2:0|2:0,2:0:0:0:
444,48,4276,2,0,P|464:88|472:112,1,56,2|2,2:1|2:1,2:0:0:0:
340,56,4610,1,2,2:0:0:0:
352,52,4776,1,2,2:0:0:0:
320,148,4943,2,0,L|256:136,1,56,2|0,2:1|2:0,2:0:0:0:
132,40,5276,5,2,2:1:0:0:
136,52,5443,1,2,2:1:0:0:
176,140,5610,1,2,2:1:0:0:
172,152,5777,1,2,2:1:0:0:
104,192,5943,2,0,L|-16:212,1,112,2|2,2:0|2:1,2:0:0:0:
160,364,6610,6,0,P|176:320|164:288,1,56,2|0,1:2|1:2,1:2:0:0:
80,296,6943,2,0,P|64:340|76:372,1,56,2|2,1:0|1:0,1:2:0:0:
188,308,7276,1,10,2:0:0:0:
174,312,7443,1,2,1:2:0:0:
232,216,7610,2,0,L|304:232,1,56,2|0,1:0|1:2,1:2:0:0:
448,276,7943,5,2,1:2:0:0:
380,308,8110,2,0,L|434:295,1,56,10|2,2:0|1:2,1:2:0:0:
488,204,8443,1,2,1:2:0:0:
432,116,8610,2,2,L|435:134,5,18.6666666666667,10|2|2|2|2|2,2:1|2:1|2:1|1:0|2:1|2:1,2:1:0:0:
448,96,8943,5,2,1:0:0:0:
420,72,9054,1,2,1:0:0:0:
436,40,9165,1,2,1:0:0:0:
368,0,9276,6,0,B|332:8|316:40|316:40|276:56|232:24,1,136.499993751526,4|0,3:0|2:0,2:0:0:0:
180,64,9610,2,0,B|153:43|113:59|113:59|97:91|61:99,1,136.499993751526,4|0,3:0|2:0,2:0:0:0:
8,48,9943,1,4,3:0:0:0:
100,172,10110,1,4,3:0:0:0:
240,108,10276,1,4,3:0:0:0:
164,148,11943,6,0,B|136:152|136:152|212:176,1,77.0000023498536,2|0,3:2|2:0,2:0:0:0:
256,192,12276,1,2,1:0:0:0:
180,284,12443,1,2,1:0:0:0:
180,284,12526,1,0,1:2:0:0:
180,284,12610,2,0,L|260:272,1,70,10|2,2:0|1:2,1:2:0:0:
320,188,12943,2,0,L|250:198,1,70,2|0,1:0|1:2,1:2:0:0:
360,304,13276,5,2,1:2:0:0:
377,306,13443,1,2,1:2:0:0:
439,208,13610,1,2,1:2:0:0:
422,210,13777,1,2,1:2:0:0:
364,112,13943,2,2,L|400:120,5,23.3333333333333,10|2|2|2|2|2,2:1|2:1|2:1|1:0|2:1|1:0,2:1:0:0:
412,104,14276,2,0,L|472:120,2,46.6666666666667,2|2|2,1:0|2:1|2:1,1:2:0:0:
388,28,14610,6,0,P|336:4|296:4,1,70,2|0,1:2|1:2,1:2:0:0:
232,100,14943,2,0,P|265:91|295:74,1,70,2|0,1:0|1:0,2:0:0:0:
160,24,15276,1,10,2:0:0:0:
168,40,15443,1,2,1:2:0:0:
72,124,15610,2,0,L|84:48,1,70,2|0,1:0|1:0,2:0:0:0:
156,168,15943,1,2,1:0:0:0:
153,185,16110,1,2,1:0:0:0:
12,272,16276,6,0,B|40:272|40:272|64:248|64:248|80:296,1,77.0000023498536,2|2,3:1|1:0,2:0:0:0:
12,380,16610,1,2,3:2:0:0:
76,272,16776,1,0,3:0:0:0:
200,348,16943,2,0,B|172:348|172:348|148:372|148:372|132:324,1,77.0000023498536,2|0,3:2|1:0,2:0:0:0:
288,292,17276,6,0,B|312:320|312:320|312:360|288:388,1,77.0000023498536,2|0,3:2|1:0,2:0:0:0:
384,264,17610,2,0,B|356:236|356:236|352:180,1,70,2|0,1:0|1:0,1:2:0:0:
452,132,17943,1,10,2:0:0:0:
448,148,18110,1,2,1:2:0:0:
340,76,18276,2,0,P|304:92|264:100,1,70,2|0,1:0|1:2,1:2:0:0:
120,144,18610,5,2,1:2:0:0:
160,76,18776,1,10,2:0:0:0:
76,216,18943,2,0,B|120:251|105:258|105:258|105:284,1,77.0000023498536,2|2,3:2|2:0,2:0:0:0:
208,348,19276,2,2,P|196:328|196:312,5,23.3333333333333,2|2|2|2|2|2,1:0|2:1|2:1|3:1|2:1|2:1,2:1:0:0:
204,300,19610,5,2,1:0:0:0:
240,312,19721,1,2,2:1:0:0:
264,284,19832,1,2,2:1:0:0:
328,328,19943,6,0,B|329:291|302:267|302:267|297:224|340:190,1,136.499993751526,4|0,3:0|2:0,2:0:0:0:
396,176,20276,2,0,B|429:170|455:204|455:204|453:240|480:265,1,136.499993751526,4|0,3:0|2:0,2:0:0:0:
456,336,20610,1,4,3:0:0:0:
488,192,20776,1,4,3:0:0:0:
336,128,20943,1,4,3:0:0:0:
336,116,22276,6,0,L|380:108,1,35,2|2,2:0|2:0,2:0:0:0:
416,48,22443,1,2,2:0:0:0:
444,52,22526,1,2,2:0:0:0:
476,56,22610,6,0,B|460:76|460:76|480:136,1,77.0000023498536,2|0,3:2|1:0,2:0:0:0:
504,200,22943,1,2,1:0:0:0:
404,280,23110,1,2,1:0:0:0:
404,280,23193,1,0,1:2:0:0:
404,280,23276,2,0,L|324:260,1,70,10|0,2:0|1:2,1:2:0:0:
268,188,23610,2,0,L|338:178,1,70,2|0,1:0|1:2,1:2:0:0:
244,280,23943,5,2,1:2:0:0:
248,296,24110,1,2,1:2:0:0:
184,372,24276,2,0,P|140:356|104:352,1,70,2|0,1:2|1:2,1:2:0:0:
28,320,24610,2,2,P|45:316|61:310,5,23.3333333333333,10|2|2|2|2|2,2:1|2:1|2:1|1:0|2:1|2:1,2:1:0:0:
64,296,24943,2,0,P|80:268|100:248,2,46.6666666666667,2|2|2,1:0|2:1|2:1,2:0:0:0:
172,264,25276,6,0,P|156:208|136:184,1,70,2|0,1:2|1:2,1:2:0:0:
56,160,25610,1,2,1:0:0:0:
72,164,25776,1,2,1:0:0:0:
192,120,25943,2,0,L|259:99,1,70,10|0,2:0|1:2,1:2:0:0:
320,220,26276,2,0,L|253:199,1,70,2|2,1:0|1:0,2:0:0:0:
352,124,26610,1,2,1:0:0:0:
368,120,26776,1,2,1:0:0:0:
496,68,26943,6,0,B|452:88|452:88|456:132,1,77.0000023498536,2|2,3:1|1:0,2:0:0:0:
480,276,27276,1,2,3:2:0:0:
332,224,27443,1,0,3:0:0:0:
472,284,27610,2,0,B|443:286|443:286|423:242,1,77.0000023498536,2|0,3:2|1:0,2:0:0:0:
304,308,27943,6,0,L|332:372,2,51.3333348999024,2|2|2,3:2|2:0|2:0,2:0:0:0:
212,104,28610,6,0,P|168:128|136:132,1,70,10|0,2:1|1:0,1:2:0:0:
44,176,28943,2,0,P|77:184|107:203,1,70,2|0,1:0|1:2,1:2:0:0:
164,312,29276,1,2,1:2:0:0:
96,352,29443,1,10,2:0:0:0:
236,272,29610,2,0,B|264:328|264:328|232:348,1,77.0000023498536,2|0,3:2|1:0,2:0:0:0:
380,376,29943,2,2,L|416:356,5,23.3333333333333,10|2|2|2|2|2,2:1|2:1|2:1|2:1|2:1|2:1,2:1:0:0:
408,340,30276,5,2,1:0:0:0:
388,308,30388,1,2,2:1:0:0:
400,272,30499,1,2,2:1:0:0:
332,232,30610,6,0,B|340:196|372:180|372:180|388:140|356:96,1,136.499993751526,6|0,3:0|2:0,2:0:0:0:
292,108,30943,2,0,B|272:76|283:42|283:42|266:3|212:-5,1,136.499993751526,6|0,3:0|2:0,2:0:0:0:
160,24,31276,1,6,3:0:0:0:
240,172,31443,1,6,3:0:0:0:
380,108,31610,1,6,3:0:0:0:
392,100,33276,6,0,B|420:120|444:116|444:116|448:100|468:84,1,77.0000023498536,2|0,3:2|1:0,2:0:0:0:
420,32,33610,1,2,1:0:0:0:
312,124,33776,1,0,1:0:0:0:
312,124,33860,1,0,1:2:0:0:
312,124,33943,2,0,P|336:164|348:196,1,70,10|0,2:0|1:2,1:2:0:0:
432,220,34276,2,0,P|413:249|399:281,1,70,2|0,1:0|1:2,1:2:0:0:
496,360,34610,5,2,1:2:0:0:
480,364,34776,1,2,1:2:0:0:
382,285,34943,1,2,1:2:0:0:
398,281,35110,1,2,1:2:0:0:
328,372,35276,2,2,L|288:360,5,23.3333333333333,10|2|2|2|2|2,2:1|2:1|2:1|1:0|2:1|2:1,2:1:0:0:
284,336,35610,2,0,L|228:348,2,46.6666666666667,2|2|2,1:0|2:1|2:1,2:0:0:0:
304,260,35943,6,0,P|284:216|292:184,1,70,2|0,1:2|1:2,1:2:0:0:
356,124,36276,2,0,P|376:168|368:200,1,70,2|2,1:2|1:0,2:0:0:0:
260,100,36610,2,0,L|164:88,1,70,10|0,2:1|1:2,1:2:0:0:
104,184,36943,2,0,L|173:175,1,70,2|2,1:0|1:0,2:0:0:0:
89,77,37276,1,2,1:0:0:0:
71,75,37443,1,2,1:0:0:0:
0,228,37610,6,0,B|8:252|32:260|32:260|48:280|32:296,1,77.0000023498536,2|2,3:1|1:0,2:0:0:0:
156,384,37943,1,2,3:2:0:0:
32,296,38110,1,0,3:0:0:0:
196,312,38276,2,0,B|186:304|202:284|202:284|226:276|234:252,1,77.0000023498536,2|0,3:2|1:0,2:0:0:0:
384,192,38610,6,0,B|344:204|344:204|312:184,1,77.0000023498536,2|0,3:2|2:0,2:0:0:0:
380,284,38943,2,0,L|464:256,1,70,2|2,1:0|1:0,2:0:0:0:
508,148,39276,2,0,P|480:116|472:80,1,70,10|0,2:0|1:2,1:2:0:0:
384,40,39610,2,0,P|372:72|348:97,1,70,2|0,1:0|1:2,1:2:0:0:
224,168,39943,5,2,1:2:0:0:
164,112,40110,1,2,1:2:0:0:
280,224,40276,2,0,B|260:256|224:264|224:264|228:296,1,77.0000023498536,2|2,3:2|1:2,2:0:0:0:
184,380,40610,2,2,P|196:360|196:348,5,25.6666674499512,10|2|2|2|2|2,2:1|2:1|2:1|3:1|2:1|2:1,2:1:0:0:
176,332,40943,5,2,1:0:0:0:
140,348,41054,1,2,1:0:0:0:
112,320,41165,1,2,1:0:0:0:
48,356,41276,6,0,B|47:319|75:296|75:296|81:253|40:218,1,136.499993751526,6|0,3:0|2:0,2:0:0:0:
112,180,41610,2,0,B|112:143|84:120|84:120|78:77|119:42,1,136.499993751526,6|0,3:0|2:0,2:0:0:0:
168,12,41943,1,6,3:0:0:0:
100,172,42110,1,4,3:0:0:0:
112,180,43943,5,2,3:2:0:0:
16,36,54610,6,0,P|36:88|36:108,1,56,0|0,1:2|1:2,2:0:0:0:
96,136,54943,2,0,P|76:188|72:212,1,56,0|0,1:2|1:2,2:0:0:0:
88,204,55193,1,0,1:2:0:0:
88,204,55276,1,10,2:3:0:0:
172,280,55443,5,2,1:2:0:0:
164,292,55610,2,0,L|240:280,1,56,2|2,1:2|1:2,2:0:0:0:
272,224,55943,2,0,L|396:244,1,112,2|2,1:2|1:2,1:2:0:0:
448,204,56443,2,0,P|436:168|440:144,1,56,2|10,1:2|2:3,1:2:0:0:
376,244,56776,2,0,P|404:328|394:385,1,140,2|0,1:2|2:0,1:2:0:0:
384,380,57276,6,0,P|344:380|316:364,1,56,0|0,1:2|1:2,2:0:0:0:
264,332,57610,2,0,P|244:297|243:265,1,56,0|0,1:2|1:2,2:0:0:0:
320,180,57943,1,10,2:3:0:0:
232,160,58110,5,2,1:2:0:0:
244,168,58276,2,0,L|176:160,1,56,2|2,1:2|1:2,2:0:0:0:
128,84,58610,1,2,1:2:0:0:
116,76,58776,2,0,L|184:84,1,56,2|0,1:2|1:2,1:2:0:0:
56,144,59110,2,0,P|72:184|76:208,1,56,2|10,1:2|2:3,1:2:0:0:
152,248,59443,2,0,P|176:204|260:128,1,140,2|0,1:2|2:0,1:2:0:0:
248,152,59943,6,0,L|324:160,1,56,0|0,1:2|1:2,2:0:0:0:
344,224,60276,2,0,L|399:218,1,56,0|0,1:2|1:2,2:0:0:0:
512,152,60610,1,10,2:3:0:0:
464,56,60776,1,2,1:2:0:0:
472,68,60943,2,0,L|417:74,1,56,2|2,1:2|1:2,2:0:0:0:
268,0,61276,6,0,P|304:28|364:16,2,84,2|2|2,1:2|1:2|1:2,1:2:0:0:
208,100,61943,1,10,2:3:0:0:
201,112,62110,2,0,P|239:99|264:97,1,56,2|0,1:2|1:2,1:2:0:0:
280,220,62443,6,0,P|222:211|169:191,1,112,2|2,1:2|1:2,2:0:0:0:
200,384,63110,2,0,P|235:338|280:302,1,112,2|2,1:2|1:2,1:2:0:0:
84,172,63776,6,0,B|79:205|106:240|106:240|74:279|88:308|88:308|127:336|113:381,1,224,2|0,1:2|1:2,1:0:0:0:
40,372,64610,1,2,2:0:0:0:
28,368,64776,1,2,2:0:0:0:
163,181,65276,6,0,B|205:217|205:217|208:171,1,77.0000023498536,2|0,3:2|1:0,2:0:0:0:
208,120,65610,1,2,1:0:0:0:
312,44,65776,1,2,1:0:0:0:
312,44,65860,1,0,1:2:0:0:
312,44,65943,2,0,P|256:32|236:20,1,70,10|0,2:0|1:2,1:2:0:0:
304,140,66276,2,0,P|336:126|370:122,1,70,2|0,1:0|1:2,1:2:0:0:
500,164,66610,5,2,1:2:0:0:
484,172,66776,1,2,1:2:0:0:
424,284,66943,1,2,1:2:0:0:
408,276,67109,1,2,1:2:0:0:
472,384,67276,2,2,L|504:376,5,23.3333333333333,10|2|2|2|2|2,2:1|2:1|2:1|1:0|2:1|2:1,2:1:0:0:
448,376,67610,2,0,L|392:360,2,46.6666666666667,2|2|2,1:0|2:1|2:1,2:0:0:0:
332,308,67943,6,0,P|300:324|252:332,1,70,2|0,1:2|1:2,1:2:0:0:
140,360,68276,2,0,P|174:367|205:383,1,70,2|2,1:0|1:0,2:0:0:0:
172,232,68610,1,10,2:0:0:0:
176,248,68776,1,2,1:2:0:0:
276,220,68943,2,0,L|288:136,1,70,2|2,1:0|1:0,2:0:0:0:
306,49,69276,1,2,1:0:0:0:
304,66,69443,1,2,1:0:0:0:
448,144,69610,6,0,B|432:120|400:120|400:120|412:108|408:72,1,77.0000023498536,2|10,3:1|1:2,2:0:0:0:
512,0,69943,1,10,3:2:0:0:
396,96,70110,1,0,3:0:0:0:
504,212,70276,2,0,B|488:235|456:235|456:235|468:247|464:254,1,77.0000023498536,2|0,3:2|1:0,2:0:0:0:
352,368,70610,6,0,B|408:344|408:344|392:300,1,77.0000023498536,2|0,3:2|1:0,2:0:0:0:
312,288,70943,2,0,L|247:314,1,70,2|2,1:0|1:0,1:2:0:0:
140,284,71276,1,8,2:0:0:0:
156,288,71443,1,2,1:2:0:0:
200,176,71610,2,0,L|108:152,1,70,2|0,1:0|1:2,1:2:0:0:
68,40,71943,5,2,1:2:0:0:
0,80,72110,1,10,2:0:0:0:
140,0,72276,2,0,B|168:20|168:20|196:12|196:12|212:24,1,77.0000023498536,2|0,3:2|1:0,2:0:0:0:
320,96,72610,2,2,L|344:88,5,25.6666674499512,10|10|2|10|2|10,2:1|2:1|2:1|3:1|2:1|2:1,2:1:0:0:
360,64,72943,5,2,2:1:0:0:
400,72,73054,1,2,2:1:0:0:
424,40,73165,1,2,2:1:0:0:
492,80,73276,6,0,B|484:116|452:133|452:133|438:174|472:217,1,136.499993751526,4|0,3:0|2:0,2:0:0:0:
384,216,73610,2,0,B|391:252|423:269|423:269|437:310|403:353,1,136.499993751526,4|0,3:0|2:0,2:0:0:0:
352,376,73943,1,4,3:0:0:0:
472,276,74110,1,4,3:0:0:0:
404,140,74276,1,4,3:0:0:0:
396,136,75943,6,0,B|372:140|348:152|348:152|352:168|336:212,1,77.0000023498536,2|0,3:2|1:0,2:0:0:0:
412,216,76276,1,2,1:0:0:0:
308,280,76443,1,2,1:0:0:0:
308,280,76526,1,0,1:2:0:0:
308,280,76610,2,0,P|256:264|228:260,1,70,10|2,2:0|1:2,1:2:0:0:
160,192,76943,2,0,P|194:184|227:173,1,70,2|0,1:0|1:2,1:2:0:0:
132,292,77276,5,2,1:2:0:0:
140,308,77443,1,2,1:2:0:0:
36,276,77610,1,2,1:2:0:0:
44,260,77777,1,2,1:2:0:0:
64,140,77943,2,2,L|76:172,5,23.3333333333333,10|2|2|2|2|2,2:1|2:1|2:1|1:0|2:1|2:1,2:1:0:0:
48,124,78276,2,0,L|-4:144,2,46.6666666666667,2|2|2,1:0|2:1|2:1,2:0:0:0:
96,64,78610,6,0,P|80:24|88:-8,1,70,2|0,1:2|1:2,1:2:0:0:
204,48,78943,2,0,P|220:88|212:120,1,70,2|2,1:0|1:0,2:0:0:0:
100,200,79276,1,10,2:0:0:0:
116,204,79443,1,2,1:2:0:0:
236,236,79610,2,0,L|312:216,1,70,2|2,1:0|1:0,2:0:0:0:
212,356,79943,1,2,1:0:0:0:
196,352,80110,1,2,2:1:0:0:
328,384,80276,6,0,B|300:372|296:348|296:348|328:332,1,77.0000023498536,2|2,3:1|1:0,2:0:0:0:
468,272,80610,1,2,3:2:0:0:
312,320,80776,1,0,3:0:0:0:
472,324,80943,2,0,B|500:312|504:288|504:288|472:272,1,77.0000023498536,2|0,3:2|1:0,2:0:0:0:
328,216,81276,6,0,B|360:225|360:225|305:189,1,77.0000023498536,2|0,3:2|1:0,2:0:0:0:
436,200,81610,2,0,L|448:120,1,70,2|2,1:0|1:0,1:2:0:0:
356,36,81943,1,10,2:0:0:0:
360,52,82110,1,2,1:2:0:0:
268,100,82276,2,0,L|188:88,1,70,2|0,1:0|1:2,1:2:0:0:
40,68,82610,5,2,1:2:0:0:
76,0,82776,1,10,2:0:0:0:
0,136,82943,2,0,B|24:160|48:160|48:160|40:176|48:200,1,77.0000023498536,2|2,3:2|1:2,2:0:0:0:
128,256,83276,2,2,L|120:224,5,23.3333333333333,10|2|2|2|2|2,2:1|2:1|2:1|3:1|2:1|2:1,2:1:0:0:
108,284,83610,5,2,1:0:0:0:
76,268,83721,1,2,2:1:0:0:
48,292,83832,1,2,2:1:0:0:
0,240,83943,6,0,B|8:204|40:187|40:187|54:146|20:103,1,136.499993751526,4|0,3:0|2:0,2:0:0:0:
56,48,84276,2,0,B|92:56|109:88|109:88|150:102|193:68,1,136.499993751526,4|0,3:0|2:0,2:0:0:0:
224,24,84610,1,4,3:0:0:0:
108,128,84776,1,4,3:0:0:0:
0,0,84943,1,4,3:0:0:0:
8,8,86610,5,2,2:0:0:0:
12,16,94610,6,0,B|45:27|76:8|76:8|119:17|128:48,1,136.499993751526,4|0,3:0|2:0,2:0:0:0:
172,112,94943,2,0,B|205:100|236:119|236:119|279:110|288:79,1,136.499993751526,4|0,3:0|2:0,2:0:0:0:
316,12,95276,1,4,3:0:0:0:
240,148,95443,1,4,3:0:0:0:
88,116,95610,1,4,3:0:0:0:
80,112,97276,6,0,B|96:148|96:148|80:192,1,77.0000023498536,2|2,3:2|2:0,2:0:0:0:
204,220,97610,1,10,2:0:0:0:
136,260,97776,2,0,B|120:224|120:224|160:108,1,154.000004699707,2|0,2:0|2:0,2:0:0:0:
248,64,98276,6,0,L|340:92,1,77.0000023498536,10|0,2:0|2:0,2:0:0:0:
392,132,98610,2,0,L|318:109,1,77.0000023498536,10|0,2:0|2:0,2:0:0:0:
248,72,98943,2,0,L|340:100,1,77.0000023498536,10|0,2:0|2:0,2:0:0:0:
392,140,99277,2,0,L|318:117,1,77.0000023498536,10|0,2:0|2:0,2:0:0:0:
248,80,99610,2,0,L|340:108,1,77.0000023498536,10|0,2:0|2:0,2:0:0:0:
484,156,99943,6,0,B|452:192|452:192|460:236,1,77.0000023498536,2|2,3:2|2:0,2:0:0:0:
492,372,100276,1,10,2:0:0:0:
416,344,100443,2,0,B|448:308|448:308|424:192,1,154.000004699707,2|0,2:0|2:0,2:0:0:0:
340,168,100943,6,0,P|300:200|264:212,1,77.0000023498536,10|0,2:0|2:0,2:0:0:0:
208,276,101276,2,0,P|248:244|284:232,1,77.0000023498536,10|0,2:0|2:0,2:0:0:0:
340,176,101610,2,0,P|300:208|264:220,1,77.0000023498536,10|0,2:0|2:0,2:0:0:0:
208,284,101943,2,0,P|248:252|284:240,1,77.0000023498536,10|0,2:0|2:0,2:0:0:0:
340,184,102276,2,0,P|300:216|264:228,1,77.0000023498536,10|0,2:0|2:0,2:0:0:0:
112,168,102610,6,0,B|148:184|148:184|192:168,1,77.0000023498536,2|2,3:2|2:0,2:0:0:0:
12,196,102943,1,10,2:0:0:0:
28,124,103110,2,0,B|63:111|63:111|180:168,1,154.000004699707,2|0,2:0|2:0,2:0:0:0:
268,136,103610,6,0,L|356:108,1,77.0000023498536,10|0,2:0|2:0,2:0:0:0:
420,72,103943,2,0,L|346:95,1,77.0000023498536,10|0,2:0|2:0,2:0:0:0:
268,128,104276,2,0,L|356:100,1,77.0000023498536,10|0,2:0|2:0,2:0:0:0:
420,64,104609,2,0,L|346:87,1,77.0000023498536,10|0,2:0|2:0,2:0:0:0:
268,120,104943,2,0,B|232:132|232:132|208:80,1,77.0000023498536,10|0,2:0|2:0,2:0:0:0:
336,236,105276,6,0,B|347:269|328:300|328:300|337:343|368:352,1,136.499993751526,4|0,3:0|2:0,2:0:0:0:
436,384,105610,2,0,B|467:375|476:332|476:332|457:301|468:268,1,136.499993751526,4|0,3:0|2:0,2:0:0:0:
496,196,105943,1,4,3:0:0:0:
344,244,106110,1,4,3:0:0:0:
272,100,106276,1,4,3:0:0:0:
256,192,107610,5,8,2:0:0:0:
344,0,107943,5,4,3:2:0:0:
368,72,108110,1,0,3:0:0:0:
256,184,108276,2,0,L|160:168,1,90.9999958343508,8|0,2:0|3:0,2:0:0:0:
144,144,108526,1,0,1:0:0:0:
144,144,108610,2,0,L|92:156,1,45.4999979171754,2|0,1:2|1:0,2:0:0:0:
28,176,108776,1,2,3:2:0:0:
48,312,108943,2,0,P|88:276|136:268,1,90.9999958343508,10|0,2:0|2:0,2:0:0:0:
260,172,109276,6,0,P|311:188|360:256,1,136.499993751526,2|0,3:2|2:0,2:0:0:0:
340,280,109610,1,10,2:0:0:0:
292,340,109776,1,2,3:2:0:0:
408,384,109943,1,2,1:2:0:0:
408,384,110026,2,0,L|400:332,1,45.4999979171754,8|0,2:0|3:0,2:0:0:0:
460,288,110276,2,0,L|476:188,1,90.9999958343508,10|0,2:0|2:0,2:0:0:0:
420,64,110610,5,0,3:0:0:0:
480,20,110776,1,0,3:0:0:0:
340,68,110943,2,8,L|244:56,1,90.9999958343508,8|8,2:0|3:0,2:0:0:0:
232,36,111193,1,0,1:0:0:0:
232,36,111276,2,0,L|156:45,1,45.4999979171754,0|0,1:0|1:0,2:0:0:0:
128,84,111443,1,8,3:0:0:0:
0,16,111610,5,10,2:0:0:0:
16,92,111776,1,2,2:0:0:0:
132,164,111943,1,2,3:2:0:0:
128,188,112110,1,2,3:2:0:0:
0,288,112276,2,0,P|48:264|100:264,1,90.9999958343508,10|2,2:0|3:2,2:0:0:0:
108,292,112526,1,0,1:0:0:0:
108,292,112610,2,0,P|136:308|164:312,1,45.4999979171754,2|8,1:2|2:0,2:0:0:0:
216,280,112776,1,2,3:2:0:0:
340,336,112943,2,0,P|318:342|260:384,1,90.9999958343508,10|0,2:0|2:0,2:0:0:0:
372,228,113276,6,0,P|349:227|282:202,1,90.9999958343508,2|0,3:2|3:0,2:0:0:0:
200,104,113610,2,0,P|188:84|177:13,1,90.9999958343508,10|0,2:0|3:0,2:0:0:0:
208,4,113860,1,0,1:0:0:0:
208,4,113943,2,0,L|280:8,1,45.4999979171754,0|0,1:0|1:0,2:0:0:0:
308,56,114110,1,0,3:0:0:0:
444,0,114276,5,10,2:0:0:0:
432,76,114443,1,2,1:2:0:0:
320,152,114610,1,2,3:2:0:0:
324,176,114776,1,2,3:2:0:0:
468,240,114943,2,0,L|364:264,1,90.9999958343508,10|2,2:0|3:2,2:0:0:0:
424,384,115276,1,2,1:2:0:0:
424,384,115360,2,0,L|368:368,1,45.4999979171754,8|0,2:0|3:0,2:0:0:0:
216,348,115610,2,0,P|284:320|278:241,1,136.499993751526,10|0,2:0|2:0,2:0:0:0:
240,196,115943,6,0,B|207:207|176:188|176:188|133:197|124:228,1,136.499993751526,4|0,3:0|2:0,2:0:0:0:
104,304,116276,2,0,B|93:271|112:240|112:240|103:197|72:188,1,136.499993751526,4|0,3:0|2:0,2:0:0:0:
0,168,116610,1,4,3:0:0:0:
96,312,116776,1,4,3:0:0:0:
232,204,116943,1,6,3:0:0:0:
220,196,117276,5,2,3:2:0:0:
192,124,117443,1,2,3:2:0:0:
332,40,117610,2,0,L|308:136,1,90.9999958343508,10|2,2:0|3:2,2:0:0:0:
292,156,117860,1,0,1:0:0:0:
292,156,117943,2,0,L|307:218,1,45.4999979171754,2|8,1:2|2:0,2:0:0:0:
368,244,118110,1,0,3:0:0:0:
248,368,118276,5,10,2:0:0:0:
216,356,118360,1,8,2:0:0:0:
188,344,118443,1,8,2:0:0:0:
160,332,118526,1,8,2:0:0:0:
132,320,118610,2,0,L|240:300,1,90.9999958343508,6|0,3:2|3:0,2:0:0:0:
380,260,118943,5,10,2:0:0:0:
356,336,119110,1,2,3:2:0:0:
476,272,119276,1,2,2:0:0:0:
452,196,119443,1,2,3:2:0:0:
312,132,119610,2,0,L|336:36,1,90.9999958343508,10|2,2:0|2:0,2:0:0:0:
496,12,119943,5,2,3:2:0:0:
424,28,120110,1,2,3:2:0:0:
320,140,120276,2,0,L|224:116,1,90.9999958343508,10|2,2:0|3:2,2:0:0:0:
212,92,120526,1,0,1:0:0:0:
212,92,120610,2,0,L|152:104,1,45.4999979171754,2|8,1:2|2:0,2:0:0:0:
120,160,120776,1,0,3:0:0:0:
4,44,120943,2,0,P|60:76|76:116,1,90.9999958343508,10|0,2:0|2:0,2:0:0:0:
208,196,121276,5,0,3:2:0:0:
168,264,121443,1,0,3:0:0:0:
40,336,121610,2,0,L|140:332,1,90.9999958343508,8|0,2:0|3:0,2:0:0:0:
152,356,121860,1,0,1:0:0:0:
152,356,121943,2,0,P|200:344|216:344,1,45.4999979171754,2|0,2:0|1:0,2:0:0:0:
268,364,122110,1,2,3:2:0:0:
376,248,122276,2,0,P|353:244|288:208,1,90.9999958343508,10|2,2:0|2:0,2:0:0:0:
204,116,122610,5,2,3:2:0:0:
168,188,122776,1,2,3:2:0:0:
324,116,122943,1,10,2:0:0:0:
288,44,123110,1,2,3:2:0:0:
288,44,123193,1,0,1:0:0:0:
288,44,123276,2,0,L|236:36,1,45.4999979171754,2|0,1:2|1:0,2:0:0:0:
172,0,123443,1,0,3:0:0:0:
92,124,123610,2,0,L|2:141,1,90.9999958343508,10|0,2:0|2:0,2:0:0:0:
88,312,123943,6,0,L|177:329,1,90.9999958343508,2|2,3:2|3:2,2:0:0:0:
336,280,124276,2,0,P|288:264|260:224,1,90.9999958343508,8|2,2:0|3:2,2:0:0:0:
280,208,124526,1,2,1:2:0:0:
280,208,124610,2,0,P|300:180|304:152,1,45.4999979171754,2|0,1:2|2:0,2:0:0:0:
276,96,124776,1,2,3:2:0:0:
420,16,124943,1,10,2:0:0:0:
400,92,125110,1,2,2:0:0:0:
496,200,125276,5,2,3:2:0:0:
484,128,125443,1,2,3:2:0:0:
364,236,125610,2,0,P|424:264|456:288,1,90.9999958343508,10|0,2:0|3:0,2:0:0:0:
300,340,125943,1,2,1:2:0:0:
300,340,126026,2,0,P|263:357|243:371,1,45.4999979171754,8|2,2:0|3:2,2:0:0:0:
96,336,126276,2,0,P|148:280|160:208,1,136.499993751526,10|0,2:0|2:0,2:0:0:0:
144,148,126610,6,0,B|177:137|208:156|208:156|251:147|260:116,1,136.499993751526,4|0,3:0|2:0,2:0:0:0:
336,116,126943,2,0,B|342:81|374:64|374:64|388:22|366:0,1,136.499993751526,4|0,3:0|2:0,2:0:0:0:
296,28,127276,1,4,3:0:0:0:
412,152,127443,1,4,3:0:0:0:
316,292,127610,1,6,3:0:0:0:
392,272,127776,1,2,2:0:0:0:
248,368,127943,5,10,2:0:0:0:
176,336,128110,1,2,3:2:0:0:
52,280,128276,1,10,2:0:0:0:
148,184,128443,1,2,3:2:0:0:
148,184,128526,2,0,L|156:256,1,45.4999979171754,8|10,1:2|1:2,2:0:0:0:
172,348,128776,1,10,2:0:0:0:
292,240,128944,1,10,1:2:0:0:
288,203,129027,1,8,1:2:0:0:
285,167,129110,1,8,1:2:0:0:
208,96,129276,5,2,3:1:0:0:
