osu file format v14

[General]
AudioFilename: audio.mp3
AudioLeadIn: 0
PreviewTime: 107943
Countdown: 0
SampleSet: Normal
StackLeniency: 0.7
Mode: 1
LetterboxInBreaks: 0
WidescreenStoryboard: 1

[Editor]
DistanceSpacing: 0.4
BeatDivisor: 4
GridSize: 4
TimelineZoom: 3.399999

[Metadata]
Title:Your favorite sidekick (feat. 8485)
TitleUnicode:Your favorite sidekick (feat. 8485)
Artist:underscores
ArtistUnicode:underscores
Creator:Boaz
Version:Oni
Source:
Tags:fishmonger hyperpop hyper pop rock english favourite eighty ft. featuring clockbite
BeatmapID:3705112
BeatmapSetID:1806298

[Difficulty]
HPDrainRate:5.5
CircleSize:5
OverallDifficulty:5.5
ApproachRate:5
SliderMultiplier:1.4
SliderTickRate:1

[Events]
//Background and Video events
0,0,"fishmonger.jpg",0,-50
//Break Periods
//Storyboard Layer 0 (Background)
//Storyboard Layer 1 (Fail)
//Storyboard Layer 2 (Pass)
//Storyboard Layer 3 (Foreground)
//Storyboard Layer 4 (Overlay)
//Storyboard Sound Samples

[TimingPoints]
1277,333.333333333333,4,1,0,100,1,0
1277,-66.6666666666667,4,1,0,100,0,0
1610,-111.111111111111,4,1,0,70,0,0
6608,-111.111111111111,4,1,0,70,0,0
6774,-110.311718855141,4,1,0,70,0,0
6941,-109.523866893454,4,1,0,70,0,0
7108,-108.747070625785,4,1,0,70,0,0
7274,-107.981215587736,4,1,0,70,0,0
7441,-107.226072233916,4,1,0,70,0,0
7608,-106.481530778486,4,1,0,70,0,0
7774,-105.747145884533,4,1,0,70,0,0
7941,-105.022821459103,4,1,0,70,0,0
8108,-104.308352178376,4,1,0,70,0,0
8274,-103.603645605082,4,1,0,70,0,0
8441,-102.908291218115,4,1,0,70,0,0
8608,-102.222208592594,4,1,0,70,0,0
8691,-101.882586432092,4,1,0,70,0,0
8774,-101.545213514043,4,1,0,70,0,0
8858,-101.210170002723,4,1,0,70,0,0
8941,-100.877228377975,4,1,0,70,0,0
9052,-100.436698766236,4,1,0,70,0,0
9163,-100,4,1,0,70,0,0
9274,-50,4,1,0,90,0,0
10608,-100,4,1,0,70,0,0
10774,-101.694949727102,4,1,0,70,0,0
10941,-103.448240190262,4,1,0,70,0,0
11108,-105.263157894737,4,1,0,70,0,0
11274,-107.142895408177,4,1,0,70,0,0
11608,-111.111111111111,4,1,0,70,0,0
11941,-66.6666666666667,4,1,0,90,0,0
12274,-100,4,1,0,75,0,0
16274,-66.6666666666667,4,1,0,90,0,0
16441,-100,4,1,0,70,0,0
16443,-80,4,1,0,70,0,0
16608,-66.6666666666667,4,1,0,90,0,0
17360,-100,4,1,0,75,0,0
18941,-66.6666666666667,4,1,0,90,0,0
19108,-100,4,1,0,70,0,0
19274,-100,4,1,0,70,0,0
19358,-101.503778478154,4,1,0,70,0,0
19441,-103.053474447891,4,1,0,70,0,0
19524,-104.651114115761,4,1,0,70,0,0
19608,-106.299183303375,4,1,0,70,0,0
19719,-108.57904771832,4,1,0,70,0,0
19830,-110.95885091014,4,1,0,70,0,0
19941,-50,4,1,0,90,0,0
21274,-100,4,1,0,70,0,0
21441,-102.536969704427,4,1,0,70,0,0
21608,-105.206125100603,4,1,0,70,0,0
21774,-108.017840226492,4,1,0,70,0,0
21941,-110.983972804487,4,1,0,70,0,0
22274,-111.111111111111,4,1,0,70,0,0
22358,-114.219140843623,4,1,0,70,0,0
22441,-117.506051561655,4,1,0,70,0,0
22524,-120.987597561374,4,1,0,70,0,0
22608,-66.6666666666667,4,1,0,90,0,0
22941,-100,4,1,0,70,0,0
24608,-83.3333333333333,4,1,0,70,0,0
24663,-84.5070660583285,4,1,0,70,0,0
24719,-85.7142612244968,4,1,0,70,0,0
24774,-86.9565217391304,4,1,0,70,0,0
24858,-88.8888888888889,4,1,0,70,0,0
24941,-90.9090909090909,4,1,0,70,0,0
25052,-93.7499707031342,4,1,0,70,0,0
25163,-96.774224765879,4,1,0,70,0,0
25274,-100,4,1,0,70,0,0
26941,-66.6666666666667,4,1,0,90,0,0
28026,-100,4,1,0,70,0,0
29608,-66.6666666666667,4,1,0,90,0,0
29941,-100,4,1,0,70,0,0
30108,-100,4,1,0,70,0,0
30163,-101.423478521043,4,1,0,70,0,0
30219,-102.888068070746,4,1,0,70,0,0
30274,-104.395575715501,4,1,0,70,0,0
30386,-107.547119081548,4,1,0,70,0,0
30497,-110.894989099023,4,1,0,70,0,0
30608,-50,4,1,0,90,0,0
31941,-166.666666666667,4,1,0,70,0,0
32941,-166.666666666667,4,1,0,70,0,0
33024,-149.999925000038,4,1,0,70,0,0
33108,-136.363698347136,4,1,0,70,0,0
33191,-125,4,1,0,70,0,0
33274,-66.6666666666667,4,1,0,90,0,0
33608,-100,4,1,0,70,0,0
35274,-83.3333333333333,4,1,0,70,0,0
35330,-84.4947845594231,4,1,0,70,0,0
35386,-85.6890686455129,4,1,0,70,0,0
35441,-86.9175977714328,4,1,0,70,0,0
35524,-88.8278542832347,4,1,0,70,0,0
35608,-90.8239640845716,4,1,0,70,0,0
35719,-93.6293644157855,4,1,0,70,0,0
35830,-96.6135034761539,4,1,0,70,0,0
35941,-99.7942243094739,4,1,0,70,0,0
37608,-66.6666666666667,4,1,0,90,0,0
37774,-100,4,1,0,70,0,0
37776,-80,4,1,0,70,0,0
37941,-66.6666666666667,4,1,0,90,0,0
38693,-100,4,1,0,70,0,0
40274,-66.6666666666667,4,1,0,90,0,0
40441,-100,4,1,0,70,0,0
40608,-100,4,1,0,70,0,0
40691,-101.522842639594,4,1,0,70,0,0
40774,-103.092783505155,4,1,0,70,0,0
40858,-104.712041884817,4,1,0,70,0,0
40941,-106.382978723404,4,1,0,70,0,0
41052,-108.695652173913,4,1,0,70,0,0
41163,-111.111111111111,4,1,0,70,0,0
41274,-50,4,1,0,90,0,0
42441,-100,4,1,0,70,0,0
42608,-108.695652173913,4,1,0,70,0,0
42774,-119.047619047619,4,1,0,70,0,0
42941,-131.578947368421,4,1,0,70,0,0
43108,-147.058823529412,4,1,0,70,0,0
43274,-166.666666666667,4,1,0,70,0,0
43941,-200,4,1,0,70,0,0
44776,-200,4,1,0,50,0,0
54610,-200,4,1,0,70,0,0
54776,-196.666502777914,4,1,0,70,0,0
54943,-193.442680032266,4,1,0,70,0,0
55110,-190.322482414203,4,1,0,70,0,0
55276,-100,4,1,0,70,0,0
55443,-184.374959667978,4,1,0,70,0,0
55610,-181.538612355155,4,1,0,70,0,0
55776,-178.787889623508,4,1,0,70,0,0
55943,-176.119282067359,4,1,0,70,0,0
56110,-173.529467906593,4,1,0,70,0,0
56276,-171.014423356466,4,1,0,70,0,0
56443,-168.571524898014,4,1,0,70,0,0
56610,-100,4,1,0,70,0,0
56776,-163.8890209106,4,1,0,70,0,0
56943,-161.643853330833,4,1,0,70,0,0
57110,-159.459368955493,4,1,0,70,0,0
57276,-157.333387875574,4,1,0,70,0,0
57443,-155.263108864281,4,1,0,70,0,0
57610,-153.246840816377,4,1,0,70,0,0
57776,-151.282039644971,4,1,0,70,0,0
57943,-100,4,1,0,70,0,0
58110,-147.500022125003,4,1,0,70,0,0
58276,-145.678944002471,4,1,0,70,0,0
58443,-143.902491671643,4,1,0,70,0,0
58610,-142.168640441291,4,1,0,70,0,0
58776,-140.476270748345,4,1,0,70,0,0
58943,-138.823526145329,4,1,0,70,0,0
59110,-137.209219361867,4,1,0,70,0,0
59276,-100,4,1,0,70,0,0
59443,-134.090857283078,4,1,0,70,0,0
59610,-132.584320313111,4,1,0,70,0,0
59776,-131.111087802473,4,1,0,70,0,0
59943,-129.670403767703,4,1,0,70,0,0
60110,-128.260872353497,4,1,0,70,0,0
60276,-126.881654942802,4,1,0,70,0,0
60443,-125.531941602541,4,1,0,70,0,0
60610,-100,4,1,0,70,0,0
60776,-122.9167153212,4,1,0,70,0,0
60943,-121.649469486664,4,1,0,70,0,0
61110,-120.40823207001,4,1,0,70,0,0
61276,-119.191926415672,4,1,0,70,0,0
61443,-117.999948080023,4,1,0,70,0,0
61610,-116.831710930308,4,1,0,70,0,0
61776,-115.686245021153,4,1,0,70,0,0
61943,-100,4,1,0,70,0,0
62110,-113.461529733728,4,1,0,70,0,0
62276,-112.380890303889,4,1,0,70,0,0
62388,-111.848315788061,4,1,0,70,0,0
62499,-110.798167841497,4,1,0,70,0,0
62610,-110.280332605483,4,1,0,70,0,0
62776,-109.259287585741,4,1,0,70,0,0
62943,-108.256858883937,4,1,0,70,0,0
63110,-107.27277213225,4,1,0,70,0,0
63276,-100,4,1,0,70,0,0
63443,-105.357092059973,4,1,0,70,0,0
63610,-104.424791698647,4,1,0,70,0,0
63776,-103.508739242854,4,1,0,70,0,0
63943,-102.608724204167,4,1,0,70,0,0
64110,-101.724122146257,4,1,0,70,0,0
64276,-100.854743955019,4,1,0,70,0,0
64443,-100,4,1,0,70,0,0
64610,-83.3333333333333,4,1,0,70,0,0
65276,-66.6666666666667,4,1,0,90,0,0
65610,-100,4,1,0,70,0,0
67276,-83.3333333333333,4,1,0,70,0,0
67332,-84.4947845594231,4,1,0,70,0,0
67388,-85.6890686455129,4,1,0,70,0,0
67443,-86.9175977714328,4,1,0,70,0,0
67526,-88.8278542832347,4,1,0,70,0,0
67610,-90.8239640845716,4,1,0,70,0,0
67721,-93.6293644157855,4,1,0,70,0,0
67832,-96.6135034761539,4,1,0,70,0,0
67943,-99.7942243094739,4,1,0,70,0,0
69610,-66.6666666666667,4,1,0,90,0,0
69776,-80,4,1,0,70,0,0
69943,-66.6666666666667,4,1,0,90,0,0
70776,-100,4,1,0,70,0,0
72276,-66.6666666666667,4,1,0,90,0,0
72443,-100,4,1,0,70,0,0
72610,-100,4,1,0,70,0,0
72693,-101.522842639594,4,1,0,70,0,0
72776,-103.092783505155,4,1,0,70,0,0
72860,-104.712041884817,4,1,0,70,0,0
72943,-106.382978723404,4,1,0,70,0,0
73054,-108.695652173913,4,1,0,70,0,0
73165,-111.111111111111,4,1,0,70,0,0
73276,-50,4,1,0,90,0,0
74610,-100,4,1,0,70,0,0
74776,-105.263157894737,4,1,0,70,0,0
74943,-111.111111111111,4,1,0,70,0,0
75110,-117.647058823529,4,1,0,70,0,0
75276,-125,4,1,0,70,0,0
75943,-66.6666666666667,4,1,0,90,0,0
76276,-100,4,1,0,70,0,0
77943,-83.3333333333333,4,1,0,70,0,0
77999,-84.4947845594231,4,1,0,70,0,0
78054,-85.6890686455129,4,1,0,70,0,0
78110,-86.9175977714328,4,1,0,70,0,0
78193,-88.8278542832347,4,1,0,70,0,0
78276,-90.8239640845716,4,1,0,70,0,0
78388,-93.6293644157855,4,1,0,70,0,0
78499,-96.6135034761539,4,1,0,70,0,0
78610,-99.7942243094739,4,1,0,70,0,0
80276,-66.6666666666667,4,1,0,90,0,0
80443,-80,4,1,0,70,0,0
80610,-66.6666666666667,4,1,0,90,0,0
81443,-100,4,1,0,70,0,0
82943,-66.6666666666667,4,1,0,90,0,0
83110,-100,4,1,0,70,0,0
83276,-100,4,1,0,70,0,0
83360,-101.503778478154,4,1,0,70,0,0
83443,-103.053474447891,4,1,0,70,0,0
83526,-104.651114115761,4,1,0,70,0,0
83610,-106.299183303375,4,1,0,70,0,0
83721,-108.57904771832,4,1,0,70,0,0
83832,-110.95885091014,4,1,0,70,0,0
83943,-50,4,1,0,90,0,0
85276,-100,4,1,0,70,0,0
85610,-105.23446765566,4,1,0,70,0,0
85776,-108.062663377239,4,1,0,70,0,0
85943,-111.047197279788,4,1,0,70,0,0
86276,-117.539613788337,4,1,0,70,0,0
86610,-124.838334357008,4,1,0,70,0,0
86943,-124.324297443395,4,1,0,70,0,0
87276,-123.655860793178,4,1,0,70,0,0
87610,-122.994724756255,4,1,0,70,0,0
87943,-122.340471084218,4,1,0,70,0,0
88276,-121.693141009493,4,1,0,70,0,0
88610,-121.052625207757,4,1,0,70,0,0
88943,-120.418816644289,4,1,0,70,0,0
89276,-119.791610514349,4,1,0,70,0,0
89610,-119.171046202615,4,1,0,70,0,0
89943,-118.55673769796,4,1,0,70,0,0
90276,-117.948730046024,4,1,0,70,0,0
90610,-117.346926801334,4,1,0,70,0,0
90943,-116.751233476782,4,1,0,70,0,0
91276,-116.161557494163,4,1,0,70,0,0
91610,-115.577941718667,4,1,0,70,0,0
91943,-115.000028750007,4,1,0,70,0,0
92276,-114.427866389446,4,1,0,70,0,0
92610,-113.86136922851,4,1,0,70,0,0
92943,-113.300453541716,4,1,0,70,0,0
93276,-112.745037245323,4,1,0,70,0,0
93610,-112.195165734699,4,1,0,70,0,0
93943,-111.650507116603,4,1,0,70,0,0
94276,-111.111111111111,4,1,0,70,0,0
94610,-50,4,1,0,90,0,0
95943,-200,4,1,0,70,0,0
97276,-111.111111111111,4,1,0,70,0,0
97610,-110.577390904346,4,1,0,70,0,0
97943,-110.048773616467,4,1,0,70,0,0
98276,-109.525186411867,4,1,0,70,0,0
98610,-109.006557834519,4,1,0,70,0,0
98943,-108.492935482506,4,1,0,70,0,0
99276,-107.984014046561,4,1,0,70,0,0
99610,-107.479844842096,4,1,0,70,0,0
99943,-106.980361615018,4,1,0,70,0,0
100276,-106.485499337128,4,1,0,70,0,0
100610,-105.995194177896,4,1,0,70,0,0
100943,-105.50938347702,4,1,0,70,0,0
101276,-105.028005717725,4,1,0,70,0,0
101610,-104.551000500799,4,1,0,70,0,0
101943,-104.078416842386,4,1,0,70,0,0
102276,-103.609978884286,4,1,0,70,0,0
102610,-103.145738740095,4,1,0,70,0,0
102943,-102.685640234698,4,1,0,70,0,0
103276,-102.229628190842,4,1,0,70,0,0
103610,-101.777648407078,4,1,0,70,0,0
103943,-101.329647636283,4,1,0,70,0,0
104276,-100.885573564751,4,1,0,70,0,0
104610,-100.445374791827,4,1,0,70,0,0
104943,-100.009000810073,4,1,0,70,0,0
105276,-50,4,1,0,90,0,0
106610,-200,4,1,0,70,0,0
107610,-66.6666666666667,4,1,0,70,0,0
107943,-90.9090909090909,4,1,0,85,0,1
115943,-50,4,1,0,90,0,0
117276,-90.9090909090909,4,1,0,85,0,1
126610,-50,4,1,0,90,0,0
127943,-90.9090909090909,4,1,0,85,0,1
128943,-90.9090909090909,4,1,0,85,0,1
129026,-95.2380952380952,4,1,0,85,0,1
129110,-100,4,1,0,85,0,1
129193,-105.263157894737,4,1,0,85,0,1
129276,-111.111111111111,4,1,0,30,0,0

[HitObjects]
278,128,1277,5,4,0:0:0:0:
257,147,1610,1,8,0:0:0:0:
257,147,1943,1,0,0:0:0:0:
257,147,2110,1,0,0:0:0:0:
257,147,2276,1,8,0:0:0:0:
257,147,2610,1,8,0:0:0:0:
257,147,2776,1,0,0:0:0:0:
257,147,2943,1,8,0:0:0:0:
257,147,3110,1,0,0:0:0:0:
257,147,3276,1,8,0:0:0:0:
312,181,3360,1,8,0:0:0:0:
228,154,3443,1,0,0:0:0:0:
257,147,3610,1,8,0:0:0:0:
474,267,3721,1,8,0:0:0:0:
474,267,3832,1,8,0:0:0:0:
257,147,3943,1,0,0:0:0:0:
257,147,4276,1,8,0:0:0:0:
257,147,4610,1,0,0:0:0:0:
257,147,4776,1,0,0:0:0:0:
257,147,4943,1,8,0:0:0:0:
257,147,5276,1,8,0:0:0:0:
257,147,5443,1,0,0:0:0:0:
257,147,5610,1,8,0:0:0:0:
257,147,5776,1,0,0:0:0:0:
257,147,5943,1,0,0:0:0:0:
257,147,6276,1,8,0:0:0:0:
257,147,6610,5,8,0:0:0:0:
238,149,6776,1,0,0:0:0:0:
257,147,6943,1,8,0:0:0:0:
238,149,7110,1,0,0:0:0:0:
257,147,7276,1,8,0:0:0:0:
238,149,7443,1,8,0:0:0:0:
257,147,7610,1,0,0:0:0:0:
257,147,7943,1,0,0:0:0:0:
257,147,8110,1,0,0:0:0:0:
257,147,8276,1,8,0:0:0:0:
257,147,8443,1,0,0:0:0:0:
247,143,8610,1,8,0:0:0:0:
263,142,8693,1,8,0:0:0:0:
238,149,8776,1,0,0:0:0:0:
247,143,8943,1,8,0:0:0:0:
238,149,9054,1,8,0:0:0:0:
255,154,9165,1,8,0:0:0:0:
247,143,9276,1,4,0:0:0:0:
247,143,9610,1,4,0:0:0:0:
247,143,9943,1,4,0:0:0:0:
247,143,10110,1,4,0:0:0:0:
247,143,10276,1,4,0:0:0:0:
247,143,10610,1,8,0:0:0:0:
255,154,10776,1,8,0:0:0:0:
247,143,10943,1,0,0:0:0:0:
247,143,11110,1,8,0:0:0:0:
247,143,11276,1,0,0:0:0:0:
247,143,11610,1,8,0:0:0:0:
247,143,11943,1,4,0:0:0:0:
247,143,12276,1,8,0:0:0:0:
255,154,12443,1,0,0:0:0:0:
255,154,12526,1,0,0:0:0:0:
247,143,12610,1,8,0:0:0:0:
247,143,12776,1,8,0:0:0:0:
247,143,12943,1,0,0:0:0:0:
247,143,13276,1,8,0:0:0:0:
247,143,13443,1,0,0:0:0:0:
247,143,13610,1,8,0:0:0:0:
247,143,13776,1,0,0:0:0:0:
247,143,13943,1,8,0:0:0:0:
256,154,14026,1,8,0:0:0:0:
220,169,14110,1,0,0:0:0:0:
247,143,14276,1,8,0:0:0:0:
256,154,14388,1,8,0:0:0:0:
256,154,14499,1,8,0:0:0:0:
247,143,14610,1,0,0:0:0:0:
368,213,14776,1,8,0:0:0:0:
247,143,14943,1,0,0:0:0:0:
368,213,15110,1,0,0:0:0:0:
247,143,15276,1,8,0:0:0:0:
247,143,15443,1,0,0:0:0:0:
247,143,15610,1,8,0:0:0:0:
236,135,15943,1,8,0:0:0:0:
236,135,16110,1,8,0:0:0:0:
236,135,16276,1,4,0:0:0:0:
236,135,16443,1,8,0:0:0:0:
236,135,16610,1,4,0:0:0:0:
236,135,16776,1,4,0:0:0:0:
236,135,16943,1,4,0:0:0:0:
236,135,17276,1,4,0:0:0:0:
317,166,17443,1,8,0:0:0:0:
236,135,17610,1,8,0:0:0:0:
317,166,17776,1,0,0:0:0:0:
236,135,17943,1,8,0:0:0:0:
236,135,18110,1,0,0:0:0:0:
236,135,18276,1,0,0:0:0:0:
236,135,18610,1,8,0:0:0:0:
236,135,18776,1,8,0:0:0:0:
236,135,18943,1,4,0:0:0:0:
236,135,19110,1,8,0:0:0:0:
236,135,19276,5,0,0:0:0:0:
262,143,19360,1,0,0:0:0:0:
236,135,19443,1,8,0:0:0:0:
236,135,19610,1,0,0:0:0:0:
317,165,19721,1,8,0:0:0:0:
317,165,19832,1,8,0:0:0:0:
236,135,19943,1,4,0:0:0:0:
236,135,20276,1,4,0:0:0:0:
236,135,20610,1,4,0:0:0:0:
236,135,20776,1,4,0:0:0:0:
236,135,20943,1,4,0:0:0:0:
236,135,21276,1,8,0:0:0:0:
317,165,21443,1,0,0:0:0:0:
236,135,21610,1,8,0:0:0:0:
236,135,21776,1,8,0:0:0:0:
236,135,21943,1,0,0:0:0:0:
236,135,22276,1,8,0:0:0:0:
236,135,22360,1,8,0:0:0:0:
236,135,22443,1,8,0:0:0:0:
236,135,22526,1,8,0:0:0:0:
236,135,22610,1,4,0:0:0:0:
236,135,22943,1,8,0:0:0:0:
203,140,23110,1,0,0:0:0:0:
317,165,23193,1,0,0:0:0:0:
236,135,23276,1,8,0:0:0:0:
317,165,23443,1,8,0:0:0:0:
236,135,23610,1,0,0:0:0:0:
317,165,23776,1,0,0:0:0:0:
236,135,23943,1,8,0:0:0:0:
236,135,24110,1,0,0:0:0:0:
236,135,24276,1,8,0:0:0:0:
199,140,24610,5,8,0:0:0:0:
317,165,24693,1,8,0:0:0:0:
317,165,24776,1,0,0:0:0:0:
199,140,24943,1,8,0:0:0:0:
246,163,25054,1,8,0:0:0:0:
246,163,25165,1,8,0:0:0:0:
246,163,25276,1,0,0:0:0:0:
199,140,25443,1,8,0:0:0:0:
199,140,25610,1,0,0:0:0:0:
199,140,25776,1,0,0:0:0:0:
199,140,25943,1,8,0:0:0:0:
199,140,26276,1,8,0:0:0:0:
199,140,26443,1,0,0:0:0:0:
199,140,26610,1,8,0:0:0:0:
191,134,26776,1,8,0:0:0:0:
191,134,26943,1,4,0:0:0:0:
191,134,27276,1,4,0:0:0:0:
191,134,27443,1,4,0:0:0:0:
191,134,27610,1,4,0:0:0:0:
191,134,27943,1,4,0:0:0:0:
191,134,28276,1,0,0:0:0:0:
296,156,28443,1,0,0:0:0:0:
191,134,28610,1,8,0:0:0:0:
191,134,28943,1,8,0:0:0:0:
296,156,29110,1,0,0:0:0:0:
191,134,29276,1,8,0:0:0:0:
191,134,29443,1,8,0:0:0:0:
191,134,29610,1,4,0:0:0:0:
180,131,29943,1,8,0:0:0:0:
180,130,30110,5,0,0:0:0:0:
296,156,30193,1,0,0:0:0:0:
180,130,30276,1,8,0:0:0:0:
296,156,30388,1,8,0:0:0:0:
296,156,30499,1,8,0:0:0:0:
180,130,30610,1,4,0:0:0:0:
180,131,30943,1,4,0:0:0:0:
180,130,31276,1,4,0:0:0:0:
180,130,31443,1,4,0:0:0:0:
180,130,31610,1,4,0:0:0:0:
180,131,31943,1,8,0:0:0:0:
180,130,32276,1,8,0:0:0:0:
180,130,32443,1,0,0:0:0:0:
180,130,32610,1,8,0:0:0:0:
180,131,32943,1,8,0:0:0:0:
180,130,33026,1,8,0:0:0:0:
180,130,33110,1,8,0:0:0:0:
180,130,33193,1,8,0:0:0:0:
180,130,33276,1,4,0:0:0:0:
180,130,33610,1,0,0:0:0:0:
180,131,33776,1,0,0:0:0:0:
180,131,33943,1,8,0:0:0:0:
296,156,34110,1,0,0:0:0:0:
180,130,34276,1,8,0:0:0:0:
180,130,34610,1,0,0:0:0:0:
180,131,34776,1,0,0:0:0:0:
180,131,34943,1,8,0:0:0:0:
180,130,35110,1,0,0:0:0:0:
180,130,35276,5,8,0:0:0:0:
296,156,35360,1,8,0:0:0:0:
296,156,35443,1,0,0:0:0:0:
180,130,35610,1,8,0:0:0:0:
296,156,35721,1,8,0:0:0:0:
296,156,35832,1,8,0:0:0:0:
180,131,35943,1,0,0:0:0:0:
180,130,36110,1,8,0:0:0:0:
180,130,36276,1,0,0:0:0:0:
296,156,36443,1,0,0:0:0:0:
180,130,36610,1,8,0:0:0:0:
180,131,36943,1,8,0:0:0:0:
180,130,37110,1,0,0:0:0:0:
180,130,37276,1,8,0:0:0:0:
180,130,37443,1,8,0:0:0:0:
180,130,37610,1,4,0:0:0:0:
180,131,37776,1,8,0:0:0:0:
180,131,37943,1,4,0:0:0:0:
180,130,38110,1,4,0:0:0:0:
180,130,38276,1,4,0:0:0:0:
180,130,38610,1,4,0:0:0:0:
180,131,38943,1,0,0:0:0:0:
180,130,39110,1,0,0:0:0:0:
180,130,39276,1,8,0:0:0:0:
296,155,39443,1,0,0:0:0:0:
180,130,39610,1,8,0:0:0:0:
180,131,39943,1,0,0:0:0:0:
180,130,40110,1,8,0:0:0:0:
180,130,40276,1,4,0:0:0:0:
180,130,40443,1,8,0:0:0:0:
180,130,40610,5,8,0:0:0:0:
262,143,40693,1,8,0:0:0:0:
180,131,40776,1,0,0:0:0:0:
180,131,40943,1,8,0:0:0:0:
296,155,41054,1,8,0:0:0:0:
296,155,41165,1,8,0:0:0:0:
180,130,41276,1,4,0:0:0:0:
180,130,41610,1,4,0:0:0:0:
180,131,41943,1,4,0:0:0:0:
180,130,42110,1,4,0:0:0:0:
180,130,42443,5,0,0:0:0:0:
180,130,42610,1,8,0:0:0:0:
180,131,42776,1,8,0:0:0:0:
180,131,42943,1,8,0:0:0:0:
180,130,43110,1,8,0:0:0:0:
180,130,43276,1,0,0:0:0:0:
180,130,43610,1,0,0:0:0:0:
224,164,43943,1,8,0:0:0:0:
202,124,44776,1,8,0:0:0:0:
202,124,44943,1,0,0:0:0:0:
202,124,45110,1,0,0:0:0:0:
202,124,45276,1,8,0:0:0:0:
202,124,45443,1,8,0:0:0:0:
202,124,45776,1,0,0:0:0:0:
241,148,46110,1,0,0:0:0:0:
241,148,46610,1,0,0:0:0:0:
146,121,47276,1,0,0:0:0:0:
217,110,47610,1,8,0:0:0:0:
217,110,47776,1,0,0:0:0:0:
217,110,47943,1,8,0:0:0:0:
217,110,48110,1,0,0:0:0:0:
217,110,48443,1,0,0:0:0:0:
228,157,48776,1,8,0:0:0:0:
234,132,49776,1,0,0:0:0:0:
170,120,49943,1,0,0:0:0:0:
200,119,50276,1,8,0:0:0:0:
200,119,50443,1,8,0:0:0:0:
200,119,50610,1,0,0:0:0:0:
200,119,50776,1,0,0:0:0:0:
200,119,51110,1,0,0:0:0:0:
200,119,51443,1,8,0:0:0:0:
200,119,51943,1,0,0:0:0:0:
200,119,52443,1,0,0:0:0:0:
182,128,52943,1,8,0:0:0:0:
168,129,54610,5,8,0:0:0:0:
168,129,54776,1,0,0:0:0:0:
168,129,54943,1,0,0:0:0:0:
168,129,55110,1,0,0:0:0:0:
168,129,55276,1,8,0:0:0:0:
168,129,55610,1,0,0:0:0:0:
168,129,55776,1,0,0:0:0:0:
168,129,55943,1,8,0:0:0:0:
168,129,56276,1,0,0:0:0:0:
168,129,56443,1,0,0:0:0:0:
168,129,56610,1,8,0:0:0:0:
191,124,56943,1,8,0:0:0:0:
191,124,57110,1,8,0:0:0:0:
191,124,57276,1,0,0:0:0:0:
191,124,57443,1,0,0:0:0:0:
191,124,57610,1,8,0:0:0:0:
191,124,57776,1,0,0:0:0:0:
191,124,57943,1,8,0:0:0:0:
191,124,58276,1,0,0:0:0:0:
191,124,58443,1,0,0:0:0:0:
191,124,58610,1,8,0:0:0:0:
191,124,58943,1,0,0:0:0:0:
191,124,59110,1,0,0:0:0:0:
191,124,59276,1,8,0:0:0:0:
191,124,59610,1,8,0:0:0:0:
191,124,59776,1,8,0:0:0:0:
191,124,59943,1,0,0:0:0:0:
191,124,60110,1,0,0:0:0:0:
191,124,60276,1,8,0:0:0:0:
191,124,60443,1,0,0:0:0:0:
191,124,60610,1,8,0:0:0:0:
191,124,60943,1,0,0:0:0:0:
191,124,61110,1,0,0:0:0:0:
191,124,61276,1,8,0:0:0:0:
191,124,61610,1,0,0:0:0:0:
191,124,61776,1,0,0:0:0:0:
191,124,61943,1,8,0:0:0:0:
191,124,62276,1,8,0:0:0:0:
363,201,62388,1,0,0:0:0:0:
191,124,62499,1,0,0:0:0:0:
191,124,62610,1,8,0:0:0:0:
191,124,62943,1,0,0:0:0:0:
191,124,63110,1,0,0:0:0:0:
191,124,63276,1,8,0:0:0:0:
191,124,63610,1,8,0:0:0:0:
191,124,63776,1,8,0:0:0:0:
191,124,63943,1,0,0:0:0:0:
191,124,64110,1,0,0:0:0:0:
191,124,64276,1,8,0:0:0:0:
191,124,64610,1,0,0:0:0:0:
191,124,64776,1,0,0:0:0:0:
191,124,65276,1,4,0:0:0:0:
191,124,65610,1,0,0:0:0:0:
226,164,65776,1,0,0:0:0:0:
191,124,65943,1,8,0:0:0:0:
191,124,66110,1,0,0:0:0:0:
191,124,66276,1,8,0:0:0:0:
191,124,66610,1,8,0:0:0:0:
191,124,66776,1,8,0:0:0:0:
191,124,66943,1,0,0:0:0:0:
191,124,67110,1,0,0:0:0:0:
191,124,67276,5,8,0:0:0:0:
179,137,67360,1,8,0:0:0:0:
179,137,67443,1,0,0:0:0:0:
191,124,67610,1,8,0:0:0:0:
179,137,67721,1,8,0:0:0:0:
179,137,67832,1,8,0:0:0:0:
191,124,67943,1,0,0:0:0:0:
179,137,68110,1,8,0:0:0:0:
191,124,68276,1,0,0:0:0:0:
179,137,68443,1,0,0:0:0:0:
191,124,68610,1,8,0:0:0:0:
191,124,68776,1,8,0:0:0:0:
191,124,68943,1,8,0:0:0:0:
191,124,69276,1,0,0:0:0:0:
191,124,69443,1,8,0:0:0:0:
191,124,69610,1,4,0:0:0:0:
191,124,69776,1,8,0:0:0:0:
191,124,69943,1,4,0:0:0:0:
191,124,70110,1,4,0:0:0:0:
191,124,70276,1,4,0:0:0:0:
191,124,70610,1,4,0:0:0:0:
179,137,70776,1,8,0:0:0:0:
191,124,70943,1,0,0:0:0:0:
179,137,71110,1,0,0:0:0:0:
191,124,71276,1,8,0:0:0:0:
191,124,71443,1,0,0:0:0:0:
191,124,71610,1,8,0:0:0:0:
191,124,71943,1,0,0:0:0:0:
191,124,72110,1,8,0:0:0:0:
191,124,72276,1,4,0:0:0:0:
191,124,72443,1,8,0:0:0:0:
191,124,72610,5,0,0:0:0:0:
245,170,72693,1,8,0:0:0:0:
191,124,72776,1,0,0:0:0:0:
191,124,72943,1,8,0:0:0:0:
179,137,73054,1,8,0:0:0:0:
179,137,73165,1,8,0:0:0:0:
191,124,73276,1,4,0:0:0:0:
191,124,73610,1,4,0:0:0:0:
191,124,73943,1,4,0:0:0:0:
191,124,74110,1,4,0:0:0:0:
191,124,74276,1,4,0:0:0:0:
191,124,74610,5,8,0:0:0:0:
179,137,74776,1,8,0:0:0:0:
191,124,74943,1,8,0:0:0:0:
191,124,75110,1,8,0:0:0:0:
162,124,75276,1,0,0:0:0:0:
162,124,75610,1,8,0:0:0:0:
174,97,75943,1,4,0:0:0:0:
174,97,76276,1,0,0:0:0:0:
179,137,76443,1,8,0:0:0:0:
179,137,76526,1,0,0:0:0:0:
174,97,76610,1,8,0:0:0:0:
174,97,76776,1,0,0:0:0:0:
174,97,76943,1,8,0:0:0:0:
174,97,77276,1,8,0:0:0:0:
174,97,77443,1,8,0:0:0:0:
174,97,77610,1,0,0:0:0:0:
174,97,77776,1,0,0:0:0:0:
174,97,77943,5,8,0:0:0:0:
179,137,78026,1,8,0:0:0:0:
179,137,78110,1,0,0:0:0:0:
174,97,78276,1,8,0:0:0:0:
179,137,78388,1,8,0:0:0:0:
179,137,78499,1,8,0:0:0:0:
161,100,78610,1,0,0:0:0:0:
179,137,78776,1,8,0:0:0:0:
161,100,78943,1,0,0:0:0:0:
179,137,79110,1,0,0:0:0:0:
161,100,79276,1,8,0:0:0:0:
161,100,79443,1,8,0:0:0:0:
161,100,79610,1,8,0:0:0:0:
161,100,79943,1,0,0:0:0:0:
161,100,80110,1,8,0:0:0:0:
161,100,80276,1,4,0:0:0:0:
161,100,80443,1,8,0:0:0:0:
161,100,80610,1,4,0:0:0:0:
161,100,80776,1,4,0:0:0:0:
161,100,80943,1,4,0:0:0:0:
161,100,81276,1,4,0:0:0:0:
179,137,81443,1,8,0:0:0:0:
161,100,81610,1,0,0:0:0:0:
179,137,81776,1,0,0:0:0:0:
161,100,81943,1,8,0:0:0:0:
161,100,82110,1,0,0:0:0:0:
161,100,82276,1,8,0:0:0:0:
161,100,82610,1,0,0:0:0:0:
161,100,82776,1,8,0:0:0:0:
161,100,82943,1,4,0:0:0:0:
161,100,83110,1,8,0:0:0:0:
161,100,83276,5,0,0:0:0:0:
257,102,83360,1,8,0:0:0:0:
161,100,83443,1,0,0:0:0:0:
161,100,83610,1,8,0:0:0:0:
179,137,83721,1,8,0:0:0:0:
179,137,83832,1,8,0:0:0:0:
161,100,83943,1,4,0:0:0:0:
161,100,84276,1,4,0:0:0:0:
161,100,84610,1,4,0:0:0:0:
161,100,84776,1,4,0:0:0:0:
161,100,84943,1,4,0:0:0:0:
161,100,85276,5,8,0:0:0:0:
161,100,85610,1,0,0:0:0:0:
161,100,85776,1,0,0:0:0:0:
161,100,85943,1,8,0:0:0:0:
161,100,86276,1,8,0:0:0:0:
161,100,86610,5,0,0:0:0:0:
161,100,86943,1,8,0:0:0:0:
161,100,87276,1,0,0:0:0:0:
161,100,87610,1,8,0:0:0:0:
161,100,87943,1,0,0:0:0:0:
161,100,88276,1,8,0:0:0:0:
161,100,88610,1,0,0:0:0:0:
161,100,88943,1,8,0:0:0:0:
161,100,89276,1,0,0:0:0:0:
161,100,89610,1,8,0:0:0:0:
143,114,89943,1,0,0:0:0:0:
161,100,90276,1,8,0:0:0:0:
143,114,90610,1,0,0:0:0:0:
161,100,90943,1,8,0:0:0:0:
143,114,91276,1,0,0:0:0:0:
161,100,91610,1,8,0:0:0:0:
143,114,91943,1,0,0:0:0:0:
143,114,92276,1,8,0:0:0:0:
143,114,92610,1,0,0:0:0:0:
143,114,92943,1,8,0:0:0:0:
143,114,93276,1,0,0:0:0:0:
143,114,93610,1,8,0:0:0:0:
143,114,93943,1,0,0:0:0:0:
143,114,94276,1,8,0:0:0:0:
143,114,94610,1,4,0:0:0:0:
143,114,94943,1,4,0:0:0:0:
143,114,95276,1,4,0:0:0:0:
143,114,95443,1,4,0:0:0:0:
143,114,95610,1,4,0:0:0:0:
143,114,97276,5,0,0:0:0:0:
143,114,97610,1,8,0:0:0:0:
143,114,97943,1,0,0:0:0:0:
143,114,98276,1,8,0:0:0:0:
143,114,98610,1,8,0:0:0:0:
143,114,98943,1,8,0:0:0:0:
143,114,99276,1,8,0:0:0:0:
143,114,99610,1,8,0:0:0:0:
143,114,99943,1,0,0:0:0:0:
143,114,100276,1,8,0:0:0:0:
143,114,100610,1,0,0:0:0:0:
143,114,100943,1,8,0:0:0:0:
143,114,101276,1,8,0:0:0:0:
143,114,101610,1,8,0:0:0:0:
143,114,101943,1,8,0:0:0:0:
143,114,102276,1,8,0:0:0:0:
143,114,102610,1,0,0:0:0:0:
143,114,102943,1,8,0:0:0:0:
143,114,103276,1,0,0:0:0:0:
143,114,103610,1,8,0:0:0:0:
143,114,103943,1,8,0:0:0:0:
143,114,104276,1,8,0:0:0:0:
143,114,104610,1,8,0:0:0:0:
143,114,104943,1,8,0:0:0:0:
143,114,105276,1,4,0:0:0:0:
143,114,105610,1,4,0:0:0:0:
143,114,105943,1,4,0:0:0:0:
143,114,106110,1,4,0:0:0:0:
143,114,106276,1,4,0:0:0:0:
143,114,107610,1,8,0:0:0:0:
143,114,107943,1,4,0:0:0:0:
172,134,108110,1,0,0:0:0:0:
143,114,108276,1,8,0:0:0:0:
172,134,108443,1,0,0:0:0:0:
172,134,108526,1,0,0:0:0:0:
172,134,108610,1,8,0:0:0:0:
172,134,108776,1,0,0:0:0:0:
143,114,108943,1,8,0:0:0:0:
172,134,109110,1,8,0:0:0:0:
172,134,109193,1,8,0:0:0:0:
172,134,109276,1,0,0:0:0:0:
172,134,109443,1,0,0:0:0:0:
143,114,109610,1,8,0:0:0:0:
172,134,109776,1,8,0:0:0:0:
172,134,109860,1,0,0:0:0:0:
143,114,109943,1,8,0:0:0:0:
272,97,110110,1,0,0:0:0:0:
272,97,110276,1,8,0:0:0:0:
272,97,110610,1,0,0:0:0:0:
272,97,110776,1,0,0:0:0:0:
272,97,110943,1,8,0:0:0:0:
262,94,111110,1,0,0:0:0:0:
256,94,111193,1,0,0:0:0:0:
256,94,111276,1,8,0:0:0:0:
261,94,111443,1,0,0:0:0:0:
260,94,111610,1,8,0:0:0:0:
256,94,111776,1,8,0:0:0:0:
194,121,111860,1,8,0:0:0:0:
256,94,111943,1,0,0:0:0:0:
256,94,112110,1,0,0:0:0:0:
256,94,112276,1,8,0:0:0:0:
255,94,112443,1,8,0:0:0:0:
172,134,112526,1,0,0:0:0:0:
260,94,112610,1,0,0:0:0:0:
256,94,112776,1,0,0:0:0:0:
256,94,112943,1,8,0:0:0:0:
256,94,113276,1,0,0:0:0:0:
192,129,113443,1,0,0:0:0:0:
192,129,113610,1,8,0:0:0:0:
192,129,113776,1,0,0:0:0:0:
192,129,113860,1,0,0:0:0:0:
192,129,113943,1,8,0:0:0:0:
192,129,114110,1,0,0:0:0:0:
192,129,114276,1,8,0:0:0:0:
192,129,114443,1,8,0:0:0:0:
192,129,114526,1,8,0:0:0:0:
192,129,114610,1,0,0:0:0:0:
192,129,114776,1,0,0:0:0:0:
192,129,114943,1,8,0:0:0:0:
192,129,115110,1,8,0:0:0:0:
192,129,115193,1,0,0:0:0:0:
192,129,115276,1,8,0:0:0:0:
192,129,115443,1,0,0:0:0:0:
192,129,115610,1,8,0:0:0:0:
287,161,115943,1,4,0:0:0:0:
287,161,116276,1,4,0:0:0:0:
287,161,116610,1,4,0:0:0:0:
287,161,116776,1,4,0:0:0:0:
287,161,116943,1,4,0:0:0:0:
159,125,117276,1,0,0:0:0:0:
159,125,117443,1,0,0:0:0:0:
159,125,117610,1,8,0:0:0:0:
159,125,117776,1,8,0:0:0:0:
159,125,117860,1,8,0:0:0:0:
159,125,117943,1,0,0:0:0:0:
159,125,118110,1,0,0:0:0:0:
179,134,118276,1,8,0:0:0:0:
179,134,118360,1,8,0:0:0:0:
179,134,118443,1,8,0:0:0:0:
179,134,118526,1,8,0:0:0:0:
179,134,118610,1,0,0:0:0:0:
133,137,118776,1,0,0:0:0:0:
133,137,118943,1,8,0:0:0:0:
133,137,119110,1,0,0:0:0:0:
133,137,119193,1,0,0:0:0:0:
133,137,119276,1,8,0:0:0:0:
133,137,119443,1,0,0:0:0:0:
133,137,119610,1,8,0:0:0:0:
133,137,119776,1,0,0:0:0:0:
133,137,119860,1,8,0:0:0:0:
133,137,119943,1,0,0:0:0:0:
133,137,120110,1,0,0:0:0:0:
133,137,120276,1,8,0:0:0:0:
133,137,120443,1,8,0:0:0:0:
133,137,120526,1,0,0:0:0:0:
133,137,120610,1,0,0:0:0:0:
133,137,120776,1,0,0:0:0:0:
133,137,120943,1,8,0:0:0:0:
133,137,121276,1,0,0:0:0:0:
133,137,121443,1,0,0:0:0:0:
133,137,121610,1,8,0:0:0:0:
133,137,121776,1,0,0:0:0:0:
133,137,121860,1,0,0:0:0:0:
133,137,121943,1,8,0:0:0:0:
133,137,122110,1,0,0:0:0:0:
133,137,122276,1,8,0:0:0:0:
133,137,122443,1,0,0:0:0:0:
133,137,122526,1,8,0:0:0:0:
133,137,122610,1,0,0:0:0:0:
133,137,122776,1,0,0:0:0:0:
133,137,122943,1,8,0:0:0:0:
133,137,123110,1,8,0:0:0:0:
133,137,123193,1,8,0:0:0:0:
133,137,123276,1,0,0:0:0:0:
133,137,123443,1,0,0:0:0:0:
133,137,123610,1,8,0:0:0:0:
133,137,123943,1,0,0:0:0:0:
133,137,124110,1,0,0:0:0:0:
133,137,124276,1,8,0:0:0:0:
133,137,124443,1,0,0:0:0:0:
133,137,124526,1,0,0:0:0:0:
133,137,124610,1,8,0:0:0:0:
133,137,124776,1,0,0:0:0:0:
133,137,124943,1,8,0:0:0:0:
133,137,125110,1,0,0:0:0:0:
133,137,125193,1,8,0:0:0:0:
133,137,125276,1,0,0:0:0:0:
133,137,125443,5,0,0:0:0:0:
133,137,125610,1,8,0:0:0:0:
133,137,125776,1,8,0:0:0:0:
133,137,125860,1,0,0:0:0:0:
133,137,125943,1,0,0:0:0:0:
133,137,126110,1,0,0:0:0:0:
133,137,126276,1,8,0:0:0:0:
256,191,126610,5,4,0:0:0:0:
256,191,126943,1,4,0:0:0:0:
256,191,127276,1,4,0:0:0:0:
256,191,127443,1,4,0:0:0:0:
256,191,127610,1,4,0:0:0:0:
141,120,127943,1,8,0:0:0:0:
141,120,128110,1,0,0:0:0:0:
141,120,128193,1,0,0:0:0:0:
141,120,128276,1,8,0:0:0:0:
141,120,128443,1,0,0:0:0:0:
141,120,128610,1,8,0:0:0:0:
141,120,128776,1,8,0:0:0:0:
141,120,128943,1,8,0:0:0:0:
141,120,129026,1,8,0:0:0:0:
141,120,129110,1,8,0:0:0:0:
141,120,129193,1,8,0:0:0:0:
256,191,129276,1,0,0:0:0:0:
