osu file format v14

[General]
AudioFilename: audio.mp3
AudioLeadIn: 0
PreviewTime: 107943
Countdown: 0
SampleSet: Normal
StackLeniency: 0.7
Mode: 1
LetterboxInBreaks: 0
WidescreenStoryboard: 1

[Editor]
DistanceSpacing: 0.4
BeatDivisor: 4
GridSize: 4
TimelineZoom: 3.399999

[Metadata]
Title:Your favorite sidekick (feat. 8485)
TitleUnicode:Your favorite sidekick (feat. 8485)
Artist:underscores
ArtistUnicode:underscores
Creator:Boaz
Version:Futsuu
Source:
Tags:fishmonger hyperpop hyper pop rock english favourite eighty ft. featuring clockbite
BeatmapID:3705301
BeatmapSetID:1806298

[Difficulty]
HPDrainRate:7
CircleSize:5
OverallDifficulty:4
ApproachRate:5
SliderMultiplier:1.4
SliderTickRate:1

[Events]
//Background and Video events
0,0,"fishmonger.jpg",0,-50
//Break Periods
//Storyboard Layer 0 (Background)
//Storyboard Layer 1 (Fail)
//Storyboard Layer 2 (Pass)
//Storyboard Layer 3 (Foreground)
//Storyboard Layer 4 (Overlay)
//Storyboard Sound Samples

[TimingPoints]
1277,333.333333333333,4,1,0,100,1,0
1277,-100,4,1,0,70,0,0
9274,-100,4,1,0,90,0,0
10608,-100,4,1,0,70,0,0
11941,-100,4,1,0,90,0,0
12274,-100,4,1,0,75,0,0
16274,-100,4,1,0,90,0,0
16441,-100,4,1,0,70,0,0
16608,-100,4,1,0,90,0,0
17274,-100,4,1,0,75,0,0
18941,-100,4,1,0,90,0,0
19108,-100,4,1,0,70,0,0
19941,-100,4,1,0,90,0,0
21274,-100,4,1,0,70,0,0
22608,-100,4,1,0,90,0,0
22941,-100,4,1,0,70,0,0
26941,-100,4,1,0,90,0,0
27858,-100,4,1,0,70,0,0
29608,-100,4,1,0,90,0,0
29941,-100,4,1,0,70,0,0
30608,-100,4,1,0,90,0,0
31941,-100,4,1,0,70,0,0
33274,-100,4,1,0,90,0,0
33608,-100,4,1,0,70,0,0
37608,-100,4,1,0,90,0,0
37774,-100,4,1,0,70,0,0
37941,-100,4,1,0,90,0,0
38608,-100,4,1,0,70,0,0
40274,-100,4,1,0,90,0,0
40441,-100,4,1,0,70,0,0
41274,-100,4,1,0,90,0,0
42441,-100,4,1,0,70,0,0
65276,-100,4,1,0,90,0,0
65610,-100,4,1,0,70,0,0
69610,-100,4,1,0,90,0,0
69776,-100,4,1,0,70,0,0
69943,-100,4,1,0,90,0,0
70776,-100,4,1,0,70,0,0
72276,-100,4,1,0,90,0,0
72443,-100,4,1,0,70,0,0
73276,-100,4,1,0,90,0,0
74610,-100,4,1,0,70,0,0
75943,-100,4,1,0,90,0,0
76276,-100,4,1,0,70,0,0
80276,-100,4,1,0,90,0,0
80443,-100,4,1,0,70,0,0
80610,-100,4,1,0,90,0,0
81443,-100,4,1,0,70,0,0
82943,-100,4,1,0,90,0,0
83110,-100,4,1,0,70,0,0
83943,-100,4,1,0,90,0,0
85276,-100,4,1,0,70,0,0
94610,-100,4,1,0,90,0,0
97276,-100,4,1,0,70,0,0
105276,-100,4,1,0,90,0,0
106610,-100,4,1,0,70,0,0
107610,-100,4,1,0,70,0,0
107943,-100,4,1,0,85,0,1
115943,-100,4,1,0,90,0,0
117276,-100,4,1,0,85,0,1
126610,-100,4,1,0,90,0,0
127943,-100,4,1,0,85,0,1
128443,-100,4,1,0,85,0,1
128776,-100,4,1,0,85,0,1
128943,-100,4,1,0,85,0,1
129276,-100,4,1,0,30,0,0

[HitObjects]
278,128,1277,5,4,0:0:0:0:
257,147,1610,1,8,0:0:0:0:
257,147,1943,1,0,0:0:0:0:
257,147,2110,1,0,0:0:0:0:
257,147,2276,1,8,0:0:0:0:
257,147,2610,1,8,0:0:0:0:
257,147,2943,1,8,0:0:0:0:
257,147,3110,1,0,0:0:0:0:
257,147,3276,1,8,0:0:0:0:
257,147,3610,1,8,0:0:0:0:
257,147,3943,1,0,0:0:0:0:
257,147,4276,1,8,0:0:0:0:
257,147,4610,1,0,0:0:0:0:
257,147,4776,1,0,0:0:0:0:
257,147,4943,1,8,0:0:0:0:
257,147,5276,1,8,0:0:0:0:
257,147,5443,1,0,0:0:0:0:
257,147,5610,1,8,0:0:0:0:
257,147,5943,1,0,0:0:0:0:
257,147,6610,5,8,0:0:0:0:
257,147,6943,1,8,0:0:0:0:
257,147,7276,1,8,0:0:0:0:
215,125,7443,1,0,0:0:0:0:
257,147,7610,1,0,0:0:0:0:
257,147,7943,1,0,0:0:0:0:
257,147,8276,1,8,0:0:0:0:
257,147,8443,1,0,0:0:0:0:
247,143,8610,1,8,0:0:0:0:
293,176,8943,1,0,0:0:0:0:
247,143,9276,1,4,0:0:0:0:
247,143,9610,1,4,0:0:0:0:
247,143,9943,1,4,0:0:0:0:
247,143,10110,1,4,0:0:0:0:
247,143,10276,1,4,0:0:0:0:
247,143,11943,1,4,0:0:0:0:
247,143,12276,1,8,0:0:0:0:
247,143,12610,1,8,0:0:0:0:
247,143,12776,1,8,0:0:0:0:
247,143,12943,1,0,0:0:0:0:
247,143,13276,1,8,0:0:0:0:
247,143,13610,1,8,0:0:0:0:
247,143,13776,1,0,0:0:0:0:
247,143,13943,1,8,0:0:0:0:
247,143,14610,1,0,0:0:0:0:
225,177,14943,1,0,0:0:0:0:
247,143,15276,1,8,0:0:0:0:
247,143,15443,1,0,0:0:0:0:
247,143,15610,1,8,0:0:0:0:
236,135,15943,1,8,0:0:0:0:
236,135,16276,1,4,0:0:0:0:
236,135,16610,1,4,0:0:0:0:
236,135,16776,1,4,0:0:0:0:
236,135,16943,1,4,0:0:0:0:
236,135,17276,1,8,0:0:0:0:
236,135,17610,1,8,0:0:0:0:
236,135,17943,1,8,0:0:0:0:
236,135,18110,1,0,0:0:0:0:
236,135,18276,1,0,0:0:0:0:
236,135,18610,1,8,0:0:0:0:
236,135,18943,1,4,0:0:0:0:
236,135,19276,1,4,0:0:0:0:
236,135,19610,1,8,0:0:0:0:
236,135,19943,1,4,0:0:0:0:
236,135,20276,1,4,0:0:0:0:
236,135,20610,1,4,0:0:0:0:
236,135,20776,1,4,0:0:0:0:
236,135,20943,1,4,0:0:0:0:
236,135,22276,1,8,0:0:0:0:
236,135,22610,1,4,0:0:0:0:
236,135,22943,1,8,0:0:0:0:
236,135,23276,1,8,0:0:0:0:
236,135,23610,1,0,0:0:0:0:
236,135,23943,1,8,0:0:0:0:
236,135,24110,1,0,0:0:0:0:
236,135,24276,1,8,0:0:0:0:
199,140,24610,5,8,0:0:0:0:
246,163,25276,1,0,0:0:0:0:
190,164,25610,1,0,0:0:0:0:
199,140,25943,1,8,0:0:0:0:
199,140,26276,1,8,0:0:0:0:
199,140,26610,1,8,0:0:0:0:
191,134,26943,1,4,0:0:0:0:
191,134,27276,1,4,0:0:0:0:
191,134,27443,1,4,0:0:0:0:
191,134,27610,1,4,0:0:0:0:
191,134,27943,1,8,0:0:0:0:
191,134,28610,1,8,0:0:0:0:
191,134,28943,1,8,0:0:0:0:
191,134,29276,1,8,0:0:0:0:
191,134,29443,1,8,0:0:0:0:
191,134,29610,1,4,0:0:0:0:
180,131,29943,1,8,0:0:0:0:
206,108,30110,1,4,0:0:0:0:
180,130,30610,1,4,0:0:0:0:
180,131,30943,1,4,0:0:0:0:
180,130,31276,1,4,0:0:0:0:
180,130,31443,1,4,0:0:0:0:
180,130,31610,1,4,0:0:0:0:
180,130,33276,1,4,0:0:0:0:
180,130,33610,1,0,0:0:0:0:
180,131,33943,1,8,0:0:0:0:
296,156,34110,1,0,0:0:0:0:
180,130,34276,1,8,0:0:0:0:
180,130,34610,1,0,0:0:0:0:
180,131,34943,1,8,0:0:0:0:
180,130,35110,1,0,0:0:0:0:
180,130,35276,5,8,0:0:0:0:
180,131,35943,1,0,0:0:0:0:
249,183,36276,1,8,0:0:0:0:
180,130,36610,1,8,0:0:0:0:
180,131,36943,1,0,0:0:0:0:
180,130,37276,1,8,0:0:0:0:
180,130,37443,1,8,0:0:0:0:
180,130,37610,1,4,0:0:0:0:
180,131,37943,1,4,0:0:0:0:
180,130,38110,1,4,0:0:0:0:
180,130,38276,1,4,0:0:0:0:
180,130,38610,1,8,0:0:0:0:
180,131,38943,1,0,0:0:0:0:
180,130,39276,1,8,0:0:0:0:
180,130,39610,1,8,0:0:0:0:
180,131,39943,1,0,0:0:0:0:
180,130,40110,1,8,0:0:0:0:
180,130,40276,1,4,0:0:0:0:
142,130,40610,1,8,0:0:0:0:
180,131,40776,1,4,0:0:0:0:
180,130,41276,1,4,0:0:0:0:
180,130,41610,1,4,0:0:0:0:
180,131,41943,1,4,0:0:0:0:
180,130,42110,1,4,0:0:0:0:
274,141,42610,1,0,0:0:0:0:
180,131,42943,1,8,0:0:0:0:
180,130,43110,1,8,0:0:0:0:
180,130,43276,1,0,0:0:0:0:
180,130,43610,1,0,0:0:0:0:
224,164,43943,1,8,0:0:0:0:
202,124,44776,1,8,0:0:0:0:
202,124,44943,1,0,0:0:0:0:
202,124,45110,1,0,0:0:0:0:
202,124,45276,1,8,0:0:0:0:
202,124,45443,1,8,0:0:0:0:
202,124,45776,1,0,0:0:0:0:
252,148,46110,1,0,0:0:0:0:
138,119,47276,1,0,0:0:0:0:
217,110,47610,1,8,0:0:0:0:
217,110,47776,1,0,0:0:0:0:
217,110,47943,1,8,0:0:0:0:
217,110,48110,1,0,0:0:0:0:
217,110,48443,1,0,0:0:0:0:
278,185,48776,1,8,0:0:0:0:
278,185,49776,1,0,0:0:0:0:
154,114,49943,1,0,0:0:0:0:
200,119,50276,1,8,0:0:0:0:
200,119,50443,1,8,0:0:0:0:
200,119,50610,1,0,0:0:0:0:
200,119,50776,1,0,0:0:0:0:
200,119,51110,1,0,0:0:0:0:
200,119,51443,1,8,0:0:0:0:
200,119,51943,1,0,0:0:0:0:
200,119,52443,1,0,0:0:0:0:
182,128,52943,1,8,0:0:0:0:
168,129,54610,5,8,0:0:0:0:
168,129,54943,1,0,0:0:0:0:
168,129,55110,1,0,0:0:0:0:
168,129,55276,1,8,0:0:0:0:
168,129,55943,1,8,0:0:0:0:
168,129,56276,1,0,0:0:0:0:
168,129,56443,1,0,0:0:0:0:
168,129,56610,1,8,0:0:0:0:
191,124,57276,1,0,0:0:0:0:
191,124,57610,1,8,0:0:0:0:
191,124,57776,1,0,0:0:0:0:
191,124,57943,1,8,0:0:0:0:
191,124,58610,1,8,0:0:0:0:
191,124,58943,1,0,0:0:0:0:
191,124,59110,1,0,0:0:0:0:
191,124,59276,1,8,0:0:0:0:
191,124,59943,1,0,0:0:0:0:
191,124,60276,1,8,0:0:0:0:
191,124,60443,1,0,0:0:0:0:
191,124,60610,1,8,0:0:0:0:
191,124,61276,1,8,0:0:0:0:
191,124,61610,1,0,0:0:0:0:
191,124,61776,1,0,0:0:0:0:
191,124,61943,1,8,0:0:0:0:
191,124,62610,1,8,0:0:0:0:
191,124,62943,1,0,0:0:0:0:
191,124,63110,1,0,0:0:0:0:
191,124,63276,1,8,0:0:0:0:
191,124,63943,1,0,0:0:0:0:
191,124,64276,1,8,0:0:0:0:
191,124,64610,1,0,0:0:0:0:
191,124,64776,1,0,0:0:0:0:
191,124,65276,1,4,0:0:0:0:
191,124,65610,1,0,0:0:0:0:
191,124,65943,1,8,0:0:0:0:
191,124,66110,1,0,0:0:0:0:
191,124,66276,1,8,0:0:0:0:
191,124,66610,1,8,0:0:0:0:
191,124,66943,1,0,0:0:0:0:
191,124,67110,1,0,0:0:0:0:
191,124,67276,5,8,0:0:0:0:
191,124,67943,1,0,0:0:0:0:
215,78,68276,1,0,0:0:0:0:
191,124,68610,1,8,0:0:0:0:
191,124,68776,1,8,0:0:0:0:
191,124,68943,1,8,0:0:0:0:
191,124,69276,1,0,0:0:0:0:
191,124,69443,1,8,0:0:0:0:
191,124,69610,1,4,0:0:0:0:
191,124,69943,1,4,0:0:0:0:
191,124,70110,1,4,0:0:0:0:
191,124,70276,1,4,0:0:0:0:
191,124,70610,1,4,0:0:0:0:
191,124,70943,1,0,0:0:0:0:
191,124,71276,1,8,0:0:0:0:
191,124,71443,1,0,0:0:0:0:
191,124,71610,1,8,0:0:0:0:
191,124,71943,1,0,0:0:0:0:
191,124,72110,1,8,0:0:0:0:
191,124,72276,1,4,0:0:0:0:
191,124,72610,1,8,0:0:0:0:
191,124,72776,1,4,0:0:0:0:
191,124,73276,1,4,0:0:0:0:
191,124,73610,1,4,0:0:0:0:
191,124,73943,1,4,0:0:0:0:
191,124,74110,1,4,0:0:0:0:
191,124,74276,1,4,0:0:0:0:
174,97,75943,1,4,0:0:0:0:
174,97,76276,1,0,0:0:0:0:
174,97,76610,1,8,0:0:0:0:
174,97,76776,1,0,0:0:0:0:
174,97,76943,1,8,0:0:0:0:
174,97,77276,1,8,0:0:0:0:
174,97,77610,1,0,0:0:0:0:
174,97,77776,1,0,0:0:0:0:
174,97,77943,5,8,0:0:0:0:
161,100,78610,1,0,0:0:0:0:
234,101,78943,1,0,0:0:0:0:
161,100,79276,1,8,0:0:0:0:
161,100,79443,1,8,0:0:0:0:
161,100,79610,1,8,0:0:0:0:
161,100,79943,1,0,0:0:0:0:
161,100,80110,1,8,0:0:0:0:
161,100,80276,1,4,0:0:0:0:
161,100,80610,1,4,0:0:0:0:
161,100,80776,1,4,0:0:0:0:
161,100,80943,1,4,0:0:0:0:
161,100,81276,1,4,0:0:0:0:
161,100,81610,1,0,0:0:0:0:
161,100,81943,1,8,0:0:0:0:
161,100,82110,1,0,0:0:0:0:
161,100,82276,1,8,0:0:0:0:
161,100,82610,1,0,0:0:0:0:
161,100,82776,1,8,0:0:0:0:
161,100,82943,1,4,0:0:0:0:
161,100,83276,1,8,0:0:0:0:
161,100,83443,1,4,0:0:0:0:
161,100,83943,1,4,0:0:0:0:
161,100,84276,1,4,0:0:0:0:
161,100,84610,1,4,0:0:0:0:
161,100,84776,1,4,0:0:0:0:
161,100,84943,1,4,0:0:0:0:
202,107,86610,1,0,0:0:0:0:
161,100,86943,5,8,0:0:0:0:
161,100,87609,1,8,0:0:0:0:
161,100,88275,1,8,0:0:0:0:
161,100,88942,1,8,0:0:0:0:
232,139,89276,1,0,0:0:0:0:
161,100,89609,1,8,0:0:0:0:
161,100,90275,1,8,0:0:0:0:
161,100,90942,1,8,0:0:0:0:
161,100,91609,1,8,0:0:0:0:
231,138,91943,1,0,0:0:0:0:
143,114,92275,1,8,0:0:0:0:
143,114,92942,1,8,0:0:0:0:
143,114,93609,1,8,0:0:0:0:
143,114,94275,1,8,0:0:0:0:
143,114,94610,1,4,0:0:0:0:
143,114,94943,1,4,0:0:0:0:
143,114,95276,1,4,0:0:0:0:
143,114,95443,1,4,0:0:0:0:
143,114,95610,1,4,0:0:0:0:
143,114,97276,5,0,0:0:0:0:
143,114,97610,1,8,0:0:0:0:
143,114,98276,1,8,0:0:0:0:
143,114,98610,1,8,0:0:0:0:
143,114,98943,1,8,0:0:0:0:
143,114,99276,1,8,0:0:0:0:
143,114,99610,1,8,0:0:0:0:
143,114,99943,1,0,0:0:0:0:
143,114,100276,1,8,0:0:0:0:
143,114,100943,1,8,0:0:0:0:
143,114,101276,1,8,0:0:0:0:
143,114,101610,1,8,0:0:0:0:
143,114,101943,1,8,0:0:0:0:
143,114,102276,1,8,0:0:0:0:
143,114,102610,1,0,0:0:0:0:
143,114,102943,1,8,0:0:0:0:
143,114,103610,1,8,0:0:0:0:
143,114,103943,1,8,0:0:0:0:
143,114,104276,1,8,0:0:0:0:
143,114,104610,1,8,0:0:0:0:
143,114,104943,1,8,0:0:0:0:
143,114,105276,1,4,0:0:0:0:
143,114,105610,1,4,0:0:0:0:
143,114,105943,1,4,0:0:0:0:
143,114,106110,1,4,0:0:0:0:
143,114,106276,1,4,0:0:0:0:
143,114,107610,1,8,0:0:0:0:
143,114,107943,1,4,0:0:0:0:
143,114,108276,1,8,0:0:0:0:
172,134,108610,1,8,0:0:0:0:
172,134,108776,1,0,0:0:0:0:
143,114,108943,1,8,0:0:0:0:
172,134,109276,1,0,0:0:0:0:
143,114,109610,1,8,0:0:0:0:
172,134,109776,1,8,0:0:0:0:
143,114,109943,1,8,0:0:0:0:
272,97,110276,1,8,0:0:0:0:
223,135,110610,1,0,0:0:0:0:
173,108,110943,1,8,0:0:0:0:
260,94,111610,1,8,0:0:0:0:
256,94,111943,1,0,0:0:0:0:
256,94,112110,1,0,0:0:0:0:
256,94,112276,1,8,0:0:0:0:
229,112,112443,1,0,0:0:0:0:
260,94,112610,1,8,0:0:0:0:
256,94,112943,1,8,0:0:0:0:
256,94,113276,1,0,0:0:0:0:
192,129,113610,1,8,0:0:0:0:
192,129,114276,1,8,0:0:0:0:
192,129,114610,1,0,0:0:0:0:
192,129,114776,1,8,0:0:0:0:
192,129,114943,1,0,0:0:0:0:
192,129,115110,1,8,0:0:0:0:
192,129,115276,1,8,0:0:0:0:
192,129,115610,1,8,0:0:0:0:
287,161,115943,1,4,0:0:0:0:
287,161,116276,1,4,0:0:0:0:
287,161,116610,1,4,0:0:0:0:
287,161,116776,1,4,0:0:0:0:
287,161,116943,1,4,0:0:0:0:
159,125,117276,1,0,0:0:0:0:
159,125,117610,1,8,0:0:0:0:
159,125,117776,1,8,0:0:0:0:
159,125,117943,1,0,0:0:0:0:
159,125,118110,1,0,0:0:0:0:
179,134,118276,1,8,0:0:0:0:
179,134,118610,1,0,0:0:0:0:
133,137,118943,1,8,0:0:0:0:
133,137,119276,1,8,0:0:0:0:
133,137,119443,1,0,0:0:0:0:
133,137,119610,1,8,0:0:0:0:
133,137,119776,1,0,0:0:0:0:
133,137,119943,1,0,0:0:0:0:
133,137,120276,1,8,0:0:0:0:
133,137,120610,1,0,0:0:0:0:
133,137,120943,1,8,0:0:0:0:
133,137,121610,1,8,0:0:0:0:
133,137,121943,1,8,0:0:0:0:
133,137,122110,1,0,0:0:0:0:
133,137,122276,1,8,0:0:0:0:
133,137,122443,1,0,0:0:0:0:
133,137,122610,1,0,0:0:0:0:
133,137,122943,1,8,0:0:0:0:
133,137,123276,1,0,0:0:0:0:
150,120,123443,1,0,0:0:0:0:
133,137,123610,1,8,0:0:0:0:
133,137,123943,1,0,0:0:0:0:
133,137,124276,1,8,0:0:0:0:
133,137,124943,1,8,0:0:0:0:
133,137,125276,1,0,0:0:0:0:
133,137,125443,5,0,0:0:0:0:
133,137,125610,1,8,0:0:0:0:
133,137,125776,1,8,0:0:0:0:
133,137,125943,1,0,0:0:0:0:
133,137,126276,1,8,0:0:0:0:
256,191,126610,5,4,0:0:0:0:
256,191,126943,1,4,0:0:0:0:
256,191,127276,1,4,0:0:0:0:
256,191,127443,1,4,0:0:0:0:
256,191,127610,1,4,0:0:0:0:
141,120,127943,1,8,0:0:0:0:
141,120,128276,1,8,0:0:0:0:
141,120,128443,1,0,0:0:0:0:
141,120,128610,1,8,0:0:0:0:
141,120,128776,1,8,0:0:0:0:
141,120,128943,1,8,0:0:0:0:
256,191,129276,1,0,0:0:0:0:
