osu file format v14

[General]
AudioFilename: audio.ogg
AudioLeadIn: 0
PreviewTime: 56012
Countdown: 0
SampleSet: Normal
StackLeniency: 0.7
Mode: 1
LetterboxInBreaks: 0
WidescreenStoryboard: 1

[Editor]
Bookmarks: 28226,56460,84696,112931,127049,155284,183520,211314
DistanceSpacing: 0.3
BeatDivisor: 16
GridSize: 16
TimelineZoom: 3.200005

[Metadata]
Title:Where did you fall
TitleUnicode:Where did you fall
Artist:underscores
ArtistUnicode:underscores
Creator:Ulqui
Version:oni
Source:
Tags:electronic swing hyper pop hyperpop indie english fishmonger gamelan4 garage
BeatmapID:3587165
BeatmapSetID:1414012

[Difficulty]
HPDrainRate:6
CircleSize:2
OverallDifficulty:6
ApproachRate:10
SliderMultiplier:1.3
SliderTickRate:1

[Events]
//Background and Video events
0,0,"8CCKy8m.jpg",0,-100
//Break Periods
2,54697,56003
2,110917,112473
//Storyboard Layer 0 (Background)
//Storyboard Layer 1 (Fail)
//Storyboard Layer 2 (Pass)
//Storyboard Layer 3 (Foreground)
//Storyboard Layer 4 (Overlay)
//Storyboard Sound Samples

[TimingPoints]
28218,441.176470588235,4,1,0,20,1,0
28218,-100,4,1,0,20,0,0
56453,-83.3333333333333,4,1,0,20,0,0
56894,-84.2692337076935,4,1,0,60,0,0
57115,-84.7461967935256,4,1,0,60,0,0
57225,-84.9856174234642,4,1,0,60,0,0
57335,-85.2263946839747,4,1,0,60,0,0
57445,-85.4685401384441,4,1,0,60,0,0
57666,-85.9592154825302,4,1,0,60,0,0
57776,-86.2055490425948,4,1,0,60,0,0
57997,-86.7047479299864,4,1,0,60,0,0
58217,-87.2074636306135,4,1,0,60,0,0
58218,-87.2097620114382,4,1,0,60,0,0
58659,-88.2352941176471,4,1,0,60,0,0
58879,-88.7559680274663,4,1,0,60,0,0
59100,-89.2852324546019,4,1,0,60,0,0
59210,-89.5510270358042,4,1,0,60,0,0
59431,-90.089844813504,4,1,0,60,0,0
59541,-90.3604587657018,4,1,0,60,0,0
59651,-90.63270336894,4,1,0,60,0,0
59762,-90.9090909090909,4,1,0,60,0,0
59982,-91.4618977860085,4,1,0,60,0,0
59983,-91.4644258941898,4,1,0,60,0,0
60203,-92.0254784156653,4,1,0,60,0,0
60423,-92.5905198947898,4,1,0,60,0,0
60644,-93.1666525889011,4,1,0,60,0,0
60754,-93.4560962521535,4,1,0,60,0,0
60865,-93.75,4,1,0,60,0,0
60975,-94.0430853180242,4,1,0,60,0,0
61195,-94.634788079849,4,1,0,60,0,0
61306,-94.9361641084493,4,1,0,60,0,0
61526,-95.5391944564747,4,1,0,60,0,0
61747,-96.1527285407102,4,1,0,60,0,0
61967,-96.7713633970872,4,1,0,60,0,0
61968,-96.7765524907128,4,1,0,60,0,0
62188,-97.4008771671622,4,1,0,60,0,0
62298,-97.7172725393497,4,1,0,60,0,0
62409,-98.0386347475705,4,1,0,60,0,0
62629,-98.681856137421,4,1,0,60,0,0
62850,-99.3365554921798,4,1,0,60,0,0
62960,-99.6656727207012,4,1,0,60,0,0
63070,-99.9969780302801,4,1,0,60,0,1
63291,-83.3333333333333,4,1,0,60,0,0
63953,-84.2692337076935,4,1,0,60,0,0
64173,-84.7440264296873,4,1,0,60,0,0
64284,-84.9856174234642,4,1,0,60,0,0
64394,-85.2263946839747,4,1,0,60,0,0
64504,-85.4685401384441,4,1,0,60,0,0
64725,-85.9592154825302,4,1,0,60,0,0
64835,-86.2055490425948,4,1,0,60,0,0
65056,-86.7047479299864,4,1,0,60,0,0
65276,-87.2074636306135,4,1,0,60,0,0
65277,-87.2097620114382,4,1,0,60,0,0
65717,-88.2329413646908,4,1,0,60,0,0
65718,-88.7559680274663,4,1,0,60,0,0
66159,-89.2852324546019,4,1,0,60,0,0
66269,-89.5510270358042,4,1,0,60,0,0
66490,-90.089844813504,4,1,0,60,0,0
66600,-90.3604587657018,4,1,0,60,0,0
66710,-90.63270336894,4,1,0,60,0,0
66820,-90.9065934065934,4,1,0,60,0,0
67041,-91.4618977860085,4,1,0,60,0,0
67042,-91.4644258941898,4,1,0,60,0,0
67482,-92.5905198947898,4,1,0,60,0,0
67703,-93.1666525889011,4,1,0,60,0,0
67813,-93.4560962521535,4,1,0,60,0,0
67923,-93.7473439669094,4,1,0,60,0,0
68034,-94.0430853180242,4,1,0,60,0,0
68254,-94.634788079849,4,1,0,60,0,0
68365,-94.9361641084493,4,1,0,60,0,0
68585,-95.5391944564747,4,1,0,60,0,0
68806,-96.1527285407102,4,1,0,60,0,0
69026,-96.7713633970872,4,1,0,60,0,0
69247,-97.4008771671622,4,1,0,60,0,0
69357,-97.7172725393497,4,1,0,60,0,0
69467,-98.0357301573193,4,1,0,60,0,0
69468,-98.3591938648118,4,1,0,60,0,0
69688,-99.0066423313985,4,1,0,60,0,0
69909,-99.3365554921798,4,1,0,60,0,0
70129,-99.9969780302801,4,1,0,60,0,0
70570,-83.3333333333333,4,1,0,60,0,0
70571,-83.3333333333333,4,1,0,60,0,0
71012,-84.2692337076935,4,1,0,60,0,0
71232,-84.7440264296873,4,1,0,60,0,0
71453,-85.2263946839747,4,1,0,60,0,0
71563,-85.4685401384441,4,1,0,60,0,0
71673,-85.7120654820494,4,1,0,60,0,0
71784,-85.9592154825302,4,1,0,60,0,0
71894,-86.2055490425948,4,1,0,60,0,0
72115,-86.7047479299864,4,1,0,60,0,0
72335,-87.2074636306135,4,1,0,60,0,0
72336,-87.2097620114382,4,1,0,60,0,0
72776,-88.2329413646908,4,1,0,60,0,0
72997,-88.7559680274663,4,1,0,60,0,0
73218,-89.2852324546019,4,1,0,60,0,0
73328,-89.5510270358042,4,1,0,60,0,0
73438,-89.8184088379794,4,1,0,60,0,0
73548,-90.0873921210966,4,1,0,60,0,0
73659,-90.3604587657018,4,1,0,60,0,0
73879,-90.9065934065934,4,1,0,60,0,0
74100,-91.4618977860085,4,1,0,60,0,0
74320,-92.0240280327048,4,1,0,60,0,0
74541,-92.5905198947898,4,1,0,60,0,0
74762,-93.1666525889011,4,1,0,60,0,0
74872,-93.4560962521535,4,1,0,60,0,0
74982,-93.7473439669094,4,1,0,60,0,0
75093,-94.0430853180242,4,1,0,60,0,0
75313,-94.634788079849,4,1,0,60,0,0
75423,-94.9334404406702,4,1,0,60,0,0
75644,-95.5391944564747,4,1,0,60,0,0
75865,-96.1527285407102,4,1,0,60,0,0
76085,-96.7713633970872,4,1,0,60,0,0
76306,-97.4008771671622,4,1,0,60,0,0
76526,-98.0357301573193,4,1,0,60,0,0
76637,-98.3591938648118,4,1,0,60,0,0
76747,-98.681856137421,4,1,0,60,0,0
76857,-99.0066423313985,4,1,0,60,0,0
76968,-99.6656727207012,4,1,0,60,0,0
77188,-99.9969780302801,4,1,0,60,0,1
77409,-83.3333333333333,4,1,0,60,0,0
78070,-83.3333333333333,4,1,0,60,0,0
78291,-83.8310348572049,4,1,0,60,0,0
78401,-84.0821216576812,4,1,0,60,0,0
78512,-84.3370203468524,4,1,0,60,0,0
78622,-84.5911518970004,4,1,0,60,0,0
78843,-85.1063829787234,4,1,0,60,0,0
78953,-85.3651794106264,4,1,0,60,0,0
79173,-85.8899118293327,4,1,0,60,0,0
79394,-86.4187165925055,4,1,0,60,0,0
79835,-87.4985832483282,4,1,0,60,0,0
80056,-88.0499558039406,4,1,0,60,0,0
80166,-88.3269929349847,4,1,0,60,0,0
80276,-88.6057788872629,4,1,0,60,0,0
80387,-88.8888888888889,4,1,0,60,0,0
80607,-89.4553881807648,4,1,0,60,0,0
80718,-89.7439623354355,4,1,0,60,0,0
80938,-90.3214484190822,4,1,0,60,0,0
81159,-90.9090909090909,4,1,0,60,0,0
81600,-92.1048707012259,4,1,0,60,0,0
81821,-92.7160271422566,4,1,0,60,0,0
82041,-93.332527352959,4,1,0,60,0,0
82152,-93.6467020470053,4,1,0,60,0,0
82262,-93.9601399665298,4,1,0,60,0,0
82372,-94.2756831018165,4,1,0,60,0,0
82482,-94.5933527339562,4,1,0,60,0,0
82703,-95.2380952380952,4,1,0,60,0,0
82923,-95.8916871098966,4,1,0,60,0,0
83144,-96.5512928743395,4,1,0,60,0,0
83365,-97.2230967823185,4,1,0,60,0,0
83585,-97.9012110836345,4,1,0,60,0,0
83806,-98.5919989783212,4,1,0,60,0,0
83916,-98.9394764666304,4,1,0,60,0,0
84026,-99.2894119160156,4,1,0,60,0,0
84137,-99.6450467892869,4,1,0,60,0,0
84247,-100,4,1,0,60,0,0
84688,-71.4285714285714,4,1,0,60,0,0
84689,-71.4285714285714,4,1,0,60,0,0
85129,-72.8119016703713,4,1,0,60,0,0
85350,-73.5271240304909,4,1,0,60,0,0
85460,-73.8883801951895,4,1,0,60,0,0
85570,-74.2532037614741,4,1,0,60,0,0
85681,-74.6250140972144,4,1,0,60,0,0
85901,-75.3730493222463,4,1,0,60,0,0
86012,-75.7561880337966,4,1,0,60,0,0
86232,-76.5271898781024,4,1,0,60,0,0
86453,-77.3176602556613,4,1,0,60,0,0
86894,-78.9448567133551,4,1,0,60,0,0
87115,-79.7863361227,4,1,0,60,0,0
87225,-80.211894198366,4,1,0,60,0,0
87335,-80.6420162332123,4,1,0,60,0,0
87445,-81.0767760433259,4,1,0,60,0,0
87556,-81.520266108168,4,1,0,60,0,0
87666,-81.9668070349269,4,1,0,60,0,0
87776,-82.4137501556856,4,1,0,60,0,0
87887,-82.8720286551612,4,1,0,60,0,0
87997,-83.3312344155353,4,1,0,60,0,0
88218,-84.2693767351825,4,1,0,60,0,0
88659,-86.2059980718622,4,1,0,60,0,0
88879,-87.2057776957748,4,1,0,60,0,0
88990,-87.7190656733038,4,1,0,60,0,0
89100,-88.2337253646959,4,1,0,60,0,0
89210,-88.754459854602,4,1,0,60,0,0
89431,-89.8194651825709,4,1,0,60,0,0
89541,-90.3591424279667,4,1,0,60,0,0
89762,-91.4632460675089,4,1,0,60,0,0
89982,-92.5894831108499,4,1,0,60,0,0
89983,-92.5946656964541,4,1,0,60,0,0
90203,-93.75,4,1,0,60,0,0
90423,-94.9327135519784,4,1,0,60,0,0
90644,-96.1521694905403,4,1,0,60,0,0
90754,-96.770891222323,4,1,0,60,0,0
90865,-97.4033620867312,4,1,0,60,0,0
90975,-98.0383441491096,4,1,0,60,0,0
91085,-98.6816595579682,4,1,0,60,0,0
91306,-100,4,1,0,60,0,1
91526,-71.4285714285714,4,1,0,60,0,0
91719,-71.4285714285714,4,1,0,70,0,0
91747,-66.6666666666667,4,1,0,70,0,0
92188,-67.8727462925358,4,1,0,70,0,0
92409,-68.4937177868394,4,1,0,70,0,0
92519,-68.8070532947953,4,1,0,70,0,0
92629,-69.1232687848593,4,1,0,70,0,0
92740,-69.4453188944154,4,1,0,70,0,0
92960,-70.0925670952573,4,1,0,70,0,0
93070,-70.4237342243599,4,1,0,70,0,0
93291,-71.0894364835543,4,1,0,70,0,0
93512,-71.7709575967899,4,1,0,70,0,0
93953,-73.1707317073171,4,1,0,70,0,0
94174,-73.8929456689221,4,1,0,70,0,0
94284,-74.2577590269518,4,1,0,70,0,0
94394,-74.6261924629575,4,1,0,70,0,0
94504,-74.9983001291902,4,1,0,70,0,0
94615,-75.3775712430807,4,1,0,70,0,0
94725,-75.7572288742874,4,1,0,70,0,0
94835,-76.1407303435422,4,1,0,70,0,0
95056,-76.9230769230769,4,1,0,70,0,0
95276,-77.7216676453318,4,1,0,70,0,0
95718,-79.3658407886216,4,1,0,70,0,0
95938,-80.2123481928587,4,1,0,70,0,0
96049,-80.6463405717628,4,1,0,70,0,0
96159,-81.0810810810811,4,1,0,70,0,0
96269,-81.5205341085462,4,1,0,70,0,0
96490,-82.4179929761638,4,1,0,70,0,0
96600,-82.8720979739037,4,1,0,70,0,0
96820,-83.7997315572214,4,1,0,70,0,0
97041,-84.7440264296873,4,1,0,70,0,0
97042,-84.7483672685363,4,1,0,70,0,0
97482,-86.702476090659,4,1,0,70,0,0
97703,-87.7183681043395,4,1,0,70,0,0
97813,-88.2329413646908,4,1,0,70,0,0
97923,-88.7583487567394,4,1,0,70,0,0
98034,-89.2852324546019,4,1,0,70,0,0
98144,-89.8184088379794,4,1,0,70,0,0
98365,-90.9090909090909,4,1,0,70,0,0
98769,-62.5,4,1,0,80,0,0
98806,-62.5,4,1,0,80,0,1
98916,-62.7607920491617,4,1,0,80,0,1
99026,-63.023769617553,4,1,0,80,0,1
99247,-63.5588336982828,4,1,0,80,0,1
99467,-64.1005772732556,4,1,0,80,0,1
99578,-64.3774319066148,4,1,0,80,0,1
99688,-64.6541617819461,4,1,0,80,0,1
99798,-64.9332810047096,4,1,0,80,0,1
100019,-65.5014054396453,4,1,0,80,0,1
100129,-65.787904091614,4,1,0,80,0,1
100240,-66.0795590702133,4,1,0,80,0,1
100350,-66.3711489088575,4,1,0,80,0,1
100570,-66.9621175327829,4,1,0,80,0,1
100571,-66.9648277816003,4,1,0,80,0,1
100791,-67.5664638379548,4,1,0,80,0,1
100901,-67.8713541453009,4,1,0,80,0,1
101012,-68.1818181818182,4,1,0,80,0,1
101232,-68.8056225567662,4,1,0,80,0,1
101342,-69.1218248663102,4,1,0,80,0,1
101453,-69.4438614900315,4,1,0,80,0,1
101563,-69.7659709044908,4,1,0,80,0,1
101784,-70.4222354643739,4,1,0,80,0,1
101894,-70.7535066712282,4,1,0,80,0,1
102004,-71.0879092549626,4,1,0,80,0,1
102115,-71.4285714285714,4,1,0,80,0,1
102335,-72.1134986706185,4,1,0,80,0,1
102336,-72.1166419666986,4,1,0,80,0,1
102556,-72.8148930551888,4,1,0,80,0,1
102666,-73.1691137449142,4,1,0,80,0,1
102776,-73.5267976179895,4,1,0,80,0,1
102997,-74.2560926349805,4,1,0,80,0,1
103107,-74.6245094943846,4,1,0,80,0,1
103217,-74.9966003354336,4,1,0,80,0,1
103328,-75.375854214123,4,1,0,80,0,1
103548,-76.1389783709158,4,1,0,80,0,1
103659,-76.5299042508904,4,1,0,80,0,1
103769,-76.9212887628435,4,1,0,80,0,1
103879,-77.3166970419178,4,1,0,80,0,1
104100,-78.1235244121258,4,1,0,80,0,1
104320,-78.9436014886917,4,1,0,80,0,1
104431,-79.3639372571593,4,1,0,80,0,1
104541,-79.7849254954912,4,1,0,80,0,1
104651,-80.2104038396277,4,1,0,80,0,1
104762,-81.0790943840047,4,1,0,80,0,1
104982,-81.5185258178952,4,1,0,80,0,1
105092,-81.9627464579412,4,1,0,80,0,1
105203,-82.4159402241594,4,1,0,80,0,1
105423,-83.3291362377235,4,1,0,80,0,0
105644,-66.6666666666667,4,1,0,80,0,1
105837,-66.6666666666667,4,1,0,90,0,1
105975,-66.5660791440916,4,1,0,90,0,1
106085,-66.4657946997192,4,1,0,90,0,1
106195,-66.365811965812,4,1,0,90,0,1
106306,-66.2652247528538,4,1,0,90,0,1
106526,-66.0667610542366,4,1,0,90,0,1
106637,-65.9670776299156,4,1,0,90,0,1
106747,-65.7703931586865,4,1,0,90,0,1
107078,-65.5739920008648,4,1,0,90,0,1
107188,-65.4766723333064,4,1,0,90,0,1
107298,-65.3796411057822,4,1,0,90,0,1
107409,-65.2820188595488,4,1,0,90,0,1
107629,-65.0893922933516,4,1,0,90,0,1
107630,-65.0885193133047,4,1,0,90,0,1
107740,-64.9926342573992,4,1,0,90,0,1
107850,-64.8970312917892,4,1,0,90,0,1
107960,-64.8017091734544,4,1,0,90,0,1
108070,-64.7066666666667,4,1,0,90,0,1
108291,-64.516557876125,4,1,0,90,0,1
108401,-64.4223493648033,4,1,0,90,0,1
108512,-64.2339051249471,4,1,0,90,0,1
108842,-64.0474053740168,4,1,0,90,0,1
108953,-63.9537182241082,4,1,0,90,0,1
109063,-63.8611451054702,4,1,0,90,0,1
109173,-63.7688395989646,4,1,0,90,0,1
109394,-63.5841937005398,4,1,0,90,0,1
109504,-63.4926865007719,4,1,0,90,0,1
109615,-63.400614017898,4,1,0,90,0,1
109725,-63.3096340747505,4,1,0,90,0,1
109835,-63.218914870058,4,1,0,90,0,1
110056,-63.0374353778609,4,1,0,90,0,1
110166,-62.9474940334129,4,1,0,90,0,1
110276,-62.8578089785768,4,1,0,90,0,1
110387,-62.7675672879186,4,1,0,90,0,1
110497,-62.5894734126933,4,1,0,30,0,1
110717,-100,4,1,0,30,0,0
112445,-100,4,1,0,10,0,0
112887,-90.9090909090909,4,1,0,30,0,0
112923,-90.9090909090909,4,1,0,30,0,0
119955,-90.9090909090909,4,1,0,5,0,0
121692,-100,4,1,0,5,0,0
123456,-111.111111111111,4,1,0,5,0,0
125221,-125,4,1,0,5,0,0
126085,-111.111111111111,4,1,0,5,0,0
126131,-111.111111111111,4,1,0,40,0,0
126324,-105.263157894737,4,1,0,40,0,0
126545,-100,4,1,0,40,0,0
126765,-95.2380952380952,4,1,0,40,0,0
127041,-90.9090909090909,4,1,0,40,0,1
127262,-90.9090909090909,4,1,0,40,0,0
130570,-90.9090909090909,4,1,0,40,0,1
130791,-90.9090909090909,4,1,0,40,0,0
131453,-83.3333333333333,4,1,0,40,0,1
131673,-90.9090909090909,4,1,0,40,0,0
134100,-90.9090909090909,4,1,0,40,0,1
134320,-90.9090909090909,4,1,0,40,0,0
137629,-90.9090909090909,4,1,0,40,0,1
137850,-90.9090909090909,4,1,0,40,0,0
138512,-83.3333333333333,4,1,0,40,0,1
138732,-90.9090909090909,4,1,0,40,0,0
141159,-90.9090909090909,4,1,0,40,0,1
141379,-90.9090909090909,4,1,0,40,0,0
144688,-90.9090909090909,4,1,0,40,0,1
144909,-90.9090909090909,4,1,0,40,0,0
145570,-83.3333333333333,4,1,0,40,0,1
145791,-90.9090909090909,4,1,0,40,0,0
148217,-90.9090909090909,4,1,0,40,0,1
148438,-90.9090909090909,4,1,0,40,0,0
151747,-90.9090909090909,4,1,0,40,0,1
151967,-90.9090909090909,4,1,0,40,0,0
152629,-83.3333333333333,4,1,0,40,0,1
152850,-90.9090909090909,4,1,0,40,0,0
155276,-66.6666666666667,4,1,0,40,0,1
155331,-90.9090909090909,4,1,0,40,0,1
155497,-90.9090909090909,4,1,0,40,0,0
158806,-66.6666666666667,4,1,0,40,0,1
159026,-90.9090909090909,4,1,0,40,0,0
159688,-66.6666666666667,4,1,0,40,0,1
159909,-90.9090909090909,4,1,0,40,0,0
162335,-66.6666666666667,4,1,0,40,0,1
162556,-90.9090909090909,4,1,0,40,0,0
165865,-66.6666666666667,4,1,0,40,0,1
166085,-90.9090909090909,4,1,0,40,0,0
166747,-66.6666666666667,4,1,0,40,0,1
166967,-90.9090909090909,4,1,0,40,0,0
169394,-66.6666666666667,4,1,0,40,0,1
169615,-90.9090909090909,4,1,0,40,0,0
172923,-66.6666666666667,4,1,0,40,0,1
173144,-90.9090909090909,4,1,0,40,0,0
173806,-66.6666666666667,4,1,0,40,0,1
174026,-90.9090909090909,4,1,0,40,0,0
176453,-66.6666666666667,4,1,0,40,0,1
176673,-90.9090909090909,4,1,0,40,0,0
179982,-66.6666666666667,4,1,0,40,0,1
180203,-90.9090909090909,4,1,0,40,0,0
180865,-66.6666666666667,4,1,0,40,0,1
181085,-90.9090909090909,4,1,0,40,0,0

[HitObjects]
141,242,28218,5,0,0:0:0:0:
141,242,28659,1,2,0:0:0:0:
141,242,29100,1,0,0:0:0:0:
141,242,29431,1,2,0:0:0:0:
175,237,29982,1,0,0:0:0:0:
212,134,30203,1,2,0:0:0:0:
212,134,30423,1,0,0:0:0:0:
216,112,30644,1,0,0:0:0:0:
207,139,30865,1,2,0:0:0:0:
207,139,31085,1,2,0:0:0:0:
207,139,31306,1,2,0:0:0:0:
175,237,31747,1,0,0:0:0:0:
175,237,32188,1,2,0:0:0:0:
175,237,32629,1,0,0:0:0:0:
175,237,32960,1,2,0:0:0:0:
234,117,33512,1,0,0:0:0:0:
209,115,33732,1,2,0:0:0:0:
209,115,33953,1,2,0:0:0:0:
221,117,34173,1,0,0:0:0:0:
218,137,34394,1,2,0:0:0:0:
218,139,34615,1,0,0:0:0:0:
216,140,34835,1,2,0:0:0:0:
201,148,35276,1,0,0:0:0:0:
201,148,35718,1,2,0:0:0:0:
201,148,36159,1,0,0:0:0:0:
201,148,36490,1,2,0:0:0:0:
201,148,37041,1,0,0:0:0:0:
197,124,37262,1,2,0:0:0:0:
196,127,37482,1,0,0:0:0:0:
211,92,37703,1,0,0:0:0:0:
209,145,37923,1,2,0:0:0:0:
209,145,38144,1,2,0:0:0:0:
209,145,38365,1,2,0:0:0:0:
208,149,38806,1,0,0:0:0:0:
208,149,39247,1,2,0:0:0:0:
208,149,39688,1,0,0:0:0:0:
208,149,40019,1,2,0:0:0:0:
208,149,40570,1,0,0:0:0:0:
216,146,40791,1,2,0:0:0:0:
216,148,41012,1,0,0:0:0:0:
172,96,41232,1,0,0:0:0:0:
208,149,41453,1,2,0:0:0:0:
216,146,41673,1,0,0:0:0:0:
216,148,41894,1,2,0:0:0:0:
212,155,42335,1,0,0:0:0:0:
212,155,42776,1,2,0:0:0:0:
212,155,43218,1,0,0:0:0:0:
212,155,43548,1,2,0:0:0:0:
212,155,43879,1,2,0:0:0:0:
229,98,43990,1,0,0:0:0:0:
212,155,44100,1,2,0:0:0:0:
222,150,44320,1,0,0:0:0:0:
229,98,44431,1,0,0:0:0:0:
212,155,44541,1,2,0:0:0:0:
222,152,44762,1,0,0:0:0:0:
250,92,44872,1,2,0:0:0:0:
212,155,44982,1,2,0:0:0:0:
222,150,45203,1,0,0:0:0:0:
248,95,45313,1,0,0:0:0:0:
212,155,45423,1,2,0:0:0:0:
212,155,45865,1,0,0:0:0:0:
240,153,46306,1,2,0:0:0:0:
238,155,46747,1,0,0:0:0:0:
240,153,47078,1,2,0:0:0:0:
238,155,47629,1,0,0:0:0:0:
191,158,49394,1,0,0:0:0:0:
191,158,49835,1,2,0:0:0:0:
191,158,50276,1,0,0:0:0:0:
191,158,50607,1,2,0:0:0:0:
191,158,50938,1,2,0:0:0:0:
223,62,51048,1,0,0:0:0:0:
191,158,51159,1,2,0:0:0:0:
229,141,51379,1,0,0:0:0:0:
201,77,51490,1,2,0:0:0:0:
191,158,51600,1,2,0:0:0:0:
201,78,51710,1,0,0:0:0:0:
191,158,51820,1,2,0:0:0:0:
229,141,52041,1,0,0:0:0:0:
218,75,52151,1,0,0:0:0:0:
191,158,52262,1,2,0:0:0:0:
191,158,52482,1,2,0:0:0:0:
199,59,52923,1,0,0:0:0:0:
198,79,53365,1,2,0:0:0:0:
197,79,53585,1,2,0:0:0:0:
197,80,53806,1,0,0:0:0:0:
218,75,53916,1,2,0:0:0:0:
198,79,54137,1,2,0:0:0:0:
197,79,54468,1,2,0:0:0:0:
186,122,56453,5,0,0:0:0:0:
164,158,56894,1,2,0:0:0:0:
235,53,57115,1,0,0:0:0:0:
226,63,57225,1,2,0:0:0:0:
161,96,57335,1,2,0:0:0:0:
161,95,57445,1,0,0:0:0:0:
225,172,57666,1,2,0:0:0:0:
222,172,57776,1,2,0:0:0:0:
196,167,57997,1,2,0:0:0:0:
185,107,58217,1,0,0:0:0:0:
148,86,58659,1,2,0:0:0:0:
191,80,58879,1,0,0:0:0:0:
190,82,59100,1,2,0:0:0:0:
191,80,59210,1,2,0:0:0:0:
191,80,59431,1,2,0:0:0:0:
191,80,59541,1,0,0:0:0:0:
216,23,59651,1,0,0:0:0:0:
211,72,59762,1,2,0:0:0:0:
210,74,59982,1,0,0:0:0:0:
197,115,60423,1,2,0:0:0:0:
204,94,60644,1,0,0:0:0:0:
201,94,60754,1,2,0:0:0:0:
171,143,60865,1,2,0:0:0:0:
171,143,60975,1,0,0:0:0:0:
171,143,61195,1,2,0:0:0:0:
171,143,61306,1,2,0:0:0:0:
199,123,61526,1,2,0:0:0:0:
198,125,61747,1,0,0:0:0:0:
201,88,61967,1,2,0:0:0:0:
201,90,62188,1,2,0:0:0:0:
221,91,62298,1,0,0:0:0:0:
201,90,62409,1,0,0:0:0:0:
201,92,62629,1,2,0:0:0:0:
221,91,62850,1,0,0:0:0:0:
214,57,62960,1,0,0:0:0:0:
221,91,63070,1,2,0:0:0:0:
186,122,63512,5,0,0:0:0:0:
164,158,63953,1,2,0:0:0:0:
235,53,64173,1,2,0:0:0:0:
226,63,64284,1,0,0:0:0:0:
161,96,64394,1,2,0:0:0:0:
161,95,64504,1,0,0:0:0:0:
225,172,64725,1,2,0:0:0:0:
222,172,64835,1,2,0:0:0:0:
196,167,65056,1,2,0:0:0:0:
185,107,65276,1,0,0:0:0:0:
148,86,65717,1,2,0:0:0:0:
191,80,65938,1,0,0:0:0:0:
190,82,66159,1,2,0:0:0:0:
191,80,66269,1,2,0:0:0:0:
191,80,66490,1,0,0:0:0:0:
191,80,66600,1,2,0:0:0:0:
216,23,66710,1,0,0:0:0:0:
211,72,66820,1,2,0:0:0:0:
210,74,67041,1,0,0:0:0:0:
197,115,67482,1,2,0:0:0:0:
204,94,67703,1,2,0:0:0:0:
201,94,67813,1,0,0:0:0:0:
171,143,67923,1,2,0:0:0:0:
171,143,68034,1,0,0:0:0:0:
171,143,68254,1,2,0:0:0:0:
171,143,68365,1,2,0:0:0:0:
199,123,68585,1,2,0:0:0:0:
198,125,68806,1,0,0:0:0:0:
201,88,69026,1,2,0:0:0:0:
201,90,69247,1,2,0:0:0:0:
221,91,69357,1,0,0:0:0:0:
201,90,69467,1,0,0:0:0:0:
201,92,69688,1,2,0:0:0:0:
201,64,69798,1,0,0:0:0:0:
231,57,69909,1,2,0:0:0:0:
212,201,70570,1,0,0:0:0:0:
207,211,71012,1,2,0:0:0:0:
212,201,71232,1,0,0:0:0:0:
212,201,71453,1,2,0:0:0:0:
187,74,71563,1,0,0:0:0:0:
215,86,71673,1,0,0:0:0:0:
215,86,71784,1,2,0:0:0:0:
215,86,71894,1,2,0:0:0:0:
236,116,72115,1,2,0:0:0:0:
187,151,72335,1,0,0:0:0:0:
191,136,72776,1,2,0:0:0:0:
191,137,72997,1,0,0:0:0:0:
191,137,73218,1,2,0:0:0:0:
192,133,73328,1,2,0:0:0:0:
192,133,73438,1,0,0:0:0:0:
191,136,73548,1,2,0:0:0:0:
202,112,73659,1,2,0:0:0:0:
226,57,73879,1,2,0:0:0:0:
176,110,74100,1,0,0:0:0:0:
197,127,74541,1,2,0:0:0:0:
197,127,74762,1,0,0:0:0:0:
218,120,74872,1,2,0:0:0:0:
206,126,74982,1,2,0:0:0:0:
207,128,75093,1,0,0:0:0:0:
209,128,75313,1,2,0:0:0:0:
214,128,75423,1,2,0:0:0:0:
217,133,75644,1,2,0:0:0:0:
217,133,75865,1,0,0:0:0:0:
174,52,76085,1,2,0:0:0:0:
174,52,76306,1,2,0:0:0:0:
183,47,76416,1,0,0:0:0:0:
174,52,76526,1,2,0:0:0:0:
181,51,76747,1,0,0:0:0:0:
181,51,76857,1,2,0:0:0:0:
232,32,76968,1,0,0:0:0:0:
181,51,77188,1,2,0:0:0:0:
212,201,77629,1,0,0:0:0:0:
207,211,78071,1,2,0:0:0:0:
212,201,78291,1,0,0:0:0:0:
235,77,78401,1,0,0:0:0:0:
212,201,78512,1,2,0:0:0:0:
187,74,78622,1,0,0:0:0:0:
215,86,78843,1,2,0:0:0:0:
215,86,78953,1,2,0:0:0:0:
236,116,79174,1,2,0:0:0:0:
187,151,79394,1,0,0:0:0:0:
191,136,79835,1,2,0:0:0:0:
191,137,80056,1,2,0:0:0:0:
216,34,80166,1,2,0:0:0:0:
191,137,80276,1,0,0:0:0:0:
192,133,80387,1,2,0:0:0:0:
191,136,80607,1,2,0:0:0:0:
202,112,80718,1,2,0:0:0:0:
226,57,80938,1,2,0:0:0:0:
176,110,81159,1,0,0:0:0:0:
197,127,81600,1,2,0:0:0:0:
197,127,81821,1,0,0:0:0:0:
206,126,82041,1,2,0:0:0:0:
207,128,82152,1,0,0:0:0:0:
218,120,82262,1,2,0:0:0:0:
209,128,82372,1,2,0:0:0:0:
214,128,82482,1,0,0:0:0:0:
217,133,82703,1,2,0:0:0:0:
217,133,82924,1,0,0:0:0:0:
216,84,83034,1,2,0:0:0:0:
174,52,83144,1,0,0:0:0:0:
174,52,83365,1,2,0:0:0:0:
174,52,83585,1,2,0:0:0:0:
181,51,83806,1,0,0:0:0:0:
181,51,83916,1,2,0:0:0:0:
183,47,84026,1,0,0:0:0:0:
181,51,84137,1,0,0:0:0:0:
181,51,84247,1,2,0:0:0:0:
202,211,84688,1,0,0:0:0:0:
202,211,85129,1,2,0:0:0:0:
202,211,85350,1,2,0:0:0:0:
202,211,85460,1,0,0:0:0:0:
202,211,85570,1,0,0:0:0:0:
216,202,85681,1,2,0:0:0:0:
185,86,85901,1,0,0:0:0:0:
166,97,86012,1,2,0:0:0:0:
188,73,86232,1,2,0:0:0:0:
189,76,86453,1,0,0:0:0:0:
195,62,86894,1,2,0:0:0:0:
184,87,87115,1,0,0:0:0:0:
188,104,87225,1,0,0:0:0:0:
184,88,87335,1,2,0:0:0:0:
184,88,87445,1,2,0:0:0:0:
165,77,87556,1,0,0:0:0:0:
166,80,87776,1,2,0:0:0:0:
166,80,87887,1,0,0:0:0:0:
166,81,87997,1,2,0:0:0:0:
226,30,88218,1,0,0:0:0:0:
200,119,88659,1,2,0:0:0:0:
200,119,88879,1,0,0:0:0:0:
200,119,88990,1,2,0:0:0:0:
200,119,89100,1,2,0:0:0:0:
193,121,89210,1,0,0:0:0:0:
200,119,89431,1,2,0:0:0:0:
200,119,89541,1,2,0:0:0:0:
202,127,89762,1,2,0:0:0:0:
206,127,89982,1,0,0:0:0:0:
187,99,90423,1,2,0:0:0:0:
191,98,90644,1,2,0:0:0:0:
191,99,90754,1,2,0:0:0:0:
192,102,90865,1,0,0:0:0:0:
187,99,90975,1,0,0:0:0:0:
191,106,91085,1,2,0:0:0:0:
216,77,91306,1,2,0:0:0:0:
202,211,91747,1,0,0:0:0:0:
202,211,92188,1,2,0:0:0:0:
202,211,92409,1,2,0:0:0:0:
202,211,92519,1,0,0:0:0:0:
202,211,92629,1,0,0:0:0:0:
216,202,92740,1,2,0:0:0:0:
185,86,92960,1,0,0:0:0:0:
166,97,93071,1,2,0:0:0:0:
188,73,93291,1,2,0:0:0:0:
189,76,93512,1,0,0:0:0:0:
195,62,93953,1,2,0:0:0:0:
184,87,94174,1,2,0:0:0:0:
188,104,94284,1,0,0:0:0:0:
184,88,94394,1,0,0:0:0:0:
184,88,94504,1,2,0:0:0:0:
165,77,94615,1,0,0:0:0:0:
166,80,94835,1,2,0:0:0:0:
166,81,95056,1,2,0:0:0:0:
225,30,95277,1,0,0:0:0:0:
200,119,95718,1,2,0:0:0:0:
200,119,95938,1,0,0:0:0:0:
200,119,96049,1,2,0:0:0:0:
200,119,96159,1,2,0:0:0:0:
193,121,96269,1,0,0:0:0:0:
200,119,96490,1,2,0:0:0:0:
200,119,96600,1,2,0:0:0:0:
202,127,96821,1,2,0:0:0:0:
206,127,97041,1,0,0:0:0:0:
187,99,97482,1,2,0:0:0:0:
191,98,97703,1,0,0:0:0:0:
191,99,97813,1,2,0:0:0:0:
192,102,97924,1,0,0:0:0:0:
187,99,98034,1,0,0:0:0:0:
191,106,98144,1,2,0:0:0:0:
216,77,98365,1,2,0:0:0:0:
237,103,98806,1,2,0:0:0:0:
241,115,98916,1,0,0:0:0:0:
238,103,99026,1,0,0:0:0:0:
207,117,99247,1,2,0:0:0:0:
217,117,99467,1,0,0:0:0:0:
217,117,99578,1,0,0:0:0:0:
217,117,99688,1,2,0:0:0:0:
217,117,99798,1,0,0:0:0:0:
248,122,100019,1,2,0:0:0:0:
246,120,100129,1,0,0:0:0:0:
247,117,100240,1,0,0:0:0:0:
239,118,100350,1,2,0:0:0:0:
187,101,100570,1,2,0:0:0:0:
187,101,100791,1,0,0:0:0:0:
203,99,100901,1,0,0:0:0:0:
191,69,101012,1,2,0:0:0:0:
211,117,101232,1,0,0:0:0:0:
211,112,101342,1,2,0:0:0:0:
211,112,101453,1,2,0:0:0:0:
211,112,101563,1,0,0:0:0:0:
217,86,101784,1,2,0:0:0:0:
215,86,101894,1,2,0:0:0:0:
215,86,102004,1,0,0:0:0:0:
215,85,102115,1,2,0:0:0:0:
193,100,102335,1,2,0:0:0:0:
193,100,102556,1,0,0:0:0:0:
193,100,102666,1,0,0:0:0:0:
193,100,102776,1,2,0:0:0:0:
214,64,102997,1,0,0:0:0:0:
204,64,103107,1,2,0:0:0:0:
203,64,103217,1,2,0:0:0:0:
201,64,103328,1,0,0:0:0:0:
226,81,103548,1,2,0:0:0:0:
226,81,103659,1,0,0:0:0:0:
221,81,103769,1,0,0:0:0:0:
221,82,103879,1,2,0:0:0:0:
226,77,104100,1,2,0:0:0:0:
226,81,104320,1,0,0:0:0:0:
226,81,104431,1,0,0:0:0:0:
216,72,104541,1,2,0:0:0:0:
224,73,104651,1,2,0:0:0:0:
226,77,104872,1,2,0:0:0:0:
220,72,104982,1,0,0:0:0:0:
217,43,105092,1,0,0:0:0:0:
191,47,105203,1,0,0:0:0:0:
224,104,105423,1,2,0:0:0:0:
235,126,105865,1,2,0:0:0:0:
241,75,105975,1,2,0:0:0:0:
204,77,106085,1,0,0:0:0:0:
200,78,106195,1,0,0:0:0:0:
184,146,106306,1,2,0:0:0:0:
184,146,106526,1,0,0:0:0:0:
184,146,106637,1,2,0:0:0:0:
184,146,106857,1,2,0:0:0:0:
191,152,107078,1,2,0:0:0:0:
213,87,107188,1,2,0:0:0:0:
203,154,107298,1,0,0:0:0:0:
213,87,107409,1,2,0:0:0:0:
208,102,107629,1,2,0:0:0:0:
245,76,107740,1,2,0:0:0:0:
207,102,107850,1,0,0:0:0:0:
213,87,107960,1,0,0:0:0:0:
212,94,108070,1,2,0:0:0:0:
231,95,108291,1,0,0:0:0:0:
229,98,108401,1,2,0:0:0:0:
229,100,108622,1,2,0:0:0:0:
231,105,108842,1,2,0:0:0:0:
231,105,108953,1,2,0:0:0:0:
231,105,109063,1,0,0:0:0:0:
231,105,109173,1,2,0:0:0:0:
215,112,109394,1,2,0:0:0:0:
215,112,109504,1,2,0:0:0:0:
215,113,109615,1,2,0:0:0:0:
212,113,109725,1,0,0:0:0:0:
212,113,109835,1,2,0:0:0:0:
201,102,110056,1,0,0:0:0:0:
201,102,110166,1,2,0:0:0:0:
183,64,110276,1,2,0:0:0:0:
172,81,110387,1,2,0:0:0:0:
171,112,110607,2,0,L|228:110,1,51.9256642788294
158,111,112923,5,0,0:0:0:0:
224,122,113034,1,0,0:0:0:0:
148,132,113365,1,2,0:0:0:0:
148,132,113806,1,0,0:0:0:0:
198,191,113916,1,0,0:0:0:0:
148,132,114137,1,2,0:0:0:0:
210,128,114467,1,2,0:0:0:0:
148,132,114688,1,0,0:0:0:0:
216,122,114798,1,0,0:0:0:0:
216,122,114909,1,0,0:0:0:0:
179,150,115129,1,2,0:0:0:0:
179,150,115570,1,0,0:0:0:0:
196,143,115791,1,2,0:0:0:0:
179,150,115901,1,2,0:0:0:0:
179,150,116453,1,0,0:0:0:0:
230,109,116563,1,0,0:0:0:0:
190,155,116894,1,2,0:0:0:0:
190,159,117335,1,0,0:0:0:0:
230,109,117445,1,0,0:0:0:0:
165,142,117666,1,2,0:0:0:0:
230,109,117997,1,2,0:0:0:0:
181,168,118217,1,0,0:0:0:0:
230,109,118328,1,0,0:0:0:0:
226,102,118438,1,0,0:0:0:0:
185,173,118659,1,2,0:0:0:0:
225,117,118879,1,0,0:0:0:0:
220,118,118990,1,0,0:0:0:0:
186,177,119210,1,0,0:0:0:0:
223,112,119320,1,2,0:0:0:0:
185,173,119431,1,2,0:0:0:0:
195,125,119541,1,2,0:0:0:0:
256,192,119982,12,2,125938,0:0:0:0:
199,190,126159,5,2,0:0:0:0:
199,190,126379,1,0,0:0:0:0:
199,190,126600,1,2,0:0:0:0:
199,190,126820,1,2,0:0:0:0:
199,190,127041,1,4,0:0:0:0:
181,203,127262,1,2,0:0:0:0:
181,203,127372,1,0,0:0:0:0:
170,203,127482,1,0,0:0:0:0:
168,203,127592,1,2,0:0:0:0:
175,205,127813,1,0,0:0:0:0:
175,205,127923,1,2,0:0:0:0:
193,83,128144,1,0,0:0:0:0:
193,83,128365,1,2,0:0:0:0:
194,115,128585,1,2,0:0:0:0:
186,154,128695,1,0,0:0:0:0:
186,154,128806,1,0,0:0:0:0:
188,100,128916,1,2,0:0:0:0:
173,86,129137,1,2,0:0:0:0:
172,87,129247,1,0,0:0:0:0:
165,87,129357,1,2,0:0:0:0:
202,79,129578,1,0,0:0:0:0:
197,79,129688,1,2,0:0:0:0:
168,59,129909,1,0,0:0:0:0:
227,223,130129,1,2,0:0:0:0:
223,227,130570,1,4,0:0:0:0:
172,219,130791,1,2,0:0:0:0:
181,213,130901,1,0,0:0:0:0:
181,215,131012,1,0,0:0:0:0:
187,112,131122,1,2,0:0:0:0:
180,217,131342,1,0,0:0:0:0:
180,217,131453,1,6,0:0:0:0:
241,144,131673,1,0,0:0:0:0:
241,144,131894,1,2,0:0:0:0:
241,144,132115,1,2,0:0:0:0:
241,144,132225,1,0,0:0:0:0:
241,144,132335,1,0,0:0:0:0:
231,124,132445,1,2,0:0:0:0:
230,126,132666,1,2,0:0:0:0:
229,126,132776,1,0,0:0:0:0:
226,126,132887,1,2,0:0:0:0:
206,76,132997,1,0,0:0:0:0:
188,75,133107,1,0,0:0:0:0:
207,117,133217,1,2,0:0:0:0:
229,112,133438,1,0,0:0:0:0:
239,149,133659,1,2,0:0:0:0:
238,151,134100,1,4,0:0:0:0:
220,202,134320,1,2,0:0:0:0:
220,202,134431,1,0,0:0:0:0:
229,203,134541,1,0,0:0:0:0:
229,206,134651,1,2,0:0:0:0:
157,112,134872,1,0,0:0:0:0:
157,112,134982,1,2,0:0:0:0:
146,114,135203,1,0,0:0:0:0:
146,117,135423,1,2,0:0:0:0:
188,141,135644,1,2,0:0:0:0:
182,135,135754,1,0,0:0:0:0:
188,141,135865,1,0,0:0:0:0:
188,141,135975,1,2,0:0:0:0:
188,141,136195,1,0,0:0:0:0:
151,127,136306,1,2,0:0:0:0:
153,127,136416,1,2,0:0:0:0:
176,118,136526,1,0,0:0:0:0:
173,120,136747,1,2,0:0:0:0:
168,190,136967,1,0,0:0:0:0:
168,190,137188,1,2,0:0:0:0:
168,190,137629,1,4,0:0:0:0:
161,194,137850,1,2,0:0:0:0:
160,194,137960,1,0,0:0:0:0:
160,194,138070,1,0,0:0:0:0:
153,195,138181,1,2,0:0:0:0:
153,195,138401,1,0,0:0:0:0:
153,195,138512,1,6,0:0:0:0:
177,143,138732,1,0,0:0:0:0:
177,143,138953,1,2,0:0:0:0:
177,143,139173,1,2,0:0:0:0:
177,143,139284,1,0,0:0:0:0:
177,143,139394,1,0,0:0:0:0:
180,105,139504,1,2,0:0:0:0:
174,55,139615,1,0,0:0:0:0:
156,100,139725,1,2,0:0:0:0:
154,100,139835,1,0,0:0:0:0:
165,92,139945,1,0,0:0:0:0:
182,32,140056,1,2,0:0:0:0:
193,263,141159,1,4,0:0:0:0:
166,273,141379,1,2,0:0:0:0:
166,273,141490,1,0,0:0:0:0:
166,273,141600,1,0,0:0:0:0:
166,273,141710,1,2,0:0:0:0:
193,217,141931,1,0,0:0:0:0:
193,217,142041,1,2,0:0:0:0:
193,217,142262,1,0,0:0:0:0:
196,196,142482,1,2,0:0:0:0:
196,196,142703,1,2,0:0:0:0:
195,195,142813,1,0,0:0:0:0:
192,190,142923,1,0,0:0:0:0:
191,189,143034,1,2,0:0:0:0:
172,150,143254,1,2,0:0:0:0:
172,150,143365,1,0,0:0:0:0:
164,150,143475,1,2,0:0:0:0:
162,153,143695,1,0,0:0:0:0:
162,153,143806,1,2,0:0:0:0:
176,182,144026,1,0,0:0:0:0:
176,182,144247,1,2,0:0:0:0:
176,182,144688,1,4,0:0:0:0:
173,196,144909,1,2,0:0:0:0:
175,194,145019,1,0,0:0:0:0:
170,196,145129,1,0,0:0:0:0:
169,197,145240,1,2,0:0:0:0:
156,201,145460,1,0,0:0:0:0:
156,201,145570,1,6,0:0:0:0:
183,166,145791,1,0,0:0:0:0:
183,167,146012,1,2,0:0:0:0:
183,166,146232,1,2,0:0:0:0:
183,166,146342,1,0,0:0:0:0:
183,166,146453,1,0,0:0:0:0:
183,166,146563,1,2,0:0:0:0:
198,145,146784,1,2,0:0:0:0:
197,145,146894,1,0,0:0:0:0:
196,144,147004,1,2,0:0:0:0:
192,151,147115,1,0,0:0:0:0:
223,55,147225,1,0,0:0:0:0:
191,151,147335,1,2,0:0:0:0:
214,64,147556,1,0,0:0:0:0:
181,166,147776,1,2,0:0:0:0:
181,165,148217,1,4,0:0:0:0:
196,158,148438,1,2,0:0:0:0:
196,158,148548,1,0,0:0:0:0:
196,154,148659,1,0,0:0:0:0:
195,154,148769,1,2,0:0:0:0:
195,156,148990,1,0,0:0:0:0:
194,156,149100,1,2,0:0:0:0:
221,113,149320,1,0,0:0:0:0:
221,113,149541,1,2,0:0:0:0:
218,122,149762,1,2,0:0:0:0:
217,122,149872,1,0,0:0:0:0:
211,122,149982,1,0,0:0:0:0:
210,122,150092,1,2,0:0:0:0:
203,123,150313,1,0,0:0:0:0:
203,123,150423,1,2,0:0:0:0:
202,124,150534,1,2,0:0:0:0:
191,110,150644,1,0,0:0:0:0:
179,122,150865,1,2,0:0:0:0:
186,173,151085,1,0,0:0:0:0:
186,173,151306,1,2,0:0:0:0:
186,173,151747,1,4,0:0:0:0:
187,114,151967,1,2,0:0:0:0:
187,114,152078,1,0,0:0:0:0:
187,114,152188,1,0,0:0:0:0:
187,114,152298,1,2,0:0:0:0:
215,140,152519,1,0,0:0:0:0:
215,140,152629,1,6,0:0:0:0:
210,138,152850,1,0,0:0:0:0:
206,139,153070,1,2,0:0:0:0:
206,139,153291,1,2,0:0:0:0:
203,139,153401,1,0,0:0:0:0:
211,113,153512,1,0,0:0:0:0:
201,138,153622,1,2,0:0:0:0:
196,107,153842,1,2,0:0:0:0:
194,107,153953,1,0,0:0:0:0:
201,54,154063,1,2,0:0:0:0:
201,54,154173,1,0,0:0:0:0:
229,78,154394,1,2,0:0:0:0:
228,78,154504,1,0,0:0:0:0:
213,85,154835,1,2,0:0:0:0:
216,87,155276,1,4,0:0:0:0:
197,168,155717,1,2,0:0:0:0:
216,75,155828,1,2,0:0:0:0:
188,92,155938,1,2,0:0:0:0:
197,100,156159,1,2,0:0:0:0:
163,62,156269,1,2,0:0:0:0:
163,62,156379,1,0,0:0:0:0:
176,77,156490,1,2,0:0:0:0:
165,93,156710,1,2,0:0:0:0:
165,93,156820,1,0,0:0:0:0:
190,92,156931,1,2,0:0:0:0:
189,128,157151,1,2,0:0:0:0:
188,128,157262,1,0,0:0:0:0:
196,107,157372,1,0,0:0:0:0:
188,128,157482,1,2,0:0:0:0:
192,110,157592,1,2,0:0:0:0:
192,110,157703,1,0,0:0:0:0:
189,128,157923,1,2,0:0:0:0:
189,128,158034,1,2,0:0:0:0:
188,128,158144,1,0,0:0:0:0:
196,127,158254,1,2,0:0:0:0:
191,139,158475,1,0,0:0:0:0:
191,139,158585,1,2,0:0:0:0:
175,73,158806,1,4,0:0:0:0:
191,65,159026,1,2,0:0:0:0:
188,89,159357,1,0,0:0:0:0:
203,83,159688,1,6,0:0:0:0:
183,72,160460,1,2,0:0:0:0:
146,121,160570,1,0,0:0:0:0:
206,100,160791,1,2,0:0:0:0:
206,100,161012,1,2,0:0:0:0:
231,48,161122,1,2,0:0:0:0:
196,30,161232,1,0,0:0:0:0:
196,30,161342,1,0,0:0:0:0:
198,71,161453,1,2,0:0:0:0:
202,138,161673,1,0,0:0:0:0:
202,138,161894,1,2,0:0:0:0:
228,99,162335,1,4,0:0:0:0:
197,168,162776,1,2,0:0:0:0:
216,75,162887,1,0,0:0:0:0:
188,92,162997,1,2,0:0:0:0:
197,100,163217,1,2,0:0:0:0:
163,62,163328,1,2,0:0:0:0:
163,62,163438,1,0,0:0:0:0:
176,77,163548,1,2,0:0:0:0:
165,93,163769,1,0,0:0:0:0:
165,93,163879,1,2,0:0:0:0:
190,92,163990,1,0,0:0:0:0:
189,128,164210,1,2,0:0:0:0:
188,128,164320,1,0,0:0:0:0:
196,107,164431,1,0,0:0:0:0:
188,128,164541,1,2,0:0:0:0:
192,110,164651,1,2,0:0:0:0:
192,110,164762,1,0,0:0:0:0:
189,128,164982,1,2,0:0:0:0:
189,128,165092,1,2,0:0:0:0:
188,128,165203,1,0,0:0:0:0:
196,127,165313,1,2,0:0:0:0:
191,139,165534,1,0,0:0:0:0:
191,139,165644,1,2,0:0:0:0:
175,73,165865,1,4,0:0:0:0:
191,65,166085,1,2,0:0:0:0:
188,89,166416,1,0,0:0:0:0:
203,83,166747,1,6,0:0:0:0:
183,72,167519,1,2,0:0:0:0:
146,121,167629,1,0,0:0:0:0:
206,100,167850,1,2,0:0:0:0:
206,100,168070,1,2,0:0:0:0:
231,48,168181,1,2,0:0:0:0:
196,30,168291,1,0,0:0:0:0:
196,30,168401,1,0,0:0:0:0:
176,114,168953,1,2,0:0:0:0:
228,99,169394,1,4,0:0:0:0:
197,168,169835,1,2,0:0:0:0:
216,75,169945,1,2,0:0:0:0:
188,92,170056,1,2,0:0:0:0:
197,100,170276,1,2,0:0:0:0:
163,62,170387,1,2,0:0:0:0:
163,62,170497,1,0,0:0:0:0:
176,77,170607,1,2,0:0:0:0:
165,93,170828,1,2,0:0:0:0:
165,93,170938,1,0,0:0:0:0:
190,92,171048,1,2,0:0:0:0:
189,128,171269,1,2,0:0:0:0:
188,128,171379,1,0,0:0:0:0:
196,107,171490,1,0,0:0:0:0:
188,128,171600,1,2,0:0:0:0:
192,110,171710,1,2,0:0:0:0:
192,110,171820,1,0,0:0:0:0:
189,128,172041,1,2,0:0:0:0:
189,128,172151,1,2,0:0:0:0:
188,128,172262,1,0,0:0:0:0:
196,127,172372,1,2,0:0:0:0:
191,139,172592,1,0,0:0:0:0:
191,139,172703,1,2,0:0:0:0:
175,73,172923,1,4,0:0:0:0:
191,65,173144,1,2,0:0:0:0:
188,89,173475,1,0,0:0:0:0:
203,83,173806,1,6,0:0:0:0:
183,72,174578,1,2,0:0:0:0:
146,121,174688,1,0,0:0:0:0:
206,100,174909,1,2,0:0:0:0:
206,100,175129,1,2,0:0:0:0:
231,48,175240,1,2,0:0:0:0:
196,30,175350,1,0,0:0:0:0:
196,30,175460,1,0,0:0:0:0:
198,71,175570,1,2,0:0:0:0:
202,138,175791,1,0,0:0:0:0:
202,138,176012,1,2,0:0:0:0:
228,99,176453,1,4,0:0:0:0:
197,168,176894,1,2,0:0:0:0:
216,75,177004,1,2,0:0:0:0:
188,92,177115,1,0,0:0:0:0:
197,100,177335,1,2,0:0:0:0:
163,62,177445,1,2,0:0:0:0:
163,62,177556,1,0,0:0:0:0:
176,77,177666,1,2,0:0:0:0:
165,93,177887,1,0,0:0:0:0:
165,93,177997,1,2,0:0:0:0:
190,92,178107,1,0,0:0:0:0:
189,128,178328,1,2,0:0:0:0:
188,128,178438,1,0,0:0:0:0:
196,107,178548,1,0,0:0:0:0:
188,128,178659,1,2,0:0:0:0:
192,110,178769,1,2,0:0:0:0:
192,110,178879,1,0,0:0:0:0:
189,128,179100,1,2,0:0:0:0:
189,128,179210,1,2,0:0:0:0:
188,128,179320,1,0,0:0:0:0:
196,127,179431,1,2,0:0:0:0:
191,139,179651,1,0,0:0:0:0:
191,139,179762,1,2,0:0:0:0:
175,73,179982,1,4,0:0:0:0:
191,65,180203,1,2,0:0:0:0:
188,89,180534,1,0,0:0:0:0:
203,83,180865,1,6,0:0:0:0:
183,72,181637,1,2,0:0:0:0:
146,121,181747,1,0,0:0:0:0:
206,100,181967,1,2,0:0:0:0:
206,100,182188,1,2,0:0:0:0:
231,48,182298,1,2,0:0:0:0:
196,30,182409,1,0,0:0:0:0:
196,30,182519,1,0,0:0:0:0:
198,71,182629,1,2,0:0:0:0:
