osu file format v14

[General]
AudioFilename: audio.ogg
AudioLeadIn: 0
PreviewTime: 56012
Countdown: 0
SampleSet: Normal
StackLeniency: 0.7
Mode: 1
LetterboxInBreaks: 0
WidescreenStoryboard: 1

[Editor]
Bookmarks: 28226,56460,84696,112931,127049,155284,183520,211314
DistanceSpacing: 0.3
BeatDivisor: 4
GridSize: 16
TimelineZoom: 3.200005

[Metadata]
Title:Where did you fall
TitleUnicode:Where did you fall
Artist:underscores
ArtistUnicode:underscores
Creator:Ulqui
Version:muzukashii
Source:
Tags:electronic swing hyper pop hyperpop indie english fishmonger gamelan4 garage
BeatmapID:3557916
BeatmapSetID:1414012

[Difficulty]
HPDrainRate:5
CircleSize:2
OverallDifficulty:5
ApproachRate:10
SliderMultiplier:1.2
SliderTickRate:1

[Events]
//Background and Video events
0,0,"8CCKy8m.jpg",0,-100
//Break Periods
2,54697,56003
2,110476,112473
//Storyboard Layer 0 (Background)
//Storyboard Layer 1 (Fail)
//Storyboard Layer 2 (Pass)
//Storyboard Layer 3 (Foreground)
//Storyboard Layer 4 (Overlay)
//Storyboard Sound Samples

[TimingPoints]
28218,441.176470588235,4,1,0,20,1,0
28218,-90.9090909090909,4,1,0,20,0,0
56416,-83.3333333333333,4,1,0,60,0,0
56894,-84.2693767351825,4,1,0,60,0,0
57335,-85.2266872746007,4,1,0,60,0,0
57666,-85.9596248278729,4,1,0,60,0,0
57776,-86.2059980718622,4,1,0,60,0,0
57997,-86.7052780544054,4,1,0,60,0,0
58218,-87.2103750955532,4,1,0,60,0,0
58659,-88.2360785150416,4,1,0,60,0,0
59100,-89.2861961948455,4,1,0,60,0,0
59431,-90.0909486983989,4,1,0,60,0,0
59541,-90.361610312995,4,1,0,60,0,0
59762,-90.9103399005303,4,1,0,60,0,0
59982,-91.4632460675089,4,1,0,60,0,0
60203,-92.0254784156653,4,1,0,60,0,0
60423,-92.5920743311318,4,1,0,60,0,0
60865,-93.7517710399547,4,1,0,60,0,0
61195,-94.6367276887872,4,1,0,60,0,0
61747,-96.1549639618693,4,1,0,60,0,0
61968,-96.7765524907128,4,1,0,60,0,0
62188,-97.4033620867312,4,1,0,60,0,0
62409,-98.0412493332543,4,1,0,60,0,0
62629,-98.6846029946907,4,1,0,60,0,0
62850,-99.3394385227443,4,1,0,60,0,0
63070,-100,4,1,0,60,0,1
63291,-83.3333333333333,4,1,0,60,0,0
63953,-84.2693767351825,4,1,0,60,0,0
64394,-85.2266872746007,4,1,0,60,0,0
64725,-85.9596248278729,4,1,0,60,0,0
64835,-86.2059980718622,4,1,0,60,0,0
65056,-86.7052780544054,4,1,0,60,0,0
65276,-87.208076335073,4,1,0,60,0,0
65718,-88.2360785150416,4,1,0,60,0,0
66159,-89.2861961948455,4,1,0,60,0,0
66490,-90.0909486983989,4,1,0,60,0,0
66600,-90.361610312995,4,1,0,60,0,0
66820,-90.9078419519701,4,1,0,60,0,0
67041,-91.4632460675089,4,1,0,60,0,0
67482,-92.5920743311318,4,1,0,60,0,0
67923,-93.7491145051146,4,1,0,60,0,0
68254,-94.6367276887872,4,1,0,60,0,0
68585,-95.541309307228,4,1,0,60,0,0
68806,-96.1549639618693,4,1,0,60,0,0
69026,-96.7737217737218,4,1,0,60,0,0
69247,-97.4033620867312,4,1,0,60,0,0
69468,-98.0412493332543,4,1,0,60,0,0
69688,-98.6846029946907,4,1,0,60,0,0
69909,-99.3394385227443,4,1,0,60,0,0
70129,-100,4,1,0,60,0,0
70570,-83.3333333333333,4,1,0,60,0,0
71012,-84.2713798196913,4,1,0,60,0,0
71453,-85.228589826143,4,1,0,60,0,0
71784,-85.9614485374344,4,1,0,60,0,0
71894,-86.2077949145477,4,1,0,60,0,0
72115,-86.7070198883736,4,1,0,60,0,0
72335,-87.2097620114382,4,1,0,60,0,0
72776,-88.2352941176471,4,1,0,60,0,0
73218,-89.2876416621695,4,1,0,60,0,0
73548,-90.089844813504,4,1,0,60,0,0
73659,-90.3629263497092,4,1,0,60,0,0
73879,-90.9090909090909,4,1,0,60,0,0
74100,-91.4644258941898,4,1,0,60,0,0
74320,-92.0240280327048,4,1,0,60,0,0
74541,-92.5931107815429,4,1,0,60,0,0
74982,-93.75,4,1,0,60,0,0
75313,-94.6374946374946,4,1,0,60,0,0
75644,-95.5419529941676,4,1,0,60,0,0
75865,-96.1555226222648,4,1,0,60,0,0
76085,-96.7741935483871,4,1,0,60,0,0
76306,-97.4037442599788,4,1,0,60,0,0
76526,-98.0386347475705,4,1,0,60,0,0
76747,-98.6847991410933,4,1,0,60,0,0
76968,-99.3395376763735,4,1,0,60,0,0
77188,-100,4,1,0,60,0,1
77409,-83.3333333333333,4,1,0,60,0,0
78070,-84.2692337076935,4,1,0,60,0,0
78512,-85.228589826143,4,1,0,60,0,0
78843,-85.9614485374344,4,1,0,60,0,0
78953,-86.2077949145477,4,1,0,60,0,0
79173,-86.7047479299864,4,1,0,60,0,0
79394,-87.2097620114382,4,1,0,60,0,0
79835,-88.2352941176471,4,1,0,60,0,0
80276,-89.2852324546019,4,1,0,60,0,0
80607,-90.089844813504,4,1,0,60,0,0
80718,-90.3629263497092,4,1,0,60,0,0
80938,-90.9090909090909,4,1,0,60,0,0
81159,-91.4644258941898,4,1,0,60,0,0
81600,-92.5931107815429,4,1,0,60,0,0
82041,-93.75,4,1,0,60,0,0
82372,-94.6374946374946,4,1,0,60,0,0
82703,-95.5419529941676,4,1,0,60,0,0
82923,-96.1527285407102,4,1,0,60,0,0
83144,-96.7741935483871,4,1,0,60,0,0
83365,-97.4037442599788,4,1,0,60,0,0
83585,-98.0386347475705,4,1,0,60,0,0
83806,-98.6847991410933,4,1,0,60,0,0
84026,-99.3365554921798,4,1,0,60,0,0
84247,-100,4,1,0,60,0,0
84688,-71.4285714285714,4,1,0,60,0,0
85129,-72.8148930551888,4,1,0,60,0,0
85350,-73.5300653304298,4,1,0,60,0,0
85570,-74.2560926349805,4,1,0,60,0,0
85901,-75.375854214123,4,1,0,60,0,0
86012,-75.7589633224965,4,1,0,60,0,0
86232,-76.5299042508904,4,1,0,60,0,0
86453,-77.3203103093747,4,1,0,60,0,0
86894,-78.9473684210526,4,1,0,60,0,0
87335,-80.6443751218561,4,1,0,60,0,0
87666,-81.9668070349269,4,1,0,60,0,0
87776,-82.4159402241594,4,1,0,60,0,0
87997,-83.3333333333333,4,1,0,60,0,0
88218,-84.2713798196913,4,1,0,60,0,0
88659,-86.2077949145477,4,1,0,60,0,0
88879,-87.2074636306135,4,1,0,60,0,0
89100,-88.2352941176471,4,1,0,60,0,0
89431,-89.8208469055375,4,1,0,60,0,0
89541,-90.3604587657018,4,1,0,60,0,0
89762,-91.4644258941898,4,1,0,60,0,0
89982,-92.5905198947898,4,1,0,60,0,0
90203,-93.75,4,1,0,60,0,0
90423,-94.9334404406702,4,1,0,60,0,0
90644,-96.1527285407102,4,1,0,60,0,0
90865,-97.4037442599788,4,1,0,60,0,0
91085,-98.681856137421,4,1,0,60,0,0
91306,-100,4,1,0,60,0,1
91526,-71.4285714285714,4,1,0,60,0,0
91719,-71.4285714285714,4,1,0,70,0,0
91747,-66.6666666666667,4,1,0,70,0,0
92188,-67.8727462925358,4,1,0,70,0,0
92409,-68.4937177868394,4,1,0,70,0,0
92629,-69.1232687848593,4,1,0,70,0,0
92960,-70.0925670952573,4,1,0,70,0,0
93070,-70.4207367681798,4,1,0,70,0,0
93291,-71.0894364835543,4,1,0,70,0,0
93512,-71.7709575967899,4,1,0,70,0,0
93953,-73.1707317073171,4,1,0,70,0,0
94394,-74.6261924629575,4,1,0,70,0,0
94725,-75.7572288742874,4,1,0,70,0,0
94835,-76.1407303435422,4,1,0,70,0,0
95056,-76.9230769230769,4,1,0,70,0,0
95276,-77.7180167696174,4,1,0,70,0,0
95718,-79.3658407886216,4,1,0,70,0,0
95938,-80.2123481928587,4,1,0,70,0,0
96159,-81.0810810810811,4,1,0,70,0,0
96490,-82.4179929761638,4,1,0,70,0,0
96600,-82.8720979739037,4,1,0,70,0,0
96820,-83.7954873509078,4,1,0,70,0,0
97041,-84.7440264296873,4,1,0,70,0,0
97482,-86.702476090659,4,1,0,70,0,0
97923,-88.7535874259046,4,1,0,70,0,0
98144,-89.8184088379794,4,1,0,70,0,0
98769,-62.5,4,1,0,80,0,0
98806,-62.5,4,1,0,80,0,1
99026,-63.0238494361475,4,1,0,80,0,1
99247,-63.5589964267876,4,1,0,80,0,1
99467,-64.1008253574611,4,1,0,80,0,1
99688,-64.6544985538967,4,1,0,80,0,1
100019,-65.5018808156801,4,1,0,80,0,1
100129,-65.7884271226884,4,1,0,80,0,1
100350,-66.3717701813513,4,1,0,80,0,1
100570,-66.9628400259067,4,1,0,80,0,1
100791,-67.5672915900829,4,1,0,80,0,1
101012,-68.1827549253977,4,1,0,80,0,1
101232,-68.806671657932,4,1,0,80,0,1
101453,-69.4450274967466,4,1,0,80,0,1
101784,-70.4235845040443,4,1,0,80,0,1
101894,-70.7549187339607,4,1,0,80,0,1
102115,-71.4301135627618,4,1,0,80,0,1
102335,-72.1151750294259,4,1,0,80,0,1
102556,-72.8167092173607,4,1,0,80,0,1
102776,-73.5287581118322,4,1,0,80,0,1
103217,-74.99886657297,4,1,0,80,0,1
103548,-76.1414894596336,4,1,0,80,0,1
103659,-76.5325005783021,4,1,0,80,0,1
103879,-77.3194671652255,4,1,0,80,0,1
104100,-78.1264758666289,4,1,0,80,0,1
104541,-79.788260261419,4,1,0,80,0,1
104762,-80.6479134165367,4,1,0,80,0,1
104982,-81.5222747880938,4,1,0,80,0,1
105423,-83.3333333333333,4,1,0,80,0,0
105644,-58.8235294117647,4,1,0,80,0,1
105837,-58.8235294117647,4,1,0,90,0,1
106085,-59.1707245093699,4,1,0,90,0,1
106306,-59.523648876594,4,1,0,90,0,1
106526,-59.8791827869409,4,1,0,90,0,1
106747,-60.240634773227,4,1,0,90,0,1
107078,-60.790231667149,4,1,0,90,0,1
107188,-60.9751040212328,4,1,0,90,0,1
107409,-61.3499492343426,4,1,0,90,0,1
107629,-61.7277039980968,4,1,0,90,0,1
107850,-62.111888702705,4,1,0,90,0,1
108070,-62.4991144423821,4,1,0,90,0,1
108291,-62.89299208669,4,1,0,90,0,1
108512,-63.2918657540929,4,1,0,90,0,1
108842,-63.8969768081932,4,1,0,90,0,1
108953,-64.1031230471872,4,1,0,90,0,1
109173,-64.5156572230917,4,1,0,90,0,1
109394,-64.9354473052746,4,1,0,90,0,1
109615,-65.3607361417754,4,1,0,90,0,1
109835,-65.7896699330321,4,1,0,90,0,1
110056,-66.2262592898431,4,1,0,90,0,1
110276,-66.6666666666667,4,1,0,90,0,1
110497,-58.8235294117647,4,1,0,30,0,1
110717,-100,4,1,0,30,0,0
112445,-90.9090909090909,4,1,0,10,0,0
112887,-90.9090909090909,4,1,0,30,0,0
112923,-90.9090909090909,4,1,0,30,0,0
119955,-90.9090909090909,4,1,0,5,0,0
121692,-100,4,1,0,5,0,0
123456,-111.111111111111,4,1,0,5,0,0
125221,-125,4,1,0,5,0,0
126085,-90.9090909090909,4,1,0,5,0,0
126131,-90.9090909090909,4,1,0,40,0,0
127041,-90.9090909090909,4,1,0,40,0,1
127262,-90.9090909090909,4,1,0,40,0,0
130570,-90.9090909090909,4,1,0,40,0,1
130791,-90.9090909090909,4,1,0,40,0,0
131453,-90.9090909090909,4,1,0,40,0,1
131673,-90.9090909090909,4,1,0,40,0,0
134100,-90.9090909090909,4,1,0,40,0,1
134320,-90.9090909090909,4,1,0,40,0,0
137629,-90.9090909090909,4,1,0,40,0,1
137850,-90.9090909090909,4,1,0,40,0,0
138512,-90.9090909090909,4,1,0,40,0,1
138732,-90.9090909090909,4,1,0,40,0,0
141159,-90.9090909090909,4,1,0,40,0,1
141379,-90.9090909090909,4,1,0,40,0,0
144688,-90.9090909090909,4,1,0,40,0,1
144909,-90.9090909090909,4,1,0,40,0,0
145570,-90.9090909090909,4,1,0,40,0,1
145791,-90.9090909090909,4,1,0,40,0,0
148217,-90.9090909090909,4,1,0,40,0,1
148438,-90.9090909090909,4,1,0,40,0,0
151747,-90.9090909090909,4,1,0,40,0,1
151967,-90.9090909090909,4,1,0,40,0,0
152629,-90.9090909090909,4,1,0,40,0,1
152850,-90.9090909090909,4,1,0,40,0,0
155276,-90.9090909090909,4,1,0,40,0,1
155497,-90.9090909090909,4,1,0,40,0,0
158806,-90.9090909090909,4,1,0,40,0,1
159026,-90.9090909090909,4,1,0,40,0,0
159688,-90.9090909090909,4,1,0,40,0,1
159909,-90.9090909090909,4,1,0,40,0,0
162335,-90.9090909090909,4,1,0,40,0,1
162556,-90.9090909090909,4,1,0,40,0,0
165865,-90.9090909090909,4,1,0,40,0,1
166085,-90.9090909090909,4,1,0,40,0,0
166747,-90.9090909090909,4,1,0,40,0,1
166967,-90.9090909090909,4,1,0,40,0,0
169394,-90.9090909090909,4,1,0,40,0,1
169615,-90.9090909090909,4,1,0,40,0,0
172923,-90.9090909090909,4,1,0,40,0,1
173144,-90.9090909090909,4,1,0,40,0,0
173806,-90.9090909090909,4,1,0,40,0,1
174026,-90.9090909090909,4,1,0,40,0,0
176453,-90.9090909090909,4,1,0,40,0,1
176673,-90.9090909090909,4,1,0,40,0,0
179982,-90.9090909090909,4,1,0,40,0,1
180203,-90.9090909090909,4,1,0,40,0,0
180865,-90.9090909090909,4,1,0,40,0,1
181085,-90.9090909090909,4,1,0,40,0,0

[HitObjects]
141,242,28218,5,0,0:0:0:0:
141,242,28659,1,2,0:0:0:0:
141,242,29100,1,0,0:0:0:0:
141,242,29431,1,2,0:0:0:0:
175,237,29982,1,0,0:0:0:0:
212,134,30203,1,2,0:0:0:0:
212,134,30423,1,0,0:0:0:0:
207,139,30865,1,2,0:0:0:0:
207,139,31085,1,2,0:0:0:0:
207,139,31306,1,2,0:0:0:0:
175,237,31747,1,0,0:0:0:0:
175,237,32188,1,2,0:0:0:0:
175,237,32629,1,0,0:0:0:0:
175,237,32960,1,2,0:0:0:0:
234,117,33512,1,0,0:0:0:0:
209,115,33732,1,2,0:0:0:0:
209,115,33953,1,2,0:0:0:0:
221,117,34173,1,0,0:0:0:0:
218,137,34394,1,2,0:0:0:0:
218,139,34615,1,0,0:0:0:0:
216,140,34835,1,2,0:0:0:0:
201,148,35276,1,0,0:0:0:0:
201,148,35718,1,2,0:0:0:0:
201,148,36159,1,0,0:0:0:0:
201,148,36490,1,2,0:0:0:0:
201,148,37041,1,0,0:0:0:0:
197,124,37262,1,2,0:0:0:0:
196,127,37482,1,0,0:0:0:0:
209,145,37923,1,2,0:0:0:0:
209,145,38144,1,2,0:0:0:0:
209,145,38365,1,2,0:0:0:0:
208,149,38806,1,0,0:0:0:0:
208,149,39247,1,2,0:0:0:0:
208,149,39688,1,0,0:0:0:0:
208,149,40019,1,2,0:0:0:0:
208,149,40570,1,0,0:0:0:0:
216,146,40791,1,2,0:0:0:0:
216,148,41012,1,0,0:0:0:0:
172,96,41232,1,0,0:0:0:0:
208,149,41453,1,2,0:0:0:0:
216,146,41673,1,0,0:0:0:0:
216,148,41894,1,2,0:0:0:0:
212,155,42335,1,0,0:0:0:0:
212,155,42776,1,2,0:0:0:0:
212,155,43218,1,0,0:0:0:0:
212,155,43548,1,2,0:0:0:0:
212,155,43879,1,2,0:0:0:0:
212,155,44100,1,2,0:0:0:0:
222,150,44320,1,0,0:0:0:0:
212,155,44541,1,2,0:0:0:0:
222,152,44762,1,0,0:0:0:0:
212,155,44982,1,2,0:0:0:0:
222,150,45203,1,0,0:0:0:0:
212,155,45423,1,2,0:0:0:0:
212,155,45865,1,0,0:0:0:0:
240,153,46306,1,2,0:0:0:0:
238,155,46747,1,0,0:0:0:0:
240,153,47078,1,2,0:0:0:0:
238,155,47629,1,0,0:0:0:0:
191,158,49394,1,0,0:0:0:0:
191,158,49835,1,2,0:0:0:0:
191,158,50276,1,0,0:0:0:0:
191,158,50607,1,2,0:0:0:0:
191,158,50938,1,2,0:0:0:0:
191,158,51159,1,2,0:0:0:0:
229,141,51379,1,0,0:0:0:0:
191,158,51600,1,2,0:0:0:0:
191,158,51820,1,2,0:0:0:0:
229,141,52041,1,0,0:0:0:0:
191,158,52262,1,2,0:0:0:0:
191,158,52482,1,2,0:0:0:0:
199,59,52923,1,0,0:0:0:0:
198,79,53365,1,2,0:0:0:0:
197,79,53585,1,2,0:0:0:0:
197,80,53806,1,0,0:0:0:0:
198,79,54137,1,2,0:0:0:0:
197,79,54468,1,2,0:0:0:0:
161,138,56453,5,0,0:0:0:0:
171,152,56894,1,2,0:0:0:0:
173,152,57335,1,0,0:0:0:0:
224,131,57666,1,2,0:0:0:0:
171,152,57776,1,2,0:0:0:0:
195,133,57997,1,0,0:0:0:0:
207,89,58218,1,0,0:0:0:0:
188,113,58659,1,2,0:0:0:0:
188,113,59100,1,0,0:0:0:0:
188,113,59431,1,2,0:0:0:0:
230,147,59541,1,2,0:0:0:0:
203,126,59762,1,2,0:0:0:0:
207,109,59982,1,0,0:0:0:0:
215,112,60203,1,2,0:0:0:0:
215,113,60423,1,2,0:0:0:0:
191,97,60865,1,0,0:0:0:0:
188,102,61195,1,2,0:0:0:0:
186,129,61747,1,0,0:0:0:0:
202,111,61968,1,0,0:0:0:0:
186,129,62188,1,2,0:0:0:0:
191,115,62409,1,2,0:0:0:0:
196,82,62629,1,0,0:0:0:0:
256,99,62850,1,0,0:0:0:0:
246,112,63070,1,2,0:0:0:0:
234,62,63512,1,0,0:0:0:0:
305,110,63953,1,2,0:0:0:0:
231,112,64394,1,0,0:0:0:0:
236,133,64725,1,2,0:0:0:0:
211,96,64835,1,2,0:0:0:0:
223,128,65056,1,0,0:0:0:0:
221,133,65276,1,0,0:0:0:0:
222,147,65718,1,2,0:0:0:0:
222,147,66159,1,0,0:0:0:0:
222,147,66490,1,2,0:0:0:0:
212,151,66600,1,2,0:0:0:0:
211,151,66820,1,2,0:0:0:0:
211,152,67041,1,0,0:0:0:0:
202,173,67482,1,2,0:0:0:0:
210,171,67923,1,0,0:0:0:0:
213,174,68254,1,2,0:0:0:0:
216,183,68585,1,2,0:0:0:0:
210,171,68806,1,0,0:0:0:0:
230,200,69026,1,0,0:0:0:0:
213,191,69247,1,2,0:0:0:0:
232,203,69468,1,0,0:0:0:0:
148,154,69688,1,0,0:0:0:0:
230,200,69909,1,2,0:0:0:0:
230,198,70129,1,2,0:0:0:0:
201,158,70570,1,0,0:0:0:0:
190,138,71012,1,2,0:0:0:0:
191,134,71453,1,0,0:0:0:0:
190,138,71784,1,2,0:0:0:0:
190,138,71894,1,2,0:0:0:0:
176,135,72115,1,0,0:0:0:0:
184,130,72335,1,0,0:0:0:0:
176,158,72776,1,2,0:0:0:0:
172,158,73218,1,0,0:0:0:0:
176,158,73548,1,2,0:0:0:0:
169,159,73659,1,2,0:0:0:0:
172,158,73879,1,2,0:0:0:0:
172,158,74100,1,0,0:0:0:0:
176,158,74320,1,2,0:0:0:0:
147,163,74541,1,2,0:0:0:0:
186,173,74982,1,0,0:0:0:0:
186,173,75313,1,2,0:0:0:0:
229,181,75644,1,2,0:0:0:0:
186,173,75865,1,0,0:0:0:0:
220,189,76085,1,0,0:0:0:0:
217,191,76306,1,2,0:0:0:0:
217,192,76526,1,2,0:0:0:0:
217,192,76747,1,0,0:0:0:0:
220,189,76968,1,0,0:0:0:0:
217,191,77188,1,2,0:0:0:0:
203,247,77629,1,0,0:0:0:0:
196,259,78070,1,2,0:0:0:0:
206,260,78512,1,0,0:0:0:0:
208,263,78843,1,2,0:0:0:0:
207,263,78953,1,2,0:0:0:0:
206,260,79173,1,0,0:0:0:0:
206,260,79394,1,0,0:0:0:0:
192,209,79835,1,2,0:0:0:0:
192,209,80276,1,0,0:0:0:0:
192,209,80607,1,2,0:0:0:0:
192,209,80718,1,2,0:0:0:0:
192,209,80938,1,2,0:0:0:0:
192,209,81159,1,0,0:0:0:0:
192,209,81600,1,2,0:0:0:0:
205,238,82041,1,0,0:0:0:0:
206,242,82372,1,2,0:0:0:0:
208,108,82703,1,2,0:0:0:0:
198,133,82923,1,0,0:0:0:0:
208,117,83144,1,0,0:0:0:0:
208,122,83365,1,2,0:0:0:0:
209,127,83585,1,2,0:0:0:0:
208,127,83806,1,0,0:0:0:0:
206,127,84026,1,0,0:0:0:0:
206,127,84247,1,2,0:0:0:0:
284,100,84688,1,0,0:0:0:0:
181,194,85129,1,2,0:0:0:0:
188,175,85350,1,2,0:0:0:0:
181,187,85570,1,0,0:0:0:0:
181,194,85901,1,2,0:0:0:0:
196,203,86012,1,2,0:0:0:0:
172,136,86232,1,0,0:0:0:0:
172,136,86453,1,0,0:0:0:0:
177,129,86894,1,2,0:0:0:0:
181,128,87335,1,0,0:0:0:0:
184,137,87666,1,2,0:0:0:0:
204,200,87776,1,2,0:0:0:0:
216,177,87997,1,2,0:0:0:0:
216,177,88218,1,0,0:0:0:0:
216,168,88659,1,2,0:0:0:0:
215,177,88879,1,2,0:0:0:0:
206,152,89100,1,0,0:0:0:0:
207,154,89431,1,2,0:0:0:0:
205,159,89541,1,2,0:0:0:0:
207,158,89762,1,0,0:0:0:0:
206,152,89982,1,0,0:0:0:0:
224,112,90203,1,2,0:0:0:0:
207,158,90423,1,2,0:0:0:0:
224,112,90644,1,0,0:0:0:0:
209,158,90865,1,0,0:0:0:0:
216,146,91085,1,2,0:0:0:0:
207,158,91306,1,2,0:0:0:0:
206,69,91747,1,0,0:0:0:0:
196,78,92188,1,2,0:0:0:0:
200,121,92409,1,2,0:0:0:0:
200,121,92629,1,0,0:0:0:0:
200,121,92960,1,2,0:0:0:0:
206,184,93070,1,2,0:0:0:0:
199,127,93291,1,0,0:0:0:0:
199,127,93512,1,0,0:0:0:0:
199,127,93953,1,2,0:0:0:0:
199,127,94394,1,0,0:0:0:0:
199,127,94725,1,2,0:0:0:0:
210,183,94835,1,2,0:0:0:0:
208,118,95056,1,2,0:0:0:0:
206,118,95276,1,0,0:0:0:0:
208,118,95718,1,2,0:0:0:0:
208,118,95938,1,2,0:0:0:0:
213,120,96159,1,0,0:0:0:0:
208,118,96490,1,2,0:0:0:0:
211,182,96600,1,2,0:0:0:0:
214,122,96820,1,0,0:0:0:0:
213,120,97041,1,0,0:0:0:0:
214,122,97482,1,2,0:0:0:0:
220,121,97923,1,0,0:0:0:0:
222,121,98144,1,0,0:0:0:0:
231,158,98806,1,0,0:0:0:0:
246,94,99026,1,0,0:0:0:0:
231,158,99247,1,2,0:0:0:0:
231,158,99467,1,2,0:0:0:0:
210,117,99688,1,0,0:0:0:0:
210,117,100019,1,2,0:0:0:0:
236,144,100129,1,2,0:0:0:0:
236,148,100350,1,2,0:0:0:0:
234,152,100570,1,0,0:0:0:0:
235,78,100791,1,0,0:0:0:0:
227,183,101012,1,2,0:0:0:0:
226,185,101232,1,2,0:0:0:0:
226,185,101453,1,0,0:0:0:0:
227,183,101784,1,2,0:0:0:0:
253,153,101894,1,2,0:0:0:0:
226,185,102115,1,2,0:0:0:0:
226,185,102335,1,0,0:0:0:0:
201,57,102556,1,0,0:0:0:0:
227,169,102776,1,2,0:0:0:0:
223,173,103217,1,0,0:0:0:0:
173,117,103548,1,2,0:0:0:0:
219,177,103659,1,2,0:0:0:0:
201,90,103879,1,2,0:0:0:0:
223,173,104100,1,0,0:0:0:0:
219,177,104541,1,2,0:0:0:0:
225,87,104762,1,2,0:0:0:0:
206,169,104982,1,0,0:0:0:0:
215,97,105423,1,2,0:0:0:0:
206,111,105865,1,2,0:0:0:0:
205,112,106085,1,0,0:0:0:0:
206,113,106306,1,2,0:0:0:0:
206,111,106526,1,0,0:0:0:0:
206,111,106747,1,2,0:0:0:0:
206,113,107078,1,2,0:0:0:0:
206,113,107188,1,2,0:0:0:0:
206,111,107409,1,2,0:0:0:0:
206,111,107629,1,2,0:0:0:0:
206,113,107850,1,0,0:0:0:0:
206,113,108070,1,2,0:0:0:0:
216,112,108291,1,0,0:0:0:0:
216,114,108512,1,2,0:0:0:0:
216,114,108842,1,2,0:0:0:0:
216,115,108953,1,2,0:0:0:0:
216,112,109173,1,2,0:0:0:0:
216,114,109394,1,2,0:0:0:0:
216,114,109615,1,0,0:0:0:0:
179,105,109835,1,2,0:0:0:0:
179,105,110056,1,2,0:0:0:0:
172,109,110276,1,2,0:0:0:0:
188,188,112923,5,0,0:0:0:0:
176,197,113365,1,2,0:0:0:0:
176,197,113806,1,0,0:0:0:0:
176,197,114137,1,2,0:0:0:0:
176,197,114688,1,0,0:0:0:0:
176,197,115129,1,2,0:0:0:0:
176,197,115570,1,0,0:0:0:0:
199,214,115791,1,0,0:0:0:0:
176,197,116012,1,2,0:0:0:0:
206,213,116453,1,0,0:0:0:0:
197,229,116894,1,2,0:0:0:0:
198,229,117335,1,0,0:0:0:0:
197,229,117666,1,2,0:0:0:0:
198,229,118217,1,0,0:0:0:0:
202,177,118548,1,2,0:0:0:0:
202,177,118879,1,0,0:0:0:0:
191,104,119320,1,0,0:0:0:0:
202,177,119541,1,2,0:0:0:0:
256,192,119982,12,0,125938,0:0:0:0:
201,127,126159,5,2,0:0:0:0:
201,127,126379,1,2,0:0:0:0:
201,127,126600,1,2,0:0:0:0:
201,127,126820,1,2,0:0:0:0:
204,238,127041,5,4,0:0:0:0:
196,238,127482,1,0,0:0:0:0:
223,180,127592,1,2,0:0:0:0:
223,180,127813,1,2,0:0:0:0:
204,238,127923,1,2,0:0:0:0:
196,238,128144,1,0,0:0:0:0:
196,238,128365,1,2,0:0:0:0:
196,238,128585,1,2,0:0:0:0:
196,238,128806,1,0,0:0:0:0:
196,238,129247,1,0,0:0:0:0:
180,278,129688,1,2,0:0:0:0:
180,278,129909,1,2,0:0:0:0:
180,278,130129,1,0,0:0:0:0:
180,278,130350,1,2,0:0:0:0:
180,278,130570,1,4,0:0:0:0:
264,176,130791,1,2,0:0:0:0:
188,95,131012,1,0,0:0:0:0:
210,173,131122,1,2,0:0:0:0:
188,95,131453,1,6,0:0:0:0:
188,95,131673,1,0,0:0:0:0:
188,95,131894,1,0,0:0:0:0:
188,95,132115,1,2,0:0:0:0:
188,95,132335,1,2,0:0:0:0:
188,95,132776,1,0,0:0:0:0:
186,102,133217,1,2,0:0:0:0:
186,102,133438,1,0,0:0:0:0:
186,102,133659,1,2,0:0:0:0:
186,102,133879,1,2,0:0:0:0:
186,102,134100,1,4,0:0:0:0:
186,102,134541,1,0,0:0:0:0:
204,187,134651,1,2,0:0:0:0:
204,187,134872,1,2,0:0:0:0:
163,127,134982,1,2,0:0:0:0:
204,187,135203,1,0,0:0:0:0:
163,128,135423,1,2,0:0:0:0:
163,127,135865,1,0,0:0:0:0:
166,140,136085,1,0,0:0:0:0:
172,86,136306,1,2,0:0:0:0:
172,86,136747,1,2,0:0:0:0:
201,115,136967,1,0,0:0:0:0:
201,115,137188,1,2,0:0:0:0:
201,115,137409,1,2,0:0:0:0:
201,115,137629,1,4,0:0:0:0:
211,47,137850,1,2,0:0:0:0:
202,84,138070,1,0,0:0:0:0:
201,188,138181,1,2,0:0:0:0:
201,103,138512,1,6,0:0:0:0:
201,102,138732,1,0,0:0:0:0:
201,102,138953,1,0,0:0:0:0:
201,103,139173,1,2,0:0:0:0:
201,103,139394,1,0,0:0:0:0:
201,102,139835,1,0,0:0:0:0:
174,94,141159,1,4,0:0:0:0:
196,135,141600,1,0,0:0:0:0:
183,122,141710,1,2,0:0:0:0:
185,125,141931,1,2,0:0:0:0:
163,158,142041,1,2,0:0:0:0:
163,158,142262,1,0,0:0:0:0:
168,162,142482,1,2,0:0:0:0:
168,163,142703,1,2,0:0:0:0:
163,158,142923,1,0,0:0:0:0:
173,95,143365,1,0,0:0:0:0:
173,95,143806,1,2,0:0:0:0:
173,95,144026,1,2,0:0:0:0:
155,138,144247,1,0,0:0:0:0:
155,138,144467,1,2,0:0:0:0:
155,138,144688,1,4,0:0:0:0:
212,68,144909,1,2,0:0:0:0:
219,98,145129,1,0,0:0:0:0:
207,137,145240,1,2,0:0:0:0:
219,98,145570,1,6,0:0:0:0:
219,98,145791,1,0,0:0:0:0:
219,98,146012,1,0,0:0:0:0:
219,98,146232,1,2,0:0:0:0:
219,98,146453,1,2,0:0:0:0:
219,98,146894,1,0,0:0:0:0:
176,120,147335,1,2,0:0:0:0:
176,120,147556,1,0,0:0:0:0:
176,120,147776,1,2,0:0:0:0:
176,120,147997,1,2,0:0:0:0:
176,120,148217,1,4,0:0:0:0:
248,134,148659,1,0,0:0:0:0:
211,161,148769,1,2,0:0:0:0:
211,161,148990,1,2,0:0:0:0:
222,106,149100,1,2,0:0:0:0:
214,96,149541,1,2,0:0:0:0:
214,96,149982,1,0,0:0:0:0:
201,153,150203,1,0,0:0:0:0:
201,153,150423,1,2,0:0:0:0:
208,141,150865,1,2,0:0:0:0:
208,140,151085,1,0,0:0:0:0:
216,114,151306,1,2,0:0:0:0:
216,114,151526,1,2,0:0:0:0:
217,114,151747,1,4,0:0:0:0:
237,63,151967,1,2,0:0:0:0:
216,114,152188,1,0,0:0:0:0:
216,175,152298,1,2,0:0:0:0:
217,114,152629,1,6,0:0:0:0:
216,114,152850,1,0,0:0:0:0:
216,114,153070,1,0,0:0:0:0:
217,114,153291,1,2,0:0:0:0:
217,114,153512,1,0,0:0:0:0:
224,115,153953,1,0,0:0:0:0:
229,87,154394,1,2,0:0:0:0:
217,159,155276,5,4,0:0:0:0:
210,160,155717,1,2,0:0:0:0:
206,102,155828,1,2,0:0:0:0:
225,159,155938,1,2,0:0:0:0:
173,176,156159,1,2,0:0:0:0:
221,164,156379,1,2,0:0:0:0:
183,184,156490,1,2,0:0:0:0:
183,184,156820,1,0,0:0:0:0:
206,128,157262,1,0,0:0:0:0:
183,184,157482,1,2,0:0:0:0:
171,76,157592,1,2,0:0:0:0:
171,76,157703,1,2,0:0:0:0:
183,184,157923,1,2,0:0:0:0:
171,76,158144,1,0,0:0:0:0:
183,184,158254,1,0,0:0:0:0:
183,184,158585,1,2,0:0:0:0:
205,34,158806,1,4,0:0:0:0:
213,55,159026,1,2,0:0:0:0:
164,86,159357,1,0,0:0:0:0:
164,87,159688,1,6,0:0:0:0:
239,135,160460,1,0,0:0:0:0:
197,93,160570,1,0,0:0:0:0:
204,173,160791,1,0,0:0:0:0:
213,155,161012,1,0,0:0:0:0:
201,107,161232,1,0,0:0:0:0:
204,173,161453,1,2,0:0:0:0:
201,107,161894,1,2,0:0:0:0:
186,188,162335,1,4,0:0:0:0:
161,112,162776,1,2,0:0:0:0:
201,117,162887,1,2,0:0:0:0:
201,117,162997,1,2,0:0:0:0:
161,112,163217,1,2,0:0:0:0:
199,124,163438,1,2,0:0:0:0:
161,112,163548,1,2,0:0:0:0:
161,112,163879,1,0,0:0:0:0:
255,124,164320,1,0,0:0:0:0:
161,112,164541,1,10,0:0:0:0:
201,127,164651,1,2,0:0:0:0:
201,127,164762,1,2,0:0:0:0:
161,112,164982,1,2,0:0:0:0:
201,127,165203,1,0,0:0:0:0:
161,112,165313,1,0,0:0:0:0:
161,112,165644,1,2,0:0:0:0:
228,93,165865,1,4,0:0:0:0:
162,129,166085,1,2,0:0:0:0:
171,34,166416,1,0,0:0:0:0:
162,128,166747,1,6,0:0:0:0:
238,123,167409,1,2,0:0:0:0:
198,133,167629,1,0,0:0:0:0:
219,118,167850,1,0,0:0:0:0:
231,124,168070,1,0,0:0:0:0:
219,118,168291,1,0,0:0:0:0:
208,122,169394,1,4,0:0:0:0:
173,98,169835,1,2,0:0:0:0:
181,140,169945,1,2,0:0:0:0:
181,140,170056,1,2,0:0:0:0:
173,98,170276,1,2,0:0:0:0:
181,140,170497,1,2,0:0:0:0:
173,98,170607,1,2,0:0:0:0:
173,98,170938,1,0,0:0:0:0:
173,98,171600,1,2,0:0:0:0:
181,138,171710,1,2,0:0:0:0:
181,138,171820,1,2,0:0:0:0:
173,98,172041,1,2,0:0:0:0:
181,138,172262,1,0,0:0:0:0:
173,98,172372,1,0,0:0:0:0:
173,98,172703,1,2,0:0:0:0:
175,84,172923,1,4,0:0:0:0:
173,98,173144,1,2,0:0:0:0:
173,98,173475,1,0,0:0:0:0:
203,85,173806,1,6,0:0:0:0:
188,100,174578,1,0,0:0:0:0:
179,136,174688,1,0,0:0:0:0:
196,77,174909,1,0,0:0:0:0:
196,77,175129,1,0,0:0:0:0:
176,137,175350,1,0,0:0:0:0:
196,77,175570,1,2,0:0:0:0:
215,106,176012,1,2,0:0:0:0:
191,86,176453,1,4,0:0:0:0:
191,86,176894,1,2,0:0:0:0:
202,140,177004,1,2,0:0:0:0:
202,140,177115,1,2,0:0:0:0:
191,86,177335,1,2,0:0:0:0:
202,140,177556,1,2,0:0:0:0:
191,86,177666,1,2,0:0:0:0:
191,86,177997,1,0,0:0:0:0:
191,86,178659,1,2,0:0:0:0:
195,139,178769,1,2,0:0:0:0:
195,139,178879,1,2,0:0:0:0:
191,86,179100,1,2,0:0:0:0:
195,139,179320,1,0,0:0:0:0:
191,86,179431,1,0,0:0:0:0:
191,86,179762,1,2,0:0:0:0:
214,87,179982,1,4,0:0:0:0:
192,94,180203,1,2,0:0:0:0:
192,51,180534,1,0,0:0:0:0:
191,92,180865,1,6,0:0:0:0:
228,272,181526,1,2,0:0:0:0:
228,78,181747,1,0,0:0:0:0:
192,95,181967,1,0,0:0:0:0:
192,95,182188,1,0,0:0:0:0:
192,95,182409,1,0,0:0:0:0:
192,95,182629,1,2,0:0:0:0:
