osu file format v14

[General]
AudioFilename: audio.ogg
AudioLeadIn: 0
PreviewTime: 56012
Countdown: 0
SampleSet: Normal
StackLeniency: 0.7
Mode: 1
LetterboxInBreaks: 0
WidescreenStoryboard: 1

[Editor]
Bookmarks: 28226,56460,84696,112931,127049,155284,183520,211314
DistanceSpacing: 0.3
BeatDivisor: 4
GridSize: 16
TimelineZoom: 0.8000057

[Metadata]
Title:Where did you fall
TitleUnicode:Where did you fall
Artist:underscores
ArtistUnicode:underscores
Creator:Ulqui
Version:kantan
Source:
Tags:electronic swing hyper pop hyperpop indie english fishmonger gamelan4 garage
BeatmapID:3651643
BeatmapSetID:1414012

[Difficulty]
HPDrainRate:7
CircleSize:2
OverallDifficulty:3
ApproachRate:10
SliderMultiplier:1.1
SliderTickRate:1

[Events]
//Background and Video events
0,0,"8CCKy8m.jpg",0,-100
//Break Periods
2,54697,56003
2,110476,112473
//Storyboard Layer 0 (Background)
//Storyboard Layer 1 (Fail)
//Storyboard Layer 2 (Pass)
//Storyboard Layer 3 (Foreground)
//Storyboard Layer 4 (Overlay)
//Storyboard Sound Samples

[TimingPoints]
28218,441.176470588235,4,1,0,20,1,0
56416,-83.3333333333333,4,1,0,60,0,0
63070,-83.3333333333333,4,1,0,60,0,1
63291,-83.3333333333333,4,1,0,60,0,0
77188,-83.3333333333333,4,1,0,60,0,1
77409,-83.3333333333333,4,1,0,60,0,0
84661,-83.3333333333333,4,1,0,60,0,0
84688,-71.4285714285714,4,1,0,60,0,0
91306,-71.4285714285714,4,1,0,60,0,1
91526,-71.4285714285714,4,1,0,60,0,0
91719,-71.4285714285714,4,1,0,70,0,0
91747,-66.6666666666667,4,1,0,70,0,0
98769,-62.5,4,1,0,80,0,0
98806,-62.5,4,1,0,80,0,1
105423,-62.5,4,1,0,80,0,0
105644,-58.8235294117647,4,1,0,80,0,1
105837,-58.8235294117647,4,1,0,90,0,1
110497,-58.8235294117647,4,1,0,30,0,1
110717,-100,4,1,0,30,0,0
112445,-90.9090909090909,4,1,0,10,0,0
112887,-90.9090909090909,4,1,0,30,0,0
112923,-90.9090909090909,4,1,0,30,0,0
119955,-90.9090909090909,4,1,0,5,0,0
121692,-100,4,1,0,5,0,0
123456,-111.111111111111,4,1,0,5,0,0
125221,-125,4,1,0,5,0,0
126085,-90.9090909090909,4,1,0,5,0,0
127013,-90.9090909090909,4,1,0,40,0,0
127041,-90.9090909090909,4,1,0,40,0,1
127262,-90.9090909090909,4,1,0,40,0,0
130570,-90.9090909090909,4,1,0,40,0,1
130791,-90.9090909090909,4,1,0,40,0,0
131453,-90.9090909090909,4,1,0,40,0,1
131673,-90.9090909090909,4,1,0,40,0,0
134100,-90.9090909090909,4,1,0,40,0,1
134320,-90.9090909090909,4,1,0,40,0,0
137629,-90.9090909090909,4,1,0,40,0,1
137850,-90.9090909090909,4,1,0,40,0,0
138512,-90.9090909090909,4,1,0,40,0,1
138732,-90.9090909090909,4,1,0,40,0,0
141159,-90.9090909090909,4,1,0,40,0,1
141379,-90.9090909090909,4,1,0,40,0,0
144688,-90.9090909090909,4,1,0,40,0,1
144909,-90.9090909090909,4,1,0,40,0,0
145570,-90.9090909090909,4,1,0,40,0,1
145791,-90.9090909090909,4,1,0,40,0,0
148217,-90.9090909090909,4,1,0,40,0,1
148438,-90.9090909090909,4,1,0,40,0,0
151747,-90.9090909090909,4,1,0,40,0,1
151967,-90.9090909090909,4,1,0,40,0,0
152629,-90.9090909090909,4,1,0,40,0,1
152850,-90.9090909090909,4,1,0,40,0,0
155276,-90.9090909090909,4,1,0,40,0,1
155497,-90.9090909090909,4,1,0,40,0,0
158806,-90.9090909090909,4,1,0,40,0,1
159026,-90.9090909090909,4,1,0,40,0,0
159688,-90.9090909090909,4,1,0,40,0,1
159909,-90.9090909090909,4,1,0,40,0,0
162335,-90.9090909090909,4,1,0,40,0,1
162556,-90.9090909090909,4,1,0,40,0,0
165865,-90.9090909090909,4,1,0,40,0,1
166085,-90.9090909090909,4,1,0,40,0,0
166747,-90.9090909090909,4,1,0,40,0,1
166967,-90.9090909090909,4,1,0,40,0,0
169394,-90.9090909090909,4,1,0,40,0,1
169615,-90.9090909090909,4,1,0,40,0,0
172923,-90.9090909090909,4,1,0,40,0,1
173144,-90.9090909090909,4,1,0,40,0,0
173806,-90.9090909090909,4,1,0,40,0,1
174026,-90.9090909090909,4,1,0,40,0,0
176453,-90.9090909090909,4,1,0,40,0,1
176673,-90.9090909090909,4,1,0,40,0,0
179982,-90.9090909090909,4,1,0,40,0,1
180203,-90.9090909090909,4,1,0,40,0,0
180865,-90.9090909090909,4,1,0,40,0,1
181085,-90.9090909090909,4,1,0,40,0,0

[HitObjects]
140,136,28218,5,0,0:0:0:0:
126,98,28659,1,2,0:0:0:0:
131,148,29100,1,0,0:0:0:0:
131,148,29982,1,2,0:0:0:0:
127,168,31747,1,2,0:0:0:0:
229,87,32188,1,0,0:0:0:0:
127,168,32629,1,2,0:0:0:0:
127,168,33512,1,2,0:0:0:0:
216,100,35276,1,0,0:0:0:0:
216,100,35718,1,2,0:0:0:0:
216,100,36159,1,0,0:0:0:0:
209,102,37041,1,2,0:0:0:0:
216,98,38806,1,2,0:0:0:0:
216,98,39247,1,0,0:0:0:0:
216,98,39688,1,2,0:0:0:0:
216,98,40570,1,2,0:0:0:0:
213,102,42335,1,0,0:0:0:0:
243,78,42776,1,2,0:0:0:0:
195,60,43218,1,0,0:0:0:0:
213,102,44100,1,2,0:0:0:0:
166,75,44541,1,2,0:0:0:0:
214,76,44982,1,2,0:0:0:0:
189,89,45423,1,2,0:0:0:0:
214,76,45865,1,0,0:0:0:0:
216,73,46306,1,2,0:0:0:0:
207,87,46747,1,0,0:0:0:0:
186,100,47629,1,0,0:0:0:0:
186,100,48512,1,2,0:0:0:0:
186,100,49394,1,0,0:0:0:0:
186,100,49835,1,2,0:0:0:0:
186,100,50276,1,0,0:0:0:0:
203,79,51159,1,2,0:0:0:0:
203,79,51600,1,2,0:0:0:0:
203,79,52041,1,2,0:0:0:0:
203,79,52482,1,2,0:0:0:0:
203,79,52923,1,0,0:0:0:0:
203,79,53365,1,2,0:0:0:0:
203,79,53806,1,0,0:0:0:0:
186,86,54247,1,2,0:0:0:0:
131,188,56453,5,0,0:0:0:0:
125,198,56894,1,2,0:0:0:0:
127,205,57335,1,2,0:0:0:0:
127,205,58218,1,0,0:0:0:0:
127,205,58659,1,2,0:0:0:0:
207,71,59100,1,0,0:0:0:0:
170,139,59982,1,0,0:0:0:0:
170,139,60423,1,2,0:0:0:0:
197,88,60865,1,2,0:0:0:0:
170,139,61747,1,0,0:0:0:0:
170,139,63512,1,0,0:0:0:0:
170,139,63953,1,2,0:0:0:0:
214,55,64394,1,2,0:0:0:0:
170,139,65276,1,0,0:0:0:0:
170,139,65718,1,2,0:0:0:0:
193,93,66159,1,0,0:0:0:0:
165,133,67041,1,0,0:0:0:0:
165,133,67482,1,2,0:0:0:0:
196,56,67923,1,2,0:0:0:0:
165,133,68806,1,0,0:0:0:0:
204,111,70570,1,0,0:0:0:0:
204,111,71012,1,2,0:0:0:0:
211,62,71453,1,2,0:0:0:0:
183,133,72335,1,0,0:0:0:0:
183,133,72776,1,2,0:0:0:0:
211,84,73218,1,0,0:0:0:0:
183,133,74100,1,0,0:0:0:0:
183,133,74541,1,2,0:0:0:0:
186,53,74982,1,2,0:0:0:0:
183,133,75865,1,0,0:0:0:0:
183,133,77629,1,0,0:0:0:0:
183,133,78070,1,2,0:0:0:0:
210,63,78512,1,2,0:0:0:0:
183,133,79394,1,0,0:0:0:0:
183,133,79835,1,2,0:0:0:0:
204,48,80276,1,0,0:0:0:0:
183,133,81159,1,0,0:0:0:0:
183,133,81600,1,2,0:0:0:0:
179,57,82041,1,2,0:0:0:0:
183,133,82923,1,0,0:0:0:0:
188,133,84688,1,0,0:0:0:0:
161,314,85570,1,0,0:0:0:0:
225,162,86453,1,0,0:0:0:0:
191,202,87335,1,0,0:0:0:0:
196,144,88218,1,2,0:0:0:0:
198,201,89100,1,2,0:0:0:0:
230,164,89982,1,0,0:0:0:0:
224,144,91747,1,2,0:0:0:0:
210,198,92629,1,0,0:0:0:0:
209,141,93512,1,2,0:0:0:0:
216,195,94394,1,0,0:0:0:0:
204,139,95276,1,2,0:0:0:0:
209,190,96159,1,2,0:0:0:0:
210,139,97041,1,0,0:0:0:0:
214,141,98806,1,0,0:0:0:0:
193,112,99247,1,2,0:0:0:0:
196,114,99688,1,0,0:0:0:0:
196,114,100570,1,0,0:0:0:0:
196,114,101012,1,2,0:0:0:0:
196,114,101453,1,2,0:0:0:0:
224,95,102335,1,2,0:0:0:0:
224,95,102776,1,2,0:0:0:0:
224,95,103217,1,0,0:0:0:0:
224,95,104100,1,2,0:0:0:0:
224,95,104541,1,0,0:0:0:0:
224,95,104982,1,2,0:0:0:0:
224,95,105865,1,2,0:0:0:0:
224,95,106306,1,2,0:0:0:0:
225,102,106747,1,0,0:0:0:0:
246,47,107188,1,2,0:0:0:0:
202,60,107629,1,2,0:0:0:0:
241,61,108512,1,2,0:0:0:0:
241,61,109394,1,2,0:0:0:0:
241,61,109835,1,2,0:0:0:0:
241,61,110276,1,2,0:0:0:0:
160,239,112923,5,0,0:0:0:0:
160,239,113806,1,0,0:0:0:0:
160,239,114688,1,0,0:0:0:0:
160,239,115570,1,2,0:0:0:0:
160,239,116453,1,2,0:0:0:0:
184,117,117335,1,2,0:0:0:0:
184,117,118217,1,2,0:0:0:0:
184,117,119100,1,2,0:0:0:0:
256,192,119982,12,0,126600,0:0:0:0:
179,82,127041,5,4,0:0:0:0:
178,122,127923,1,2,0:0:0:0:
181,144,129688,1,2,0:0:0:0:
181,144,130570,1,4,0:0:0:0:
216,121,131453,1,6,0:0:0:0:
207,121,133217,1,2,0:0:0:0:
207,121,134100,1,4,0:0:0:0:
207,121,134982,1,2,0:0:0:0:
184,123,136747,1,2,0:0:0:0:
184,123,137629,1,4,0:0:0:0:
184,123,138512,1,6,0:0:0:0:
184,119,141159,1,4,0:0:0:0:
184,119,142041,1,2,0:0:0:0:
160,129,143806,1,2,0:0:0:0:
183,119,144688,1,4,0:0:0:0:
183,119,145570,1,6,0:0:0:0:
183,115,147335,1,2,0:0:0:0:
183,115,148217,1,4,0:0:0:0:
183,115,149100,1,2,0:0:0:0:
183,115,150865,1,2,0:0:0:0:
183,115,151747,1,4,0:0:0:0:
183,115,152629,1,6,0:0:0:0:
183,115,154394,1,2,0:0:0:0:
183,115,155276,1,4,0:0:0:0:
196,126,155717,1,2,0:0:0:0:
211,102,156159,1,2,0:0:0:0:
194,122,157482,1,0,0:0:0:0:
194,122,157923,1,2,0:0:0:0:
217,117,158806,1,4,0:0:0:0:
217,117,159688,1,6,0:0:0:0:
215,103,161012,1,0,0:0:0:0:
206,110,161453,1,8,0:0:0:0:
206,110,162335,1,4,0:0:0:0:
190,122,162776,1,8,0:0:0:0:
187,120,163217,1,8,0:0:0:0:
187,121,164541,1,0,0:0:0:0:
187,121,164982,1,8,0:0:0:0:
212,121,165865,1,4,0:0:0:0:
212,121,166747,1,12,0:0:0:0:
176,57,167629,1,0,0:0:0:0:
186,80,168070,1,0,0:0:0:0:
213,145,169394,1,4,0:0:0:0:
213,145,169835,1,2,0:0:0:0:
213,145,170276,1,2,0:0:0:0:
202,144,171600,1,0,0:0:0:0:
202,144,172041,1,2,0:0:0:0:
202,144,172923,1,4,0:0:0:0:
208,147,173806,1,6,0:0:0:0:
216,95,175129,1,0,0:0:0:0:
216,95,175570,1,2,0:0:0:0:
216,106,176453,1,4,0:0:0:0:
216,106,176894,1,2,0:0:0:0:
216,106,177335,1,2,0:0:0:0:
216,106,178659,1,0,0:0:0:0:
216,106,179100,1,2,0:0:0:0:
216,106,179982,1,4,0:0:0:0:
216,106,180865,1,6,0:0:0:0:
221,102,182188,1,0,0:0:0:0:
221,102,182629,1,2,0:0:0:0:
