osu file format v14

[General]
AudioFilename: audio.ogg
AudioLeadIn: 0
PreviewTime: 56012
Countdown: 0
SampleSet: Normal
StackLeniency: 0.7
Mode: 1
LetterboxInBreaks: 0
WidescreenStoryboard: 0

[Editor]
Bookmarks: 28226,56460,84696,112931,127049,155284,183520,211314
DistanceSpacing: 0.3
BeatDivisor: 6
GridSize: 16
TimelineZoom: 3.400004

[Metadata]
Title:Where did you fall
TitleUnicode:Where did you fall
Artist:underscores
ArtistUnicode:underscores
Creator:Ulqui
Version:heartbroken
Source:
Tags:electronic swing hyper pop hyperpop indie english fishmonger gamelan4 garage
BeatmapID:2914571
BeatmapSetID:1414012

[Difficulty]
HPDrainRate:7
CircleSize:2
OverallDifficulty:7
ApproachRate:10
SliderMultiplier:1.2
SliderTickRate:1

[Events]
//Background and Video events
0,0,"8CCKy8m.jpg",0,-100
//Break Periods
2,54697,56003
//Storyboard Layer 0 (Background)
//Storyboard Layer 1 (Fail)
//Storyboard Layer 2 (Pass)
//Storyboard Layer 3 (Foreground)
//Storyboard Layer 4 (Overlay)
//Storyboard Sound Samples

[TimingPoints]
28218,441.176470588235,4,1,0,20,1,0
28218,-80,4,1,0,20,0,0
29982,-71.4285714285714,4,1,0,20,0,0
30093,-71.6612377850163,4,1,0,20,0,0
30166,-71.8954248366013,4,1,0,20,0,0
30240,-72.1311475409836,4,1,0,20,0,0
30313,-72.3684210526316,4,1,0,20,0,0
30387,-72.6072607260726,4,1,0,20,0,0
30460,-72.8476821192053,4,1,0,20,0,0
30534,-73.0897009966777,4,1,0,20,0,0
30607,-73.3333333333333,4,1,0,20,0,0
30681,-73.5785953177258,4,1,0,20,0,0
30754,-73.8255033557047,4,1,0,20,0,0
30828,-74.0740740740741,4,1,0,20,0,0
30901,-74.3243243243243,4,1,0,20,0,0
30975,-74.5762711864407,4,1,0,20,0,0
31048,-74.8299319727891,4,1,0,20,0,0
31122,-75.0853242320819,4,1,0,20,0,0
31195,-75.3424657534246,4,1,0,20,0,0
31269,-75.6013745704467,4,1,0,20,0,0
31343,-75.8620689655172,4,1,0,20,0,0
31416,-76.1245674740484,4,1,0,20,0,0
31490,-76.3888888888889,4,1,0,20,0,0
31563,-76.6550522648084,4,1,0,20,0,0
31637,-76.9230769230769,4,1,0,20,0,0
31747,-80,4,1,0,20,0,0
33512,-71.4285714285714,4,1,0,20,0,0
33622,-71.6612377850163,4,1,0,20,0,0
33695,-71.8954248366013,4,1,0,20,0,0
33769,-72.1311475409836,4,1,0,20,0,0
33842,-72.3684210526316,4,1,0,20,0,0
33916,-72.6072607260726,4,1,0,20,0,0
33989,-72.8476821192053,4,1,0,20,0,0
34063,-73.0897009966777,4,1,0,20,0,0
34136,-73.3333333333333,4,1,0,20,0,0
34210,-73.5785953177258,4,1,0,20,0,0
34283,-73.8255033557047,4,1,0,20,0,0
34357,-74.0740740740741,4,1,0,20,0,0
34430,-74.3243243243243,4,1,0,20,0,0
34504,-74.5762711864407,4,1,0,20,0,0
34577,-74.8299319727891,4,1,0,20,0,0
34651,-75.0853242320819,4,1,0,20,0,0
34724,-75.3424657534246,4,1,0,20,0,0
34798,-66.6666666666667,4,1,0,20,0,0
34872,-75.8620689655172,4,1,0,20,0,0
34945,-76.1245674740484,4,1,0,20,0,0
35019,-76.3888888888889,4,1,0,20,0,0
35092,-76.6550522648084,4,1,0,20,0,0
35166,-76.9230769230769,4,1,0,20,0,0
35276,-80,4,1,0,20,0,0
37041,-71.4285714285714,4,1,0,20,0,0
37151,-71.6612377850163,4,1,0,20,0,0
37224,-71.8954248366013,4,1,0,20,0,0
37298,-72.1311475409836,4,1,0,20,0,0
37371,-72.3684210526316,4,1,0,20,0,0
37445,-72.6072607260726,4,1,0,20,0,0
37518,-72.8476821192053,4,1,0,20,0,0
37592,-73.0897009966777,4,1,0,20,0,0
37665,-73.3333333333333,4,1,0,20,0,0
37739,-73.5785953177258,4,1,0,20,0,0
37812,-73.8255033557047,4,1,0,20,0,0
37886,-74.0740740740741,4,1,0,20,0,0
37959,-74.3243243243243,4,1,0,20,0,0
38033,-74.5762711864407,4,1,0,20,0,0
38106,-74.8299319727891,4,1,0,20,0,0
38180,-75.0853242320819,4,1,0,20,0,0
38253,-75.3424657534246,4,1,0,20,0,0
38327,-75.6013745704467,4,1,0,20,0,0
38401,-75.8620689655172,4,1,0,20,0,0
38474,-76.1245674740484,4,1,0,20,0,0
38548,-76.3888888888889,4,1,0,20,0,0
38621,-76.6550522648084,4,1,0,20,0,0
38695,-76.9230769230769,4,1,0,20,0,0
38806,-80,4,1,0,20,0,0
40570,-71.4285714285714,4,1,0,20,0,0
40681,-71.6612377850163,4,1,0,20,0,0
40754,-71.8954248366013,4,1,0,20,0,0
40828,-72.1311475409836,4,1,0,20,0,0
40901,-72.3684210526316,4,1,0,20,0,0
40975,-72.6072607260726,4,1,0,20,0,0
41048,-72.8476821192053,4,1,0,20,0,0
41122,-73.0897009966777,4,1,0,20,0,0
41195,-73.3333333333333,4,1,0,20,0,0
41269,-73.5785953177258,4,1,0,20,0,0
41342,-73.8255033557047,4,1,0,20,0,0
41416,-74.0740740740741,4,1,0,20,0,0
41489,-74.3243243243243,4,1,0,20,0,0
41563,-74.5762711864407,4,1,0,20,0,0
41636,-74.8299319727891,4,1,0,20,0,0
41710,-75.0853242320819,4,1,0,20,0,0
41783,-75.3424657534246,4,1,0,20,0,0
41857,-75.6013745704467,4,1,0,20,0,0
41931,-75.8620689655172,4,1,0,20,0,0
42004,-76.1245674740484,4,1,0,20,0,0
42078,-76.3888888888889,4,1,0,20,0,0
42151,-76.6550522648084,4,1,0,20,0,0
42225,-76.9230769230769,4,1,0,20,0,0
42335,-58.8235294117647,4,1,0,20,0,0
42740,-59.204440333025,4,1,0,20,0,0
43181,-59.5903165735568,4,1,0,20,0,0
43512,-59.9812558575445,4,1,0,20,0,0
43843,-60.377358490566,4,1,0,20,0,0
43953,-60.7787274453941,4,1,0,20,0,0
44063,-61.1854684512428,4,1,0,20,0,0
44284,-61.5976900866218,4,1,0,20,0,0
44394,-62.015503875969,4,1,0,20,0,0
44504,-62.4390243902439,4,1,0,20,0,0
44725,-62.8683693516699,4,1,0,20,0,0
44835,-63.3036597428289,4,1,0,20,0,0
44945,-63.7450199203187,4,1,0,20,0,0
45166,-64.1925777331996,4,1,0,20,0,0
45276,-64.6464646464647,4,1,0,20,0,0
45387,-65.1068158697864,4,1,0,20,0,0
45534,-65.5737704918033,4,1,0,20,0,0
45607,-66.047471620227,4,1,0,20,0,0
45828,-66.5280665280665,4,1,0,20,0,0
46269,-67.0157068062827,4,1,0,20,0,0
46710,-67.5105485232068,4,1,0,20,0,0
47041,-68.0127523910733,4,1,0,20,0,0
47593,-68.5224839400428,4,1,0,20,0,0
47740,-69.0399137001079,4,1,0,20,0,0
47813,-69.5652173913043,4,1,0,20,0,0
47960,-70.0985761226725,4,1,0,20,0,0
48034,-70.6401766004415,4,1,0,20,0,0
48181,-71.1902113459399,4,1,0,20,0,0
48254,-71.7488789237668,4,1,0,20,0,0
48401,-72.316384180791,4,1,0,20,0,0
48622,-72.8929384965831,4,1,0,20,0,0
48695,-73.4787600459242,4,1,0,20,0,0
48843,-74.0740740740741,4,1,0,20,0,0
48916,-66.6666666666667,4,1,0,20,0,0
48990,-74.6791131855309,4,1,0,20,0,0
49063,-75.2941176470588,4,1,0,20,0,0
49137,-75.9193357058126,4,1,0,20,0,0
49357,-76.555023923445,4,1,0,20,0,0
49798,-77.2014475271411,4,1,0,20,0,0
50240,-77.8588807785888,4,1,0,20,0,0
50570,-78.5276073619632,4,1,0,20,0,0
50901,-79.2079207920792,4,1,0,20,0,0
51012,-79.9001248439451,4,1,0,20,0,0
51122,-80.6045340050378,4,1,0,20,0,0
51343,-81.3214739517154,4,1,0,20,0,0
51453,-82.0512820512821,4,1,0,20,0,0
51563,-82.7943078913325,4,1,0,20,0,0
51673,-83.5509138381201,4,1,0,20,0,0
51784,-84.3214756258234,4,1,0,20,0,0
52004,-85.1063829787234,4,1,0,20,0,0
52115,-85.9060402684564,4,1,0,20,0,0
52225,-86.7208672086721,4,1,0,20,0,0
52445,-87.5512995896033,4,1,0,20,0,0
52593,-88.3977900552486,4,1,0,20,0,0
52666,-89.2608089260809,4,1,0,20,0,0
52887,-90.1408450704225,4,1,0,20,0,0
53034,-91.0384068278805,4,1,0,20,0,0
53254,-91.9540229885058,4,1,0,20,0,0
53328,-92.8882438316401,4,1,0,20,0,0
53475,-93.841642228739,4,1,0,20,0,0
53548,-94.8148148148148,4,1,0,20,0,0
53769,-95.8083832335329,4,1,0,20,0,0
53990,-96.8229954614221,4,1,0,20,0,0
54137,-97.8593272171254,4,1,0,20,0,0
54357,-98.9180834621329,4,1,0,20,0,0
54431,-100,4,1,0,20,0,0
54688,-10,4,1,0,20,0,0
56379,-58.8235294117647,4,1,0,60,0,0
56416,-58.8235294117647,4,1,0,60,0,0
56490,-59.2783505154639,4,1,0,60,0,0
56563,-58.8535149558966,4,1,0,60,0,0
56637,-58.8906993163945,4,1,0,60,0,0
56710,-60.6860158311346,4,1,0,60,0,0
56784,-61.1702127659575,4,1,0,60,0,0
56857,-59.0936068853045,4,1,0,60,0,0
56931,-62.1621621621622,4,1,0,60,0,0
57004,-62.6702997275204,4,1,0,60,0,0
57078,-59.4327698541588,4,1,0,60,0,0
57151,-63.7119113573407,4,1,0,60,0,0
57225,-59.7342183329595,4,1,0,60,0,0
57298,-59.9065451761489,4,1,0,60,0,0
57372,-65.3409090909091,4,1,0,60,0,0
57445,-60.2993338572284,4,1,0,60,0,0
57519,-60.5203018923942,4,1,0,60,0,0
57593,-67.0553935860058,4,1,0,60,0,0
57666,-61.0056453986739,4,1,0,60,0,0
57740,-61.2696936710456,4,1,0,60,0,0
57813,-68.8622754491018,4,1,0,60,0,0
57887,-69.4864048338369,4,1,0,60,0,0
57960,-62.1627794674669,4,1,0,60,0,0
58034,-70.7692307692308,4,1,0,60,0,0
58107,-62.835251787327,4,1,0,60,0,0
58181,-66.1439384013787,4,1,0,60,0,0
58217,-63.1925872944945,4,1,0,60,0,0
58255,-59.2783505154639,4,1,0,60,0,0
58328,-63.964797574335,4,1,0,60,0,0
58402,-64.3692621326686,4,1,0,60,0,0
58475,-60.6860158311346,4,1,0,60,0,0
58549,-61.1702127659575,4,1,0,60,0,0
58622,-65.6886390761556,4,1,0,60,0,0
58696,-62.1621621621622,4,1,0,60,0,0
58769,-62.6702997275204,4,1,0,60,0,0
58843,-67.1430753792185,4,1,0,60,0,0
58916,-63.7119113573407,4,1,0,60,0,0
58990,-68.1924122851695,4,1,0,60,0,0
59063,-68.7438050013435,4,1,0,60,0,0
59137,-69.3027366317744,4,1,0,60,0,0
59210,-69.8843313421045,4,1,0,60,0,0
59284,-70.4726554072166,4,1,0,60,0,0
59358,-67.0553935860058,4,1,0,60,0,0
59431,-71.7003017074587,4,1,0,60,0,0
59505,-72.3394056445423,4,1,0,60,0,0
59578,-68.8622754491018,4,1,0,60,0,0
59652,-73.649096261624,4,1,0,60,0,0
59725,-74.3277345431917,4,1,0,60,0,0
59799,-70.7692307692308,4,1,0,60,0,0
59872,-71.4285714285714,4,1,0,60,0,0
59945,-75.5514113367408,4,1,0,60,0,0
59982,-76.4157310682574,4,1,0,60,0,0
60019,-59.2783505154639,4,1,0,60,0,0
60092,-77.8635456209217,4,1,0,60,0,0
60166,-78.6061963098784,4,1,0,60,0,0
60239,-60.6860158311346,4,1,0,60,0,0
60313,-61.1702127659575,4,1,0,60,0,0
60386,-80.8586287378851,4,1,0,60,0,0
60460,-62.1621621621622,4,1,0,60,0,0
60533,-62.6702997275204,4,1,0,60,0,0
60607,-83.167581772794,4,1,0,60,0,0
60680,-63.7119113573407,4,1,0,60,0,0
60754,-84.7138545320141,4,1,0,60,0,0
60827,-85.4914835453391,4,1,0,60,0,0
60901,-65.3409090909091,4,1,0,60,0,0
60974,-87.0275444411837,4,1,0,60,0,0
61048,-87.7830360459271,4,1,0,60,0,0
61122,-67.0553935860058,4,1,0,60,0,0
61195,-89.2816115377523,4,1,0,60,0,0
61269,-90.0210751454118,4,1,0,60,0,0
61342,-68.8622754491018,4,1,0,60,0,0
61416,-69.4864048338369,4,1,0,60,0,0
61489,-92.1393030769792,4,1,0,60,0,0
61563,-70.7692307692308,4,1,0,60,0,0
61636,-93.4695076938079,4,1,0,60,0,0
61710,-94.1076881356845,4,1,0,60,0,0
61784,-59.2783505154639,4,1,0,60,0,0
61857,-95.3036193839119,4,1,0,60,0,0
61931,-95.8583872365933,4,1,0,60,0,0
62004,-60.6860158311346,4,1,0,60,0,0
62078,-96.8944470672042,4,1,0,60,0,0
62151,-97.3583573586559,4,1,0,60,0,0
62225,-62.1621621621622,4,1,0,60,0,0
62298,-98.1901365361033,4,1,0,60,0,0
62372,-98.5541354285535,4,1,0,60,0,0
62445,-63.7119113573407,4,1,0,60,0,0
62519,-99.162010610414,4,1,0,60,0,0
62592,-99.4047223438228,4,1,0,60,0,0
62666,-99.6094204591124,4,1,0,60,0,0
62739,-99.7698150517383,4,1,0,60,0,0
62813,-99.8896832976739,4,1,0,60,0,0
62887,-67.0553935860058,4,1,0,60,0,0
62960,-99.9985524588878,4,1,0,60,0,0
63070,-40.4858299595142,4,1,0,60,0,1
63107,-68.8622754491018,4,1,0,60,0,1
63181,-69.4864048338369,4,1,0,60,0,1
63254,-70.1219512195122,4,1,0,60,0,1
63291,-70.1219512195122,4,1,0,60,0,0
63328,-70.7692307692308,4,1,0,60,0,0
63401,-71.4285714285714,4,1,0,60,0,0
63475,-58.8235294117647,4,1,0,60,0,0
63549,-59.2783505154639,4,1,0,60,0,0
63622,-58.8535149558966,4,1,0,60,0,0
63696,-58.8906993163945,4,1,0,60,0,0
63769,-60.6860158311346,4,1,0,60,0,0
63843,-61.1702127659575,4,1,0,60,0,0
63916,-59.0936068853045,4,1,0,60,0,0
63990,-62.1621621621622,4,1,0,60,0,0
64063,-62.6702997275204,4,1,0,60,0,0
64137,-59.4309271764604,4,1,0,60,0,0
64210,-63.7119113573407,4,1,0,60,0,0
64284,-59.7319621368188,4,1,0,60,0,0
64357,-59.9065451761489,4,1,0,60,0,0
64431,-65.3409090909091,4,1,0,60,0,0
64504,-60.2993338572284,4,1,0,60,0,0
64578,-60.5203018923942,4,1,0,60,0,0
64652,-67.0553935860058,4,1,0,60,0,0
64725,-61.0056453986739,4,1,0,60,0,0
64799,-61.2696936710456,4,1,0,60,0,0
64872,-68.8622754491018,4,1,0,60,0,0
64946,-69.4864048338369,4,1,0,60,0,0
65019,-62.1627794674669,4,1,0,60,0,0
65093,-70.7692307692308,4,1,0,60,0,0
65166,-62.835251787327,4,1,0,60,0,0
65240,-63.1925872944945,4,1,0,60,0,0
65276,-63.1925872944945,4,1,0,60,0,0
65314,-59.2783505154639,4,1,0,60,0,0
65387,-63.9593651369828,4,1,0,60,0,0
65461,-64.3692621326686,4,1,0,60,0,0
65534,-60.6860158311346,4,1,0,60,0,0
65608,-61.1702127659575,4,1,0,60,0,0
65681,-65.6823482962712,4,1,0,60,0,0
65755,-62.1621621621622,4,1,0,60,0,0
65828,-62.6702997275204,4,1,0,60,0,0
65902,-67.1430753792185,4,1,0,60,0,0
65975,-63.7119113573407,4,1,0,60,0,0
66049,-68.1924122851695,4,1,0,60,0,0
66122,-68.7438050013435,4,1,0,60,0,0
66196,-65.3409090909091,4,1,0,60,0,0
66269,-69.8843313421045,4,1,0,60,0,0
66343,-70.4726554072166,4,1,0,60,0,0
66417,-71.0835761915,4,1,0,60,0,0
66490,-71.7003017074587,4,1,0,60,0,0
66564,-72.3394056445423,4,1,0,60,0,0
66637,-68.8622754491018,4,1,0,60,0,0
66711,-73.649096261624,4,1,0,60,0,0
66784,-74.3184805973526,4,1,0,60,0,0
66858,-70.7692307692308,4,1,0,60,0,0
66931,-71.4285714285714,4,1,0,60,0,0
67004,-76.4157310682574,4,1,0,60,0,0
67041,-76.4157310682574,4,1,0,60,0,0
67078,-59.2783505154639,4,1,0,60,0,0
67151,-77.8635456209217,4,1,0,60,0,0
67225,-78.6061963098784,4,1,0,60,0,0
67298,-60.6860158311346,4,1,0,60,0,0
67372,-61.1702127659575,4,1,0,60,0,0
67445,-80.8586287378851,4,1,0,60,0,0
67519,-62.1621621621622,4,1,0,60,0,0
67592,-62.6702997275204,4,1,0,60,0,0
67666,-83.167581772794,4,1,0,60,0,0
67739,-63.7119113573407,4,1,0,60,0,0
67813,-84.7138545320141,4,1,0,60,0,0
67886,-85.48098787301,4,1,0,60,0,0
67960,-65.3409090909091,4,1,0,60,0,0
68033,-87.0171544248127,4,1,0,60,0,0
68107,-87.7830360459271,4,1,0,60,0,0
68181,-67.0553935860058,4,1,0,60,0,0
68254,-89.2816115377523,4,1,0,60,0,0
68328,-90.0210751454118,4,1,0,60,0,0
68401,-68.8622754491018,4,1,0,60,0,0
68475,-69.4864048338369,4,1,0,60,0,0
68548,-92.1393030769792,4,1,0,60,0,0
68622,-70.7692307692308,4,1,0,60,0,0
68695,-93.4695076938079,4,1,0,60,0,0
68769,-94.1076881356845,4,1,0,60,0,0
68843,-59.2783505154639,4,1,0,60,0,0
68916,-95.3036193839119,4,1,0,60,0,0
68990,-95.8583872365933,4,1,0,60,0,0
69063,-60.6860158311346,4,1,0,60,0,0
69137,-96.8878684703855,4,1,0,60,0,0
69210,-97.3583573586559,4,1,0,60,0,0
69284,-62.1621621621622,4,1,0,60,0,0
69357,-98.1901365361033,4,1,0,60,0,0
69431,-98.5494699082596,4,1,0,60,0,0
69504,-63.7119113573407,4,1,0,60,0,0
69578,-99.162010610414,4,1,0,60,0,0
69651,-99.4047223438228,4,1,0,60,0,0
69725,-99.6094204591124,4,1,0,60,0,0
69798,-99.7698150517383,4,1,0,60,0,0
69872,-99.8896832976739,4,1,0,60,0,0
69946,-67.0553935860058,4,1,0,60,0,0
70019,-99.9985524588878,4,1,0,60,0,0
70093,-68.274878065093,4,1,0,60,0,0
70275,-64.8115761411099,4,1,0,60,0,0
70349,-63.1977910294103,4,1,0,60,0,0
70496,-60.2191814342488,4,1,0,60,0,0
70570,-58.8235307996945,4,1,0,60,0,0
70607,-72.7525779717847,4,1,0,60,0,0
70681,-73.4190953490599,4,1,0,60,0,0
70754,-58.8907197947758,4,1,0,60,0,0
70828,-58.943542936209,4,1,0,60,0,0
70901,-59.0105807713588,4,1,0,60,0,0
70975,-59.0936892778213,4,1,0,60,0,0
71048,-76.9436638565502,4,1,0,60,0,0
71122,-59.3041319844545,4,1,0,60,0,0
71195,-59.431112665024,4,1,0,60,0,0
71269,-79.2256553339534,4,1,0,60,0,0
71343,-59.7322397971943,4,1,0,60,0,0
71416,-59.9068763577438,4,1,0,60,0,0
71490,-81.6471423500177,4,1,0,60,0,0
71563,-60.2997856200837,4,1,0,60,0,0
71637,-60.5177305413928,4,1,0,60,0,0
71710,-84.2213189790911,4,1,0,60,0,0
71784,-61.0028026294144,4,1,0,60,0,0
71857,-61.2704441584247,4,1,0,60,0,0
71931,-86.9630973986691,4,1,0,60,0,0
72004,-87.9171285501319,4,1,0,60,0,0
72078,-62.1638056662852,4,1,0,60,0,0
72151,-89.8893969593934,4,1,0,60,0,0
72225,-62.8364858799559,4,1,0,60,0,0
72298,-66.1451928310788,4,1,0,60,0,0
72335,-63.1939319035447,4,1,0,60,0,0
72371,-72.7525779717847,4,1,0,60,0,0
72445,-63.9609468815537,4,1,0,60,0,0
72518,-64.3709705761714,4,1,0,60,0,0
72592,-74.7894514356323,4,1,0,60,0,0
72665,-65.2329611782909,4,1,0,60,0,0
72739,-65.6844618348051,4,1,0,60,0,0
72812,-76.9436638565502,4,1,0,60,0,0
72886,-66.6406496262189,4,1,0,60,0,0
72959,-67.1456370554828,4,1,0,60,0,0
73033,-79.2256553339534,4,1,0,60,0,0
73107,-68.1952933533646,4,1,0,60,0,0
73180,-68.7392968971396,4,1,0,60,0,0
73254,-69.3059525207946,4,1,0,60,0,0
73327,-69.8877210561513,4,1,0,60,0,0
73401,-70.4762197050944,4,1,0,60,0,0
73474,-84.2213189790911,4,1,0,60,0,0
73548,-71.7042256646019,4,1,0,60,0,0
73621,-72.3435140187322,4,1,0,60,0,0
73695,-86.9630973986691,4,1,0,60,0,0
73768,-73.6535755432686,4,1,0,60,0,0
73842,-74.3231453656749,4,1,0,60,0,0
73915,-89.8893969593934,4,1,0,60,0,0
73989,-75.707247160214,4,1,0,60,0,0
74063,-76.4209558057424,4,1,0,60,0,0
74136,-72.7525779717847,4,1,0,60,0,0
74210,-73.4190953490599,4,1,0,60,0,0
74283,-78.6018698279326,4,1,0,60,0,0
74357,-79.3527435381025,4,1,0,60,0,0
74430,-80.1005788475207,4,1,0,60,0,0
74504,-80.8648993331911,4,1,0,60,0,0
74577,-76.9436638565502,4,1,0,60,0,0
74651,-82.3976813580856,4,1,0,60,0,0
74724,-83.1742926808289,4,1,0,60,0,0
74798,-79.2256553339534,4,1,0,60,0,0
74872,-84.7208078969687,4,1,0,60,0,0
74945,-85.4880431502602,4,1,0,60,0,0
75019,-81.6471423500177,4,1,0,60,0,0
75092,-87.0243714918566,4,1,0,60,0,0
75166,-87.7903100356124,4,1,0,60,0,0
75239,-84.2213189790911,4,1,0,60,0,0
75313,-89.2889435039818,4,1,0,60,0,0
75386,-90.0184917494101,4,1,0,60,0,0
75460,-86.9630973986691,4,1,0,60,0,0
75533,-87.9171285501319,4,1,0,60,0,0
75607,-92.1464966055012,4,1,0,60,0,0
75680,-89.8893969593934,4,1,0,60,0,0
75754,-93.4764867636492,4,1,0,60,0,0
75828,-94.1145191995862,4,1,0,60,0,0
75901,-72.7525779717847,4,1,0,60,0,0
75975,-95.310073221792,4,1,0,60,0,0
76048,-95.8646115543303,4,1,0,60,0,0
76122,-74.7894514356323,4,1,0,60,0,0
76195,-96.8935441405183,4,1,0,60,0,0
76269,-97.3637130169183,4,1,0,60,0,0
76342,-76.9436638565502,4,1,0,60,0,0
76416,-98.1947705812037,4,1,0,60,0,0
76489,-98.553704151946,4,1,0,60,0,0
76563,-79.2256553339534,4,1,0,60,0,0
76637,-99.1617583498638,4,1,0,60,0,0
76710,-99.407588912523,4,1,0,60,0,0
76784,-99.6093020943303,4,1,0,60,0,0
76857,-99.7716534639654,4,1,0,60,0,0
76931,-99.8896497270082,4,1,0,60,0,0
77004,-84.2213189790911,4,1,0,60,0,0
77078,-99.9987004229883,4,1,0,60,0,0
77188,-46.2962962962963,4,1,0,60,0,1
77225,-86.9630973986691,4,1,0,60,0,1
77298,-87.9171285501319,4,1,0,60,0,1
77372,-88.8923243410373,4,1,0,60,0,1
77409,-88.8923243410373,4,1,0,60,0,0
77445,-89.8893969593934,4,1,0,60,0,0
77519,-90.9090909090909,4,1,0,60,0,0
77593,-58.8235307996945,4,1,0,60,0,0
77629,-58.8235307767177,4,1,0,60,0,0
77666,-72.7525779717847,4,1,0,60,0,0
77740,-73.4190953490599,4,1,0,60,0,0
77813,-58.8896072372529,4,1,0,60,0,0
77887,-58.9407535541397,4,1,0,60,0,0
77960,-59.0074823606083,4,1,0,60,0,0
78034,-59.0880085110398,4,1,0,60,0,0
78107,-76.9436638565502,4,1,0,60,0,0
78181,-59.2945553545109,4,1,0,60,0,0
78254,-59.4210356358433,4,1,0,60,0,0
78328,-79.2256553339534,4,1,0,60,0,0
78402,-59.7171555546411,4,1,0,60,0,0
78475,-59.8888846392783,4,1,0,60,0,0
78549,-81.6471423500177,4,1,0,60,0,0
78622,-60.2752435923259,4,1,0,60,0,0
78696,-60.4895501890711,4,1,0,60,0,0
78769,-84.2213189790911,4,1,0,60,0,0
78843,-60.9665134764735,4,1,0,60,0,0
78916,-61.2296751168223,4,1,0,60,0,0
78990,-86.9630973986691,4,1,0,60,0,0
79063,-87.9171285501319,4,1,0,60,0,0
79137,-62.1037722787498,4,1,0,60,0,0
79210,-89.8893969593934,4,1,0,60,0,0
79284,-62.7647391735438,4,1,0,60,0,0
79357,-63.1208899829278,4,1,0,60,0,0
79430,-72.7525779717847,4,1,0,60,0,0
79504,-63.8750230346897,4,1,0,60,0,0
79577,-64.2781637377476,4,1,0,60,0,0
79651,-74.7894514356323,4,1,0,60,0,0
79724,-65.1257015070563,4,1,0,60,0,0
79798,-65.5696458194255,4,1,0,60,0,0
79871,-76.9436638565502,4,1,0,60,0,0
79945,-66.5098762867143,4,1,0,60,0,0
80018,-67.00646783649,4,1,0,60,0,0
80092,-79.2256553339534,4,1,0,60,0,0
80166,-68.0387624691685,4,1,0,60,0,0
80239,-68.573824920769,4,1,0,60,0,0
80313,-81.6471423500177,4,1,0,60,0,0
80386,-69.6956968922683,4,1,0,60,0,0
80460,-70.2825299956952,4,1,0,60,0,0
80533,-70.8756240677123,4,1,0,60,0,0
80607,-71.4909608466447,4,1,0,60,0,0
80680,-72.1116124977634,4,1,0,60,0,0
80754,-86.9630973986691,4,1,0,60,0,0
80827,-73.4100592401905,4,1,0,60,0,0
80901,-74.0695154632452,4,1,0,60,0,0
80974,-89.8893969593934,4,1,0,60,0,0
81048,-75.4332421995731,4,1,0,60,0,0
81122,-76.136756688317,4,1,0,60,0,0
81195,-72.7525779717847,4,1,0,60,0,0
81269,-73.4190953490599,4,1,0,60,0,0
81342,-78.2880683141281,4,1,0,60,0,0
81416,-79.0293665135195,4,1,0,60,0,0
81489,-79.7680221557396,4,1,0,60,0,0
81563,-80.5233593081198,4,1,0,60,0,0
81636,-76.9436638565502,4,1,0,60,0,0
81710,-82.0394781177145,4,1,0,60,0,0
81783,-82.7980050110596,4,1,0,60,0,0
81857,-79.2256553339534,4,1,0,60,0,0
81931,-84.3309706783282,4,1,0,60,0,0
82004,-85.102908476978,4,1,0,60,0,0
82078,-81.6471423500177,4,1,0,60,0,0
82151,-86.6299996700781,4,1,0,60,0,0
82225,-87.3925941897841,4,1,0,60,0,0
82298,-84.2213189790911,4,1,0,60,0,0
82372,-88.887524781172,4,1,0,60,0,0
82445,-89.616822682031,4,1,0,60,0,0
82519,-86.9630973986691,4,1,0,60,0,0
82592,-87.9171285501319,4,1,0,60,0,0
82666,-91.7512828183093,4,1,0,60,0,0
82739,-89.8893969593934,4,1,0,60,0,0
82813,-93.0921705608692,4,1,0,60,0,0
82887,-94.1060502766025,4,1,0,60,0,0
82923,-93.7292623376996,4,1,0,60,0,0
82960,-72.7525779717847,4,1,0,60,0,0
83034,-94.9451281720539,4,1,0,60,0,0
83107,-95.5196546800201,4,1,0,60,0,0
83181,-74.7894514356323,4,1,0,60,0,0
83254,-96.5775370343327,4,1,0,60,0,0
83328,-97.0646609018276,4,1,0,60,0,0
83401,-76.9436638565502,4,1,0,60,0,0
83475,-97.9340849083574,4,1,0,60,0,0
83548,-98.3143389539054,4,1,0,60,0,0
83622,-79.2256553339534,4,1,0,60,0,0
83696,-98.969691152883,4,1,0,60,0,0
83769,-99.2414249564159,4,1,0,60,0,0
83843,-99.4699728706058,4,1,0,60,0,0
83916,-99.6607428173559,4,1,0,60,0,0
83990,-99.8078827168598,4,1,0,60,0,0
84063,-84.2213189790911,4,1,0,60,0,0
84137,-85.1158315446673,4,1,0,60,0,0
84210,-86.0295492799701,4,1,0,10,0,0
84247,-100,4,1,0,10,0,0
84688,-52.6315789473684,4,1,0,60,0,0
84725,-52.9131985731272,4,1,0,60,0,0
84798,-53.1978481769277,4,1,0,60,0,0
84872,-53.4855769230769,4,1,0,60,0,0
84945,-53.7764350453172,4,1,0,60,0,0
85019,-54.0704738760632,4,1,0,60,0,0
85093,-54.3677458766036,4,1,0,60,0,0
85166,-54.6683046683047,4,1,0,60,0,0
85240,-54.9722050648549,4,1,0,60,0,0
85313,-55.2795031055901,4,1,0,60,0,0
85387,-55.5902560899438,4,1,0,60,0,0
85460,-55.9045226130653,4,1,0,60,0,0
85534,-56.2223626026532,4,1,0,60,0,0
85607,-56.5438373570521,4,1,0,60,0,0
85681,-56.8690095846645,4,1,0,60,0,0
85754,-57.1979434447301,4,1,0,60,0,0
85828,-57.5307045895281,4,1,0,60,0,0
85901,-57.8673602080624,4,1,0,60,0,0
85975,-58.2079790712884,4,1,0,60,0,0
86048,-58.5526315789474,4,1,0,60,0,0
86122,-58.9013898080741,4,1,0,60,0,0
86195,-59.254327563249,4,1,0,60,0,0
86269,-59.6115204286671,4,1,0,60,0,0
86343,-59.9730458221024,4,1,0,60,0,0
86416,-60.3389830508475,4,1,0,60,0,0
86490,-60.7094133697135,4,1,0,60,0,0
86563,-61.0844200411805,4,1,0,60,0,0
86637,-61.4640883977901,4,1,0,60,0,0
86710,-61.8485059068798,4,1,0,60,0,0
86784,-62.2377622377622,4,1,0,60,0,0
86857,-62.6319493314567,4,1,0,60,0,0
86931,-63.0311614730878,4,1,0,60,0,0
87004,-63.4354953670706,4,1,0,60,0,0
87078,-63.845050215208,4,1,0,60,0,0
87151,-64.2599277978339,4,1,0,60,0,0
87225,-64.6802325581395,4,1,0,60,0,0
87298,-65.1060716898318,4,1,0,60,0,0
87372,-65.5375552282769,4,1,0,60,0,0
87445,-65.9747961452928,4,1,0,60,0,0
87519,-66.4179104477612,4,1,0,60,0,0
87593,-66.8670172802404,4,1,0,60,0,0
87666,-67.3222390317701,4,1,0,60,0,0
87740,-67.7837014470678,4,1,0,60,0,0
87813,-68.2515337423313,4,1,0,60,0,0
87887,-68.7258687258687,4,1,0,60,0,0
87960,-69.2068429237947,4,1,0,60,0,0
88034,-69.6945967110415,4,1,0,60,0,0
88107,-70.1892744479495,4,1,0,60,0,0
88181,-70.6910246227164,4,1,0,60,0,0
88254,-71.2,4,1,0,60,0,0
88328,-71.7163577759871,4,1,0,60,0,0
88401,-72.2402597402597,4,1,0,60,0,0
88475,-72.7718724448078,4,1,0,60,0,0
88548,-73.3113673805601,4,1,0,60,0,0
88622,-73.8589211618257,4,1,0,60,0,0
88695,-74.4147157190636,4,1,0,60,0,0
88769,-74.9789385004212,4,1,0,60,0,0
88843,-75.5517826825127,4,1,0,60,0,0
88916,-76.1334473909324,4,1,0,60,0,0
88990,-76.7241379310345,4,1,0,60,0,0
89063,-77.3240660295395,4,1,0,60,0,0
89137,-77.9334500875657,4,1,0,60,0,0
89210,-78.5525154457193,4,1,0,60,0,0
89284,-79.1814946619217,4,1,0,60,0,0
89357,-79.8206278026906,4,1,0,60,0,0
89431,-80.4701627486438,4,1,0,60,0,0
89504,-81.130355515041,4,1,0,60,0,0
89578,-81.8014705882353,4,1,0,60,0,0
89651,-82.483781278962,4,1,0,60,0,0
89725,-83.1775700934579,4,1,0,60,0,0
89798,-83.8831291234684,4,1,0,60,0,0
89872,-84.6007604562738,4,1,0,60,0,0
89945,-85.3307766059444,4,1,0,60,0,0
90019,-86.073500967118,4,1,0,60,0,0
90093,-86.8292682926829,4,1,0,60,0,0
90166,-87.5984251968504,4,1,0,60,0,0
90240,-88.3813306852036,4,1,0,60,0,0
90313,-89.1783567134269,4,1,0,60,0,0
90387,-89.989888776542,4,1,0,60,0,0
90460,-90.8163265306122,4,1,0,60,0,0
90534,-91.6580844490216,4,1,0,60,0,0
90607,-92.5155925155925,4,1,0,60,0,0
90681,-93.389296956978,4,1,0,60,0,0
90754,-94.2796610169491,4,1,0,60,0,0
90828,-95.1871657754011,4,1,0,60,0,0
90901,-96.1123110151188,4,1,0,60,0,0
90975,-97.0556161395856,4,1,0,60,0,0
91048,-98.0176211453744,4,1,0,60,0,0
91122,-98.9988876529477,4,1,0,60,0,0
91195,-100,4,1,0,60,0,0
91269,-100,4,1,0,60,0,0
91306,-33.3333333333333,4,1,0,60,0,1
91343,-33.3333333333333,4,1,0,60,0,1
91416,-33.3333333333333,4,1,0,60,0,1
91526,-66.6666666666667,4,1,0,70,0,0
91747,-47.6190476190476,4,1,0,70,0,0
91784,-47.8494623655914,4,1,0,70,0,0
91857,-48.0821177741761,4,1,0,70,0,0
91931,-48.3170466883822,4,1,0,70,0,0
92004,-48.5542825968358,4,1,0,70,0,0
92078,-48.7938596491228,4,1,0,70,0,0
92151,-49.0358126721763,4,1,0,70,0,0
92225,-49.2801771871539,4,1,0,70,0,0
92298,-49.5269894268225,4,1,0,70,0,0
92372,-49.7762863534676,4,1,0,70,0,0
92445,-50.0281056773468,4,1,0,70,0,0
92519,-50.2824858757062,4,1,0,70,0,0
92593,-50.5394662123793,4,1,0,70,0,0
92666,-50.7990867579909,4,1,0,70,0,0
92740,-51.061388410786,4,1,0,70,0,0
92813,-51.3264129181084,4,1,0,70,0,0
92887,-51.5942028985507,4,1,0,70,0,0
92960,-51.8648018648019,4,1,0,70,0,0
93034,-52.1382542472173,4,1,0,70,0,0
93107,-52.414605418139,4,1,0,70,0,0
93181,-52.6939017169923,4,1,0,70,0,0
93254,-52.9761904761905,4,1,0,70,0,0
93328,-53.2615200478755,4,1,0,70,0,0
93401,-53.5499398315283,4,1,0,70,0,0
93475,-53.8415003024803,4,1,0,70,0,0
93548,-54.1362530413625,4,1,0,70,0,0
93622,-54.434250764526,4,1,0,70,0,0
93695,-54.7355473554736,4,1,0,70,0,0
93769,-55.0401978973407,4,1,0,70,0,0
93843,-55.3482587064677,4,1,0,70,0,0
93916,-55.6597873671044,4,1,0,70,0,0
93990,-55.9748427672956,4,1,0,70,0,0
94063,-56.2934851359899,4,1,0,70,0,0
94137,-56.6157760814249,4,1,0,70,0,0
94210,-56.9417786308381,4,1,0,70,0,0
94284,-57.2715572715573,4,1,0,70,0,0
94357,-57.6051779935275,4,1,0,70,0,0
94431,-57.9427083333333,4,1,0,70,0,0
94504,-58.2842174197773,4,1,0,70,0,0
94578,-58.6297760210804,4,1,0,70,0,0
94651,-58.9794565937707,4,1,0,70,0,0
94725,-59.3333333333333,4,1,0,70,0,0
94798,-59.6914822266935,4,1,0,70,0,0
94872,-60.0539811066127,4,1,0,70,0,0
94945,-60.4209097080787,4,1,0,70,0,0
95019,-60.792349726776,4,1,0,70,0,0
95093,-61.1683848797251,4,1,0,70,0,0
95166,-61.5491009681881,4,1,0,70,0,0
95240,-61.9345859429367,4,1,0,70,0,0
95313,-62.3249299719888,4,1,0,70,0,0
95387,-62.7202255109232,4,1,0,70,0,0
95460,-63.1205673758865,4,1,0,70,0,0
95534,-63.5260528194147,4,1,0,70,0,0
95607,-63.9367816091954,4,1,0,70,0,0
95681,-64.352856109906,4,1,0,70,0,0
95754,-64.7743813682678,4,1,0,70,0,0
95828,-65.2014652014652,4,1,0,70,0,0
95901,-65.6342182890856,4,1,0,70,0,0
95975,-66.0727542687454,4,1,0,70,0,0
96048,-66.5171898355755,4,1,0,70,0,0
96122,-66.9676448457487,4,1,0,70,0,0
96195,-67.4242424242424,4,1,0,70,0,0
96269,-67.8871090770404,4,1,0,70,0,0
96343,-68.3563748079877,4,1,0,70,0,0
96416,-68.8321732405259,4,1,0,70,0,0
96490,-69.3146417445483,4,1,0,70,0,0
96563,-69.8039215686274,4,1,0,70,0,0
96637,-70.3001579778831,4,1,0,70,0,0
96710,-70.8035003977725,4,1,0,70,0,0
96784,-71.3141025641026,4,1,0,70,0,0
96857,-71.8321226795803,4,1,0,70,0,0
96931,-72.3577235772358,4,1,0,70,0,0
97004,-72.8910728910729,4,1,0,70,0,0
97078,-73.4323432343234,4,1,0,70,0,0
97151,-73.9817123857024,4,1,0,70,0,0
97225,-74.5393634840871,4,1,0,70,0,0
97298,-75.1054852320675,4,1,0,70,0,0
97372,-75.6802721088435,4,1,0,70,0,0
97445,-76.2639245929734,4,1,0,70,0,0
97519,-76.8566493955095,4,1,0,70,0,0
97593,-77.4586597040905,4,1,0,70,0,0
97666,-78.0701754385965,4,1,0,70,0,0
97740,-78.6914235190097,4,1,0,70,0,0
97813,-79.3226381461676,4,1,0,70,0,0
97887,-79.9640610961366,4,1,0,70,0,0
97960,-80.6159420289855,4,1,0,70,0,0
98034,-81.2785388127854,4,1,0,70,0,0
98107,-81.9521178637201,4,1,0,70,0,0
98181,-82.6369545032498,4,1,0,70,0,0
98254,-83.3333333333333,4,1,0,70,0,0
98365,-66.6666666666667,4,1,0,60,0,0
98475,-66.2251655629139,4,1,0,60,0,0
98548,-65.7894736842105,4,1,0,60,0,0
98695,-65.359477124183,4,1,0,60,0,0
98769,-65.359477124183,4,1,0,80,0,0
98806,-50,4,1,0,80,0,1
98843,-50.0562429696288,4,1,0,80,0,1
98916,-50.1126126126126,4,1,0,80,0,1
98990,-50.1691093573844,4,1,0,80,0,1
99063,-50.2257336343115,4,1,0,80,0,1
99137,-50.2824858757062,4,1,0,80,0,1
99210,-50.3393665158371,4,1,0,80,0,1
99284,-50.39637599094,4,1,0,80,0,1
99357,-50.453514739229,4,1,0,80,0,1
99431,-50.5107832009081,4,1,0,80,0,1
99504,-50.5681818181818,4,1,0,80,0,1
99578,-50.6257110352674,4,1,0,80,0,1
99651,-50.6833712984055,4,1,0,80,0,1
99725,-50.7411630558723,4,1,0,80,0,1
99798,-50.7990867579909,4,1,0,80,0,1
99872,-50.8571428571429,4,1,0,80,0,1
99945,-50.9153318077803,4,1,0,80,0,1
100019,-50.9736540664376,4,1,0,80,0,1
100093,-51.0321100917431,4,1,0,80,0,1
100166,-51.0907003444317,4,1,0,80,0,1
100240,-51.1494252873563,4,1,0,80,0,1
100313,-51.2082853855006,4,1,0,80,0,1
100387,-51.2672811059908,4,1,0,80,0,1
100460,-51.3264129181084,4,1,0,80,0,1
100534,-51.3856812933025,4,1,0,80,0,1
100607,-51.4450867052023,4,1,0,80,0,1
100681,-51.5046296296296,4,1,0,80,0,1
100754,-51.5643105446118,4,1,0,80,0,1
100828,-51.6241299303944,4,1,0,80,0,1
100901,-51.6840882694541,4,1,0,80,0,1
100975,-51.7441860465116,4,1,0,80,0,1
101048,-51.8044237485448,4,1,0,80,0,1
101122,-51.8648018648019,4,1,0,80,0,1
101195,-51.9253208868145,4,1,0,80,0,1
101269,-51.9859813084112,4,1,0,80,0,1
101343,-52.046783625731,4,1,0,80,0,1
101416,-52.1077283372365,4,1,0,80,0,1
101490,-52.168815943728,4,1,0,80,0,1
101563,-52.2300469483568,4,1,0,80,0,1
101637,-52.2914218566392,4,1,0,80,0,1
101710,-52.3529411764706,4,1,0,80,0,1
101784,-52.414605418139,4,1,0,80,0,1
101857,-52.4764150943396,4,1,0,80,0,1
101931,-52.5383707201889,4,1,0,80,0,1
102004,-52.6004728132388,4,1,0,80,0,1
102078,-52.6627218934911,4,1,0,80,0,1
102151,-52.7251184834123,4,1,0,80,0,1
102225,-52.7876631079478,4,1,0,80,0,1
102298,-52.8503562945368,4,1,0,80,0,1
102372,-52.9131985731272,4,1,0,80,0,1
102445,-52.9761904761905,4,1,0,80,0,1
102519,-53.0393325387366,4,1,0,80,0,1
102593,-53.1026252983294,4,1,0,80,0,1
102666,-53.1660692951016,4,1,0,80,0,1
102740,-53.2296650717703,4,1,0,80,0,1
102813,-53.2934131736527,4,1,0,80,0,1
102887,-53.3573141486811,4,1,0,80,0,1
102960,-53.421368547419,4,1,0,80,0,1
103034,-53.4855769230769,4,1,0,80,0,1
103107,-53.5499398315283,4,1,0,80,0,1
103181,-53.6144578313253,4,1,0,80,0,1
103254,-53.6791314837153,4,1,0,80,0,1
103328,-53.743961352657,4,1,0,80,0,1
103401,-53.8089480048368,4,1,0,80,0,1
103475,-53.8740920096852,4,1,0,80,0,1
103548,-53.9393939393939,4,1,0,80,0,1
103622,-54.004854368932,4,1,0,80,0,1
103695,-54.0704738760632,4,1,0,80,0,1
103769,-54.1362530413625,4,1,0,80,0,1
103843,-54.2021924482339,4,1,0,80,0,1
103916,-54.2682926829268,4,1,0,80,0,1
103990,-54.3345543345543,4,1,0,80,0,1
104063,-54.40097799511,4,1,0,80,0,1
104137,-54.4675642594859,4,1,0,80,0,1
104210,-54.5343137254902,4,1,0,80,0,1
104284,-54.601226993865,4,1,0,80,0,1
104357,-54.6683046683047,4,1,0,80,0,1
104431,-54.7355473554736,4,1,0,80,0,1
104504,-54.8029556650246,4,1,0,80,0,1
104578,-54.8705302096178,4,1,0,80,0,1
104651,-54.9382716049383,4,1,0,80,0,1
104725,-55.0061804697157,4,1,0,80,0,1
104798,-55.0742574257426,4,1,0,80,0,1
104872,-55.1425030978934,4,1,0,80,0,1
104945,-55.2109181141439,4,1,0,80,0,1
105019,-55.2795031055901,4,1,0,80,0,1
105093,-55.3482587064677,4,1,0,80,0,1
105166,-55.4171855541719,4,1,0,80,0,1
105240,-55.4862842892768,4,1,0,80,0,1
105313,-55.5555555555556,4,1,0,80,0,1
105423,-33.3333333333333,4,1,0,80,0,0
105644,-62.5,4,1,0,90,0,1
105865,-45.4545454545455,4,1,0,90,0,1
105901,-45.3593859036985,4,1,0,90,0,1
105975,-45.2646239554318,4,1,0,90,0,1
106048,-45.1702571230021,4,1,0,90,0,1
106122,-45.0762829403606,4,1,0,90,0,1
106195,-44.9826989619377,4,1,0,90,0,1
106269,-44.8895027624309,4,1,0,90,0,1
106343,-44.7966919365954,4,1,0,90,0,1
106416,-44.7042640990371,4,1,0,90,0,1
106490,-44.6122168840082,4,1,0,90,0,1
106563,-44.5205479452055,4,1,0,90,0,1
106637,-44.4292549555707,4,1,0,90,0,1
106710,-44.3383356070941,4,1,0,90,0,1
106784,-44.2477876106195,4,1,0,90,0,1
106857,-44.1576086956522,4,1,0,90,0,1
106931,-44.0677966101695,4,1,0,90,0,1
107004,-43.978349120433,4,1,0,90,0,1
107078,-43.8892640108035,4,1,0,90,0,1
107151,-43.800539083558,4,1,0,90,0,1
107225,-43.7121721587088,4,1,0,90,0,1
107298,-43.6241610738255,4,1,0,90,0,1
107372,-43.536503683858,4,1,0,90,0,1
107445,-43.4491978609626,4,1,0,90,0,1
107519,-43.3622414943296,4,1,0,90,0,1
107593,-43.2756324900133,4,1,0,90,0,1
107666,-43.1893687707641,4,1,0,90,0,1
107740,-43.1034482758621,4,1,0,90,0,1
107813,-43.017868960953,4,1,0,90,0,1
107887,-42.9326287978864,4,1,0,90,0,1
107960,-42.847725774555,4,1,0,90,0,1
108034,-42.7631578947368,4,1,0,90,0,1
108107,-42.6789231779383,4,1,0,90,0,1
108181,-42.5950196592398,4,1,0,90,0,1
108254,-42.5114453891432,4,1,0,90,0,1
108328,-42.4281984334204,4,1,0,90,0,1
108401,-42.3452768729642,4,1,0,90,0,1
108475,-42.2626788036411,4,1,0,90,0,1
108548,-42.1804023361454,4,1,0,90,0,1
108622,-42.0984455958549,4,1,0,90,0,1
108695,-42.0168067226891,4,1,0,90,0,1
108769,-41.9354838709677,4,1,0,90,0,1
108843,-41.8544752092724,4,1,0,90,0,1
108916,-41.7737789203085,4,1,0,90,0,1
108990,-41.6933932007697,4,1,0,90,0,1
109063,-41.6133162612036,4,1,0,90,0,1
109137,-41.5335463258786,4,1,0,90,0,1
109210,-41.4540816326531,4,1,0,90,0,1
109284,-41.3749204328453,4,1,0,90,0,1
109357,-41.2960609911055,4,1,0,90,0,1
109431,-41.2175015852885,4,1,0,90,0,1
109504,-41.1392405063291,4,1,0,90,0,1
109578,-41.0612760581175,4,1,0,90,0,1
109651,-40.9836065573771,4,1,0,90,0,1
109725,-40.9062303335431,4,1,0,90,0,1
109798,-40.8291457286432,4,1,0,90,0,1
109872,-40.7523510971787,4,1,0,90,0,1
109945,-40.6758448060075,4,1,0,90,0,1
110019,-40.5996252342286,4,1,0,90,0,1
110092,-40.5236907730673,4,1,0,90,0,1
110166,-40.4480398257623,4,1,0,90,0,1
110240,-40.3726708074534,4,1,0,90,0,1
110313,-40.2975821450713,4,1,0,90,0,1
110387,-40.2227722772277,4,1,0,90,0,1
110460,-40.1482396541075,4,1,0,90,0,1
110534,-40.0739827373613,4,1,0,90,0,1
110607,-25,4,1,0,90,0,1
110717,-25,4,1,0,30,0,0
111159,-100,4,1,0,30,0,0
112445,-100,4,1,0,10,0,0
112887,-33.3333333333333,4,1,0,30,0,0
112923,-45.4545454545455,4,1,0,30,0,0
112960,-45.5840455840456,4,1,0,30,0,0
113034,-45.7142857142857,4,1,0,30,0,0
113107,-45.8452722063037,4,1,0,30,0,0
113181,-45.9770114942529,4,1,0,30,0,0
113254,-46.1095100864553,4,1,0,30,0,0
113328,-46.242774566474,4,1,0,30,0,0
113401,-46.3768115942029,4,1,0,30,0,0
113475,-46.5116279069767,4,1,0,30,0,0
113548,-46.6472303206997,4,1,0,30,0,0
113622,-46.7836257309941,4,1,0,30,0,0
113695,-46.9208211143695,4,1,0,30,0,0
113769,-47.0588235294118,4,1,0,30,0,0
113842,-47.1976401179941,4,1,0,30,0,0
113916,-47.3372781065089,4,1,0,30,0,0
113990,-47.4777448071217,4,1,0,30,0,0
114063,-47.6190476190476,4,1,0,30,0,0
114137,-47.7611940298507,4,1,0,30,0,0
114210,-47.9041916167665,4,1,0,30,0,0
114284,-48.048048048048,4,1,0,30,0,0
114357,-48.1927710843373,4,1,0,30,0,0
114431,-48.3383685800604,4,1,0,30,0,0
114504,-48.4848484848485,4,1,0,30,0,0
114578,-48.6322188449848,4,1,0,30,0,0
114651,-48.780487804878,4,1,0,30,0,0
114725,-48.9296636085627,4,1,0,30,0,0
114798,-49.079754601227,4,1,0,30,0,0
114872,-49.2307692307692,4,1,0,30,0,0
114945,-49.3827160493827,4,1,0,30,0,0
115019,-49.5356037151703,4,1,0,30,0,0
115092,-49.6894409937888,4,1,0,30,0,0
115166,-49.8442367601246,4,1,0,30,0,0
115240,-50,4,1,0,30,0,0
115313,-50.1567398119122,4,1,0,30,0,0
115386,-50.314465408805,4,1,0,30,0,0
115460,-50.4731861198738,4,1,0,30,0,0
115533,-50.6329113924051,4,1,0,30,0,0
115607,-50.7936507936508,4,1,0,30,0,0
115680,-50.9554140127388,4,1,0,30,0,0
115754,-51.1182108626198,4,1,0,30,0,0
115828,-51.2820512820513,4,1,0,30,0,0
115901,-51.4469453376206,4,1,0,30,0,0
115975,-51.6129032258064,4,1,0,30,0,0
116048,-51.7799352750809,4,1,0,30,0,0
116122,-51.9480519480519,4,1,0,30,0,0
116195,-52.1172638436482,4,1,0,30,0,0
116269,-52.2875816993464,4,1,0,30,0,0
116342,-52.4590163934426,4,1,0,30,0,0
116416,-52.6315789473684,4,1,0,30,0,0
116490,-52.8052805280528,4,1,0,30,0,0
116563,-52.9801324503311,4,1,0,30,0,0
116637,-53.156146179402,4,1,0,30,0,0
116710,-53.3333333333333,4,1,0,30,0,0
116784,-53.5117056856187,4,1,0,30,0,0
116857,-53.6912751677852,4,1,0,30,0,0
116931,-53.8720538720539,4,1,0,30,0,0
117005,-54.054054054054,4,1,0,30,0,0
117078,-54.2372881355932,4,1,0,30,0,0
117152,-54.421768707483,4,1,0,30,0,0
117225,-54.6075085324232,4,1,0,30,0,0
117299,-54.7945205479452,4,1,0,30,0,0
117372,-54.9828178694158,4,1,0,30,0,0
117446,-55.1724137931034,4,1,0,30,0,0
117519,-55.363321799308,4,1,0,30,0,0
117593,-55.5555555555556,4,1,0,30,0,0
117666,-55.7491289198606,4,1,0,30,0,0
117739,-55.9440559440559,4,1,0,30,0,0
117813,-56.140350877193,4,1,0,30,0,0
117886,-56.3380281690141,4,1,0,30,0,0
117960,-56.5371024734982,4,1,0,30,0,0
118033,-56.7375886524823,4,1,0,30,0,0
118107,-56.9395017793594,4,1,0,30,0,0
118181,-57.1428571428571,4,1,0,30,0,0
118254,-57.3476702508961,4,1,0,30,0,0
118328,-57.5539568345324,4,1,0,30,0,0
118401,-57.7617328519856,4,1,0,30,0,0
118475,-57.9710144927536,4,1,0,30,0,0
118548,-58.1818181818182,4,1,0,30,0,0
118622,-58.3941605839416,4,1,0,30,0,0
118695,-58.6080586080586,4,1,0,30,0,0
118769,-58.8235294117647,4,1,0,30,0,0
118842,-59.0405904059041,4,1,0,30,0,0
118915,-59.2592592592593,4,1,0,30,0,0
118989,-59.4795539033457,4,1,0,30,0,0
119062,-59.7014925373134,4,1,0,30,0,0
119136,-59.9250936329588,4,1,0,30,0,0
119209,-60.1503759398496,4,1,0,30,0,0
119283,-60.377358490566,4,1,0,30,0,0
119357,-60.6060606060606,4,1,0,30,0,0
119430,-60.8365019011407,4,1,0,30,0,0
119504,-61.0687022900763,4,1,0,30,0,0
119577,-61.3026819923372,4,1,0,30,0,0
119651,-61.5384615384615,4,1,0,30,0,0
119724,-61.7760617760618,4,1,0,30,0,0
119798,-62.015503875969,4,1,0,30,0,0
119871,-62.2568093385214,4,1,0,30,0,0
119945,-62.5,4,1,0,5,0,0
119982,-50,4,1,0,5,0,0
120037,-66.6666666666667,4,1,0,5,0,0
121719,-80,4,1,0,5,0,0
123511,-100,4,1,0,5,0,0
125276,-133.333333333333,4,1,0,5,0,0
126131,-125,4,1,0,40,0,0
126352,-117.647058823529,4,1,0,40,0,0
126572,-111.111111111111,4,1,0,40,0,0
126793,-105.263157894737,4,1,0,40,0,0
127004,-33.3333333333333,4,1,0,40,0,0
127041,-33.3333333333333,4,1,0,40,0,1
127078,-100,4,1,0,40,0,1
127262,-100,4,1,0,40,0,0
127887,-90.9090909090909,4,1,0,40,0,0
127960,-100,4,1,0,40,0,0
129651,-90.9090909090909,4,1,0,40,0,0
129724,-100,4,1,0,40,0,0
130534,-33.3333333333333,4,1,0,40,0,0
130570,-33.3333333333333,4,1,0,40,0,1
130608,-100,4,1,0,40,0,1
130791,-100,4,1,0,40,0,0
131416,-33.3333333333333,4,1,0,40,0,0
131453,-33.3333333333333,4,1,0,40,0,1
131489,-100,4,1,0,40,0,1
131673,-100,4,1,0,40,0,0
133181,-90.9090909090909,4,1,0,40,0,0
133254,-100,4,1,0,40,0,0
134063,-33.3333333333333,4,1,0,40,0,0
134100,-33.3333333333333,4,1,0,40,0,1
134137,-100,4,1,0,40,0,1
134320,-100,4,1,0,40,0,0
134945,-90.9090909090909,4,1,0,40,0,0
135018,-100,4,1,0,40,0,0
136710,-90.9090909090909,4,1,0,40,0,0
136783,-100,4,1,0,40,0,0
137592,-33.3333333333333,4,1,0,40,0,0
137629,-33.3333333333333,4,1,0,40,0,1
137666,-100,4,1,0,40,0,1
137850,-100,4,1,0,40,0,0
138475,-33.3333333333333,4,1,0,40,0,0
138512,-33.3333333333333,4,1,0,40,0,1
138548,-100,4,1,0,40,0,1
138732,-100,4,1,0,40,0,0
141122,-33.3333333333333,4,1,0,40,0,0
141159,-33.3333333333333,4,1,0,40,0,1
141196,-100,4,1,0,40,0,1
141379,-100,4,1,0,40,0,0
142005,-90.9090909090909,4,1,0,40,0,0
142078,-100,4,1,0,40,0,0
143769,-90.9090909090909,4,1,0,40,0,0
143842,-100,4,1,0,40,0,0
144652,-33.3333333333333,4,1,0,40,0,0
144688,-33.3333333333333,4,1,0,40,0,1
144726,-100,4,1,0,40,0,1
144909,-100,4,1,0,40,0,0
145534,-33.3333333333333,4,1,0,40,0,0
145570,-33.3333333333333,4,1,0,40,0,1
145607,-100,4,1,0,40,0,1
145791,-100,4,1,0,40,0,0
147299,-90.9090909090909,4,1,0,40,0,0
147372,-100,4,1,0,40,0,0
148181,-33.3333333333333,4,1,0,40,0,0
148217,-33.3333333333333,4,1,0,40,0,1
148255,-100,4,1,0,40,0,1
148438,-100,4,1,0,40,0,0
149063,-90.9090909090909,4,1,0,40,0,0
149136,-100,4,1,0,40,0,0
150828,-90.9090909090909,4,1,0,40,0,0
150901,-100,4,1,0,40,0,0
151710,-33.3333333333333,4,1,0,40,0,0
151747,-33.3333333333333,4,1,0,40,0,1
151784,-100,4,1,0,40,0,1
151967,-100,4,1,0,40,0,0
152593,-33.3333333333333,4,1,0,40,0,0
152629,-33.3333333333333,4,1,0,40,0,1
152666,-100,4,1,0,40,0,1
152850,-100,4,1,0,40,0,0
154357,-111.111111111111,4,1,0,40,0,0
154431,-111.111111111111,4,1,0,10,0,0
154835,-33.3333333333333,4,1,0,10,0,0
155240,-16.6666666666667,4,1,0,40,0,0
155276,-16.6666666666667,4,1,0,40,0,1
155313,-100,4,1,0,40,0,1
155497,-100,4,1,0,40,0,0
156122,-90.9090909090909,4,1,0,40,0,0
156195,-100,4,1,0,40,0,0
157887,-90.9090909090909,4,1,0,40,0,0
157960,-100,4,1,0,40,0,0
158769,-16.6666666666667,4,1,0,40,0,0
158806,-16.6666666666667,4,1,0,40,0,1
158842,-100,4,1,0,40,0,1
159026,-100,4,1,0,40,0,0
159651,-33.3333333333333,4,1,0,40,0,0
159688,-33.3333333333333,4,1,0,40,0,1
159724,-100,4,1,0,40,0,1
159909,-100,4,1,0,40,0,0
161416,-90.9090909090909,4,1,0,40,0,0
161489,-100,4,1,0,40,0,0
162298,-16.6666666666667,4,1,0,40,0,0
162335,-16.6666666666667,4,1,0,40,0,1
162371,-100,4,1,0,40,0,1
162556,-100,4,1,0,40,0,0
163181,-90.9090909090909,4,1,0,40,0,0
163254,-100,4,1,0,40,0,0
164945,-90.9090909090909,4,1,0,40,0,0
165018,-100,4,1,0,40,0,0
165828,-16.6666666666667,4,1,0,40,0,0
165865,-16.6666666666667,4,1,0,40,0,1
165901,-100,4,1,0,40,0,1
166085,-100,4,1,0,40,0,0
166710,-33.3333333333333,4,1,0,40,0,0
166747,-33.3333333333333,4,1,0,40,0,1
166783,-100,4,1,0,40,0,1
166967,-100,4,1,0,40,0,0
168879,-125,4,1,0,10,0,0
169357,-16.6666666666667,4,1,0,40,0,0
169394,-16.6666666666667,4,1,0,40,0,1
169430,-100,4,1,0,40,0,1
169615,-100,4,1,0,40,0,0
170240,-90.9090909090909,4,1,0,40,0,0
170313,-100,4,1,0,40,0,0
172004,-90.9090909090909,4,1,0,40,0,0
172077,-100,4,1,0,40,0,0
172887,-16.6666666666667,4,1,0,40,0,0
172923,-16.6666666666667,4,1,0,40,0,1
172960,-100,4,1,0,40,0,1
173144,-100,4,1,0,40,0,0
173769,-33.3333333333333,4,1,0,40,0,0
173806,-33.3333333333333,4,1,0,40,0,1
173842,-100,4,1,0,40,0,1
174026,-100,4,1,0,40,0,0
175534,-90.9090909090909,4,1,0,40,0,0
175607,-100,4,1,0,40,0,0
176416,-16.6666666666667,4,1,0,40,0,0
176453,-16.6666666666667,4,1,0,40,0,1
176489,-100,4,1,0,40,0,1
176673,-100,4,1,0,40,0,0
177298,-90.9090909090909,4,1,0,40,0,0
177371,-100,4,1,0,40,0,0
179063,-90.9090909090909,4,1,0,40,0,0
179136,-100,4,1,0,40,0,0
179945,-16.6666666666667,4,1,0,40,0,0
179982,-16.6666666666667,4,1,0,40,0,1
180018,-100,4,1,0,40,0,1
180203,-100,4,1,0,40,0,0
180828,-33.3333333333333,4,1,0,40,0,0
180865,-33.3333333333333,4,1,0,40,0,1
180901,-100,4,1,0,40,0,1
181085,-100,4,1,0,40,0,0
182592,-90.9090909090909,4,1,0,40,0,0
182665,-100,4,1,0,40,0,0

[HitObjects]
162,98,28218,5,0,0:0:0:0:
185,147,28659,1,2,0:0:0:0:
185,147,29100,1,0,0:0:0:0:
185,147,29431,1,2,0:0:0:0:
194,153,29982,1,0,0:0:0:0:
185,147,30129,1,2,0:0:0:0:
185,147,30203,1,0,0:0:0:0:
194,153,30350,1,2,0:0:0:0:
202,74,30423,1,2,0:0:0:0:
202,88,30570,1,0,0:0:0:0:
202,88,30644,1,0,0:0:0:0:
194,153,30865,1,0,0:0:0:0:
170,74,31012,1,2,0:0:0:0:
170,74,31085,1,2,0:0:0:0:
178,86,31232,1,0,0:0:0:0:
178,87,31306,1,0,0:0:0:0:
183,82,31453,1,2,0:0:0:0:
183,82,31526,1,0,0:0:0:0:
194,153,31747,1,0,0:0:0:0:
194,153,32188,1,2,0:0:0:0:
188,108,32629,1,0,0:0:0:0:
188,108,32960,1,2,0:0:0:0:
194,153,33512,1,0,0:0:0:0:
185,147,33659,1,2,0:0:0:0:
185,147,33732,1,0,0:0:0:0:
194,153,33879,1,2,0:0:0:0:
202,74,33953,1,2,0:0:0:0:
202,88,34100,1,0,0:0:0:0:
202,88,34173,1,0,0:0:0:0:
229,56,34320,1,0,0:0:0:0:
170,74,34541,1,2,0:0:0:0:
170,74,34615,1,2,0:0:0:0:
178,86,34762,1,0,0:0:0:0:
178,87,34835,1,2,0:0:0:0:
183,82,34982,1,2,0:0:0:0:
183,82,35056,1,0,0:0:0:0:
201,91,35276,1,0,0:0:0:0:
189,102,35718,1,2,0:0:0:0:
201,91,36159,1,0,0:0:0:0:
202,93,36490,1,2,0:0:0:0:
194,153,37041,1,0,0:0:0:0:
185,147,37188,1,2,0:0:0:0:
185,147,37262,1,0,0:0:0:0:
194,153,37409,1,2,0:0:0:0:
202,74,37482,1,2,0:0:0:0:
202,88,37629,1,0,0:0:0:0:
202,88,37703,1,0,0:0:0:0:
194,153,37923,1,0,0:0:0:0:
170,74,38070,1,2,0:0:0:0:
170,74,38144,1,2,0:0:0:0:
178,86,38291,1,0,0:0:0:0:
178,87,38365,1,0,0:0:0:0:
183,82,38512,1,2,0:0:0:0:
183,82,38585,1,0,0:0:0:0:
218,110,38806,1,0,0:0:0:0:
218,110,39247,1,2,0:0:0:0:
218,110,39688,1,0,0:0:0:0:
218,110,40019,1,2,0:0:0:0:
194,153,40570,1,0,0:0:0:0:
185,147,40717,1,2,0:0:0:0:
185,147,40791,1,0,0:0:0:0:
194,153,40938,1,2,0:0:0:0:
202,74,41012,1,2,0:0:0:0:
202,88,41159,1,0,0:0:0:0:
202,88,41232,1,0,0:0:0:0:
254,84,41379,1,2,0:0:0:0:
194,153,41453,1,0,0:0:0:0:
232,73,41526,1,0,0:0:0:0:
170,74,41600,1,2,0:0:0:0:
170,74,41673,1,2,0:0:0:0:
178,86,41820,1,0,0:0:0:0:
178,87,41894,1,2,0:0:0:0:
218,111,42335,1,0,0:0:0:0:
218,111,42776,1,2,0:0:0:0:
218,111,43218,1,0,0:0:0:0:
218,111,43548,1,2,0:0:0:0:
197,66,43879,1,2,0:0:0:0:
197,66,43990,1,2,0:0:0:0:
184,85,44100,1,2,0:0:0:0:
197,137,44320,1,2,0:0:0:0:
197,138,44431,1,2,0:0:0:0:
197,137,44541,1,2,0:0:0:0:
197,137,44762,1,2,0:0:0:0:
197,137,44872,1,2,0:0:0:0:
197,137,44982,1,2,0:0:0:0:
197,137,45203,1,2,0:0:0:0:
197,138,45313,1,2,0:0:0:0:
197,137,45423,1,2,0:0:0:0:
197,137,45570,1,2,0:0:0:0:
197,137,45644,1,2,0:0:0:0:
160,126,45865,1,0,0:0:0:0:
161,132,46306,1,2,0:0:0:0:
163,133,46747,1,0,0:0:0:0:
161,132,47078,1,2,0:0:0:0:
163,133,47629,1,0,0:0:0:0:
107,167,47776,1,2,0:0:0:0:
116,162,47850,1,0,0:0:0:0:
116,136,47997,1,2,0:0:0:0:
116,137,48070,1,2,0:0:0:0:
139,101,48218,1,0,0:0:0:0:
139,101,48291,1,0,0:0:0:0:
148,104,48438,1,2,0:0:0:0:
165,80,48659,1,2,0:0:0:0:
165,80,48732,1,2,0:0:0:0:
168,94,48879,1,0,0:0:0:0:
157,88,48953,1,2,0:0:0:0:
175,98,49100,1,2,0:0:0:0:
175,98,49173,1,2,0:0:0:0:
168,84,49394,1,0,0:0:0:0:
161,164,49835,1,2,0:0:0:0:
187,109,50276,1,0,0:0:0:0:
190,115,50607,1,2,0:0:0:0:
197,131,50938,1,2,0:0:0:0:
196,131,51048,1,2,0:0:0:0:
197,120,51159,1,2,0:0:0:0:
168,154,51379,1,2,0:0:0:0:
168,154,51490,1,2,0:0:0:0:
168,154,51600,1,2,0:0:0:0:
210,85,51710,1,2,0:0:0:0:
168,154,51820,1,2,0:0:0:0:
168,154,52041,1,2,0:0:0:0:
234,56,52151,1,2,0:0:0:0:
168,154,52262,1,2,0:0:0:0:
168,154,52482,1,2,0:0:0:0:
131,129,52629,1,2,0:0:0:0:
168,154,52703,1,2,0:0:0:0:
202,133,52923,1,2,0:0:0:0:
165,141,53070,1,0,0:0:0:0:
154,120,53291,1,0,0:0:0:0:
156,123,53365,1,2,0:0:0:0:
167,141,53512,1,0,0:0:0:0:
163,141,53585,1,0,0:0:0:0:
165,141,53806,1,2,0:0:0:0:
167,141,54026,1,0,0:0:0:0:
167,141,54173,1,2,0:0:0:0:
186,88,54394,1,0,0:0:0:0:
186,88,54468,1,2,0:0:0:0:
204,136,56453,5,0,0:0:0:0:
190,47,56600,1,0,0:0:0:0:
192,77,56673,1,0,0:0:0:0:
185,81,56894,1,2,0:0:0:0:
212,110,57115,1,0,0:0:0:0:
212,110,57262,1,2,0:0:0:0:
212,106,57335,1,0,0:0:0:0:
196,56,57482,1,2,0:0:0:0:
196,56,57556,1,0,0:0:0:0:
209,50,57703,1,2,0:0:0:0:
209,51,57776,1,2,0:0:0:0:
208,56,57997,1,0,0:0:0:0:
208,56,58144,1,2,0:0:0:0:
208,56,58217,1,0,0:0:0:0:
218,43,58365,1,0,0:0:0:0:
233,98,58438,1,0,0:0:0:0:
177,44,58659,1,2,0:0:0:0:
205,88,58879,1,0,0:0:0:0:
205,88,59026,1,2,0:0:0:0:
205,89,59100,1,0,0:0:0:0:
153,76,59173,1,2,0:0:0:0:
153,76,59247,1,2,0:0:0:0:
153,76,59320,1,2,0:0:0:0:
144,61,59467,1,0,0:0:0:0:
127,59,59541,1,2,0:0:0:0:
182,42,59688,1,2,0:0:0:0:
182,42,59762,1,2,0:0:0:0:
169,70,59982,1,0,0:0:0:0:
179,116,60129,1,0,0:0:0:0:
179,116,60203,1,0,0:0:0:0:
156,131,60423,1,2,0:0:0:0:
157,132,60644,1,0,0:0:0:0:
157,132,60791,1,2,0:0:0:0:
165,63,60865,1,0,0:0:0:0:
165,63,61012,1,2,0:0:0:0:
165,63,61085,1,0,0:0:0:0:
165,63,61232,1,2,0:0:0:0:
165,63,61306,1,2,0:0:0:0:
201,94,61526,1,0,0:0:0:0:
201,94,61673,1,2,0:0:0:0:
201,94,61747,1,0,0:0:0:0:
201,94,61894,1,0,0:0:0:0:
201,94,61967,1,0,0:0:0:0:
189,66,62115,1,2,0:0:0:0:
201,94,62188,1,2,0:0:0:0:
201,94,62335,1,0,0:0:0:0:
201,94,62409,1,0,0:0:0:0:
186,66,62556,1,2,0:0:0:0:
176,72,62629,1,0,0:0:0:0:
174,73,62703,1,0,0:0:0:0:
174,73,62776,1,2,0:0:0:0:
174,73,62850,1,2,0:0:0:0:
193,93,62997,1,0,0:0:0:0:
189,66,63070,1,2,0:0:0:0:
213,84,63291,1,2,0:0:0:0:
207,79,63512,1,0,0:0:0:0:
182,150,63659,1,0,0:0:0:0:
182,150,63732,1,0,0:0:0:0:
182,150,63953,1,2,0:0:0:0:
184,108,64173,1,0,0:0:0:0:
184,108,64320,1,2,0:0:0:0:
184,108,64394,1,0,0:0:0:0:
188,102,64541,1,2,0:0:0:0:
184,108,64615,1,0,0:0:0:0:
121,99,64762,1,2,0:0:0:0:
147,102,64835,1,2,0:0:0:0:
184,108,65056,1,0,0:0:0:0:
184,108,65203,1,2,0:0:0:0:
187,111,65276,1,0,0:0:0:0:
182,50,65423,1,0,0:0:0:0:
182,50,65497,1,0,0:0:0:0:
182,56,65717,1,2,0:0:0:0:
182,58,65938,1,0,0:0:0:0:
182,58,66085,1,2,0:0:0:0:
183,60,66159,1,0,0:0:0:0:
184,71,66306,1,2,0:0:0:0:
184,71,66379,1,0,0:0:0:0:
192,71,66453,1,2,0:0:0:0:
192,71,66526,1,2,0:0:0:0:
192,71,66600,1,2,0:0:0:0:
192,71,66747,1,0,0:0:0:0:
192,72,66820,1,2,0:0:0:0:
192,70,67041,1,0,0:0:0:0:
154,197,67188,1,0,0:0:0:0:
154,197,67262,1,0,0:0:0:0:
154,197,67482,1,2,0:0:0:0:
148,150,67703,1,0,0:0:0:0:
148,150,67850,1,2,0:0:0:0:
158,99,67923,1,0,0:0:0:0:
158,99,68070,1,2,0:0:0:0:
158,99,68144,1,0,0:0:0:0:
158,99,68291,1,2,0:0:0:0:
158,99,68365,1,2,0:0:0:0:
179,118,68585,1,2,0:0:0:0:
179,118,68732,1,0,0:0:0:0:
179,118,68806,1,0,0:0:0:0:
179,119,68953,1,2,0:0:0:0:
179,119,69026,1,0,0:0:0:0:
169,83,69173,1,2,0:0:0:0:
149,96,69247,1,2,0:0:0:0:
163,74,69394,1,0,0:0:0:0:
163,74,69467,1,0,0:0:0:0:
191,70,69615,1,2,0:0:0:0:
191,70,69688,1,0,0:0:0:0:
202,45,69762,1,0,0:0:0:0:
198,109,69835,1,2,0:0:0:0:
215,82,69909,1,2,0:0:0:0:
213,83,70056,1,2,0:0:0:0:
215,82,70129,1,2,0:0:0:0:
190,64,70276,1,0,0:0:0:0:
190,64,70350,1,0,0:0:0:0:
191,70,70497,1,2,0:0:0:0:
204,136,70570,5,0,0:0:0:0:
251,63,70791,1,2,0:0:0:0:
248,67,70865,1,0,0:0:0:0:
251,63,70938,1,0,0:0:0:0:
185,81,71012,1,2,0:0:0:0:
204,84,71159,1,0,0:0:0:0:
212,110,71232,1,0,0:0:0:0:
212,110,71379,1,2,0:0:0:0:
212,106,71453,1,0,0:0:0:0:
196,56,71600,1,2,0:0:0:0:
196,56,71673,1,0,0:0:0:0:
209,50,71820,1,2,0:0:0:0:
209,51,71894,1,2,0:0:0:0:
208,56,72115,1,0,0:0:0:0:
208,56,72262,1,2,0:0:0:0:
208,56,72335,1,0,0:0:0:0:
264,130,72482,1,0,0:0:0:0:
233,98,72556,1,0,0:0:0:0:
191,44,72703,1,2,0:0:0:0:
177,44,72776,1,2,0:0:0:0:
286,98,72923,1,0,0:0:0:0:
205,88,72997,1,0,0:0:0:0:
205,88,73144,1,2,0:0:0:0:
205,89,73217,1,0,0:0:0:0:
252,66,73291,1,2,0:0:0:0:
153,76,73365,1,2,0:0:0:0:
153,76,73438,1,2,0:0:0:0:
144,61,73585,1,2,0:0:0:0:
127,59,73659,1,2,0:0:0:0:
182,42,73806,1,2,0:0:0:0:
182,42,73879,1,2,0:0:0:0:
236,91,74026,1,2,0:0:0:0:
169,70,74100,1,0,0:0:0:0:
212,72,74320,1,2,0:0:0:0:
212,72,74394,1,0,0:0:0:0:
179,116,74467,1,0,0:0:0:0:
156,131,74541,1,2,0:0:0:0:
225,42,74688,1,0,0:0:0:0:
157,132,74762,1,0,0:0:0:0:
157,132,74909,1,2,0:0:0:0:
165,63,74982,1,0,0:0:0:0:
165,63,75129,1,2,0:0:0:0:
165,63,75203,1,0,0:0:0:0:
165,63,75350,1,2,0:0:0:0:
165,63,75423,1,2,0:0:0:0:
201,94,75644,1,0,0:0:0:0:
201,94,75791,1,2,0:0:0:0:
201,94,75865,1,0,0:0:0:0:
201,94,76012,1,0,0:0:0:0:
201,94,76085,1,0,0:0:0:0:
189,66,76232,1,2,0:0:0:0:
201,94,76306,1,2,0:0:0:0:
201,94,76453,1,0,0:0:0:0:
201,94,76526,1,0,0:0:0:0:
186,66,76673,1,2,0:0:0:0:
176,72,76747,1,0,0:0:0:0:
256,38,76820,1,0,0:0:0:0:
174,73,76894,1,0,0:0:0:0:
174,73,76967,1,2,0:0:0:0:
193,93,77115,1,0,0:0:0:0:
189,66,77188,1,2,0:0:0:0:
213,84,77409,1,2,0:0:0:0:
281,120,77556,1,2,0:0:0:0:
207,79,77629,1,0,0:0:0:0:
189,64,77850,1,2,0:0:0:0:
189,64,77923,1,0,0:0:0:0:
182,150,77997,1,0,0:0:0:0:
182,150,78070,1,2,0:0:0:0:
176,56,78217,1,0,0:0:0:0:
184,108,78291,1,0,0:0:0:0:
184,108,78438,1,2,0:0:0:0:
184,108,78512,1,0,0:0:0:0:
188,102,78659,1,2,0:0:0:0:
184,108,78732,1,0,0:0:0:0:
121,99,78879,1,2,0:0:0:0:
147,102,78953,1,2,0:0:0:0:
184,108,79173,1,0,0:0:0:0:
184,108,79320,1,2,0:0:0:0:
187,111,79394,1,0,0:0:0:0:
182,50,79541,1,0,0:0:0:0:
182,50,79615,1,0,0:0:0:0:
192,59,79762,1,2,0:0:0:0:
182,56,79835,1,2,0:0:0:0:
192,61,79982,1,0,0:0:0:0:
182,58,80056,1,0,0:0:0:0:
182,58,80203,1,2,0:0:0:0:
183,60,80276,1,0,0:0:0:0:
184,71,80423,1,2,0:0:0:0:
184,71,80497,1,0,0:0:0:0:
209,28,80570,1,2,0:0:0:0:
192,71,80644,1,2,0:0:0:0:
192,71,80717,1,2,0:0:0:0:
192,71,80865,1,2,0:0:0:0:
192,72,80938,1,2,0:0:0:0:
200,82,81085,1,2,0:0:0:0:
192,70,81159,1,0,0:0:0:0:
177,76,81379,1,2,0:0:0:0:
177,77,81453,1,0,0:0:0:0:
177,77,81526,1,0,0:0:0:0:
154,197,81600,1,2,0:0:0:0:
172,66,81747,1,0,0:0:0:0:
148,150,81820,1,0,0:0:0:0:
148,150,81967,1,2,0:0:0:0:
158,99,82041,1,0,0:0:0:0:
158,99,82188,1,2,0:0:0:0:
158,99,82262,1,0,0:0:0:0:
158,99,82409,1,2,0:0:0:0:
158,99,82482,1,2,0:0:0:0:
179,118,82703,1,2,0:0:0:0:
179,118,82850,1,0,0:0:0:0:
179,118,82923,1,0,0:0:0:0:
179,119,83070,1,2,0:0:0:0:
179,119,83144,1,0,0:0:0:0:
169,83,83291,1,2,0:0:0:0:
149,96,83365,1,2,0:0:0:0:
163,74,83512,1,0,0:0:0:0:
163,74,83585,1,0,0:0:0:0:
191,70,83732,1,2,0:0:0:0:
191,70,83806,1,0,0:0:0:0:
173,65,83879,1,0,0:0:0:0:
198,109,83953,1,0,0:0:0:0:
215,82,84026,1,2,0:0:0:0:
215,82,84247,1,2,0:0:0:0:
190,64,84320,1,0,0:0:0:0:
167,136,84688,1,0,0:0:0:0:
167,136,84835,1,2,0:0:0:0:
167,136,84909,1,0,0:0:0:0:
187,123,85129,1,2,0:0:0:0:
154,105,85350,1,0,0:0:0:0:
154,106,85497,1,2,0:0:0:0:
154,106,85570,1,0,0:0:0:0:
156,110,85717,1,2,0:0:0:0:
197,139,85791,1,0,0:0:0:0:
196,139,85938,1,2,0:0:0:0:
196,140,86012,1,2,0:0:0:0:
197,139,86232,1,2,0:0:0:0:
165,108,86379,1,0,0:0:0:0:
160,102,86453,1,0,0:0:0:0:
172,130,86600,1,2,0:0:0:0:
168,89,86673,1,0,0:0:0:0:
174,114,86894,1,2,0:0:0:0:
181,121,87115,1,0,0:0:0:0:
181,122,87262,1,2,0:0:0:0:
176,80,87335,1,0,0:0:0:0:
180,122,87482,1,2,0:0:0:0:
165,98,87556,1,0,0:0:0:0:
188,85,87629,1,2,0:0:0:0:
176,82,87703,1,2,0:0:0:0:
176,82,87776,1,2,0:0:0:0:
177,91,87923,1,0,0:0:0:0:
177,91,87997,1,2,0:0:0:0:
151,100,88217,1,0,0:0:0:0:
161,108,88365,1,2,0:0:0:0:
161,109,88438,1,0,0:0:0:0:
162,115,88659,1,2,0:0:0:0:
189,154,88879,1,0,0:0:0:0:
189,154,89026,1,2,0:0:0:0:
189,154,89100,1,0,0:0:0:0:
175,117,89247,1,2,0:0:0:0:
175,117,89320,1,0,0:0:0:0:
175,118,89467,1,2,0:0:0:0:
173,121,89541,1,2,0:0:0:0:
178,121,89762,1,2,0:0:0:0:
145,88,89909,1,0,0:0:0:0:
145,88,89982,1,0,0:0:0:0:
146,101,90129,1,2,0:0:0:0:
146,104,90203,1,0,0:0:0:0:
142,99,90423,1,2,0:0:0:0:
170,132,90644,1,0,0:0:0:0:
170,132,90791,1,2,0:0:0:0:
170,132,90865,1,0,0:0:0:0:
205,77,90938,1,0,0:0:0:0:
205,77,91012,1,2,0:0:0:0:
205,77,91085,1,2,0:0:0:0:
212,88,91232,1,0,0:0:0:0:
211,88,91306,1,2,0:0:0:0:
209,100,91526,1,2,0:0:0:0:
167,136,91747,1,0,0:0:0:0:
167,136,91894,1,2,0:0:0:0:
167,136,91967,1,0,0:0:0:0:
187,123,92188,1,2,0:0:0:0:
154,105,92409,1,0,0:0:0:0:
154,106,92556,1,2,0:0:0:0:
154,106,92629,1,0,0:0:0:0:
198,101,92703,1,0,0:0:0:0:
156,110,92776,1,2,0:0:0:0:
197,139,92850,1,0,0:0:0:0:
196,139,92997,1,2,0:0:0:0:
196,140,93070,1,2,0:0:0:0:
213,61,93217,1,0,0:0:0:0:
197,139,93291,1,2,0:0:0:0:
165,108,93438,1,0,0:0:0:0:
160,102,93512,1,0,0:0:0:0:
172,130,93659,1,2,0:0:0:0:
168,89,93732,1,0,0:0:0:0:
174,114,93953,1,2,0:0:0:0:
181,121,94173,1,0,0:0:0:0:
181,122,94320,1,2,0:0:0:0:
176,80,94394,1,0,0:0:0:0:
180,122,94541,1,2,0:0:0:0:
165,98,94615,1,0,0:0:0:0:
188,85,94688,1,2,0:0:0:0:
176,82,94762,1,2,0:0:0:0:
176,82,94835,1,2,0:0:0:0:
177,91,94982,1,0,0:0:0:0:
177,91,95056,1,2,0:0:0:0:
151,100,95276,1,0,0:0:0:0:
161,108,95423,1,2,0:0:0:0:
161,109,95497,1,0,0:0:0:0:
162,115,95717,1,2,0:0:0:0:
189,154,95938,1,0,0:0:0:0:
189,154,96085,1,2,0:0:0:0:
189,154,96159,1,0,0:0:0:0:
218,60,96232,1,0,0:0:0:0:
175,117,96306,1,2,0:0:0:0:
175,117,96379,1,0,0:0:0:0:
175,118,96526,1,2,0:0:0:0:
173,121,96600,1,2,0:0:0:0:
240,59,96747,1,0,0:0:0:0:
178,121,96820,1,2,0:0:0:0:
145,88,96967,1,0,0:0:0:0:
145,88,97041,1,0,0:0:0:0:
146,101,97188,1,2,0:0:0:0:
146,104,97262,1,0,0:0:0:0:
142,99,97482,1,2,0:0:0:0:
170,132,97703,1,0,0:0:0:0:
170,132,97850,1,2,0:0:0:0:
170,132,97923,1,0,0:0:0:0:
205,77,97997,1,0,0:0:0:0:
205,77,98070,1,2,0:0:0:0:
205,77,98144,1,2,0:0:0:0:
212,88,98291,1,0,0:0:0:0:
211,88,98365,1,2,0:0:0:0:
246,91,98512,1,0,0:0:0:0:
209,100,98585,1,0,0:0:0:0:
203,90,98732,1,2,0:0:0:0:
167,136,98806,1,0,0:0:0:0:
167,136,98953,1,2,0:0:0:0:
167,136,99026,1,0,0:0:0:0:
256,115,99100,1,0,0:0:0:0:
256,115,99173,1,0,0:0:0:0:
187,123,99247,1,2,0:0:0:0:
256,115,99394,1,0,0:0:0:0:
154,105,99467,1,2,0:0:0:0:
235,42,99541,1,0,0:0:0:0:
154,106,99615,1,2,0:0:0:0:
154,106,99688,1,0,0:0:0:0:
256,115,99762,1,0,0:0:0:0:
156,110,99835,1,2,0:0:0:0:
197,139,99909,1,0,0:0:0:0:
196,139,100056,1,2,0:0:0:0:
196,140,100129,1,2,0:0:0:0:
223,105,100203,1,0,0:0:0:0:
218,143,100276,1,0,0:0:0:0:
197,139,100350,1,2,0:0:0:0:
165,108,100497,1,0,0:0:0:0:
160,102,100570,1,0,0:0:0:0:
172,130,100717,1,2,0:0:0:0:
168,89,100791,1,0,0:0:0:0:
215,55,100865,1,0,0:0:0:0:
224,123,100938,1,0,0:0:0:0:
174,114,101012,1,2,0:0:0:0:
224,123,101159,1,0,0:0:0:0:
207,81,101232,1,0,0:0:0:0:
181,122,101379,1,2,0:0:0:0:
176,80,101453,1,0,0:0:0:0:
219,70,101526,1,0,0:0:0:0:
180,122,101600,1,2,0:0:0:0:
165,98,101673,1,0,0:0:0:0:
188,85,101747,1,2,0:0:0:0:
176,82,101820,1,2,0:0:0:0:
176,82,101894,1,2,0:0:0:0:
212,43,101968,1,0,0:0:0:0:
177,91,102041,1,0,0:0:0:0:
177,91,102115,1,2,0:0:0:0:
199,140,102262,1,0,0:0:0:0:
151,100,102335,1,0,0:0:0:0:
161,108,102482,1,2,0:0:0:0:
161,109,102556,1,0,0:0:0:0:
188,85,102629,1,0,0:0:0:0:
191,88,102703,1,0,0:0:0:0:
162,115,102776,1,2,0:0:0:0:
191,88,102923,1,0,0:0:0:0:
189,154,102997,1,8,0:0:0:0:
220,66,103070,1,0,0:0:0:0:
189,154,103144,1,2,0:0:0:0:
189,154,103217,1,0,0:0:0:0:
194,98,103291,1,0,0:0:0:0:
175,117,103365,1,2,0:0:0:0:
175,117,103438,1,0,0:0:0:0:
175,118,103585,1,2,0:0:0:0:
173,121,103659,1,2,0:0:0:0:
224,82,103732,1,0,0:0:0:0:
204,133,103806,1,0,0:0:0:0:
178,121,103879,1,2,0:0:0:0:
145,88,104026,1,0,0:0:0:0:
145,88,104100,1,0,0:0:0:0:
146,101,104247,1,2,0:0:0:0:
146,104,104320,1,0,0:0:0:0:
224,82,104394,1,0,0:0:0:0:
196,88,104467,1,0,0:0:0:0:
142,99,104541,1,2,0:0:0:0:
196,88,104688,1,0,0:0:0:0:
170,132,104762,1,2,0:0:0:0:
224,82,104835,1,0,0:0:0:0:
170,132,104909,1,2,0:0:0:0:
170,132,104982,1,0,0:0:0:0:
205,77,105056,1,2,0:0:0:0:
205,77,105129,1,2,0:0:0:0:
205,77,105203,1,0,0:0:0:0:
212,88,105350,1,0,0:0:0:0:
254,101,105423,1,2,0:0:0:0:
192,98,105644,1,2,0:0:0:0:
167,136,105865,1,0,0:0:0:0:
221,72,105938,1,8,0:0:0:0:
167,136,106012,1,2,0:0:0:0:
167,136,106085,1,0,0:0:0:0:
144,112,106159,1,0,0:0:0:0:
153,103,106232,1,0,0:0:0:0:
187,123,106306,1,2,0:0:0:0:
253,74,106379,1,0,0:0:0:0:
144,112,106453,1,0,0:0:0:0:
154,105,106526,1,2,0:0:0:0:
239,61,106600,1,0,0:0:0:0:
154,106,106673,1,2,0:0:0:0:
154,106,106747,1,0,0:0:0:0:
144,112,106820,1,0,0:0:0:0:
156,110,106894,1,2,0:0:0:0:
197,139,106967,1,0,0:0:0:0:
187,98,107041,1,0,0:0:0:0:
196,139,107115,1,2,0:0:0:0:
196,140,107188,1,2,0:0:0:0:
198,99,107262,1,0,0:0:0:0:
144,112,107335,1,0,0:0:0:0:
197,139,107409,1,2,0:0:0:0:
199,99,107482,1,0,0:0:0:0:
165,108,107556,1,0,0:0:0:0:
160,102,107629,1,2,0:0:0:0:
212,48,107703,1,2,0:0:0:0:
172,130,107776,1,0,0:0:0:0:
168,89,107850,1,0,0:0:0:0:
212,125,107923,1,0,0:0:0:0:
144,112,107997,1,0,0:0:0:0:
174,114,108070,1,2,0:0:0:0:
212,48,108144,1,0,0:0:0:0:
144,112,108217,1,0,0:0:0:0:
181,121,108291,1,2,0:0:0:0:
174,32,108365,1,0,0:0:0:0:
181,122,108438,1,2,0:0:0:0:
176,80,108512,1,0,0:0:0:0:
180,40,108585,1,0,0:0:0:0:
180,122,108659,1,2,0:0:0:0:
165,98,108732,1,0,0:0:0:0:
188,85,108806,1,0,0:0:0:0:
176,82,108879,1,2,0:0:0:0:
176,82,108953,1,2,0:0:0:0:
272,71,109026,1,0,0:0:0:0:
177,91,109100,1,0,0:0:0:0:
177,91,109173,1,2,0:0:0:0:
211,74,109247,1,0,0:0:0:0:
144,113,109320,1,0,0:0:0:0:
151,100,109394,1,2,0:0:0:0:
272,71,109468,1,2,0:0:0:0:
161,108,109541,1,0,0:0:0:0:
161,109,109615,1,0,0:0:0:0:
202,83,109688,1,0,0:0:0:0:
144,113,109762,1,0,0:0:0:0:
162,115,109835,1,2,0:0:0:0:
202,45,109909,1,0,0:0:0:0:
144,113,109982,1,0,0:0:0:0:
189,154,110056,1,2,0:0:0:0:
215,40,110129,1,0,0:0:0:0:
189,154,110203,1,2,0:0:0:0:
189,154,110276,1,0,0:0:0:0:
202,83,110350,1,0,0:0:0:0:
175,117,110423,1,2,0:0:0:0:
175,117,110497,1,2,0:0:0:0:
153,158,110607,2,0,L|286:162,1,120
190,100,112482,1,2,0:0:0:0:
198,49,112556,1,0,0:0:0:0:
176,244,112923,1,0,0:0:0:0:
139,168,113070,1,0,0:0:0:0:
139,168,113144,1,0,0:0:0:0:
157,203,113365,1,2,0:0:0:0:
190,124,113585,1,0,0:0:0:0:
190,125,113732,1,0,0:0:0:0:
190,125,113806,1,2,0:0:0:0:
178,102,113953,1,0,0:0:0:0:
178,101,114026,1,0,0:0:0:0:
166,95,114173,1,2,0:0:0:0:
170,102,114467,1,2,0:0:0:0:
170,102,114615,1,2,0:0:0:0:
170,102,114688,1,0,0:0:0:0:
179,76,114835,1,0,0:0:0:0:
176,77,114909,1,0,0:0:0:0:
161,96,115129,1,2,0:0:0:0:
186,84,115350,1,2,0:0:0:0:
170,41,115497,1,0,0:0:0:0:
157,75,115570,1,2,0:0:0:0:
171,72,115717,1,0,0:0:0:0:
176,77,115791,1,0,0:0:0:0:
170,93,116012,1,2,0:0:0:0:
176,244,116453,1,0,0:0:0:0:
139,168,116600,1,0,0:0:0:0:
139,168,116673,1,0,0:0:0:0:
242,176,116820,1,0,0:0:0:0:
157,203,116894,1,2,0:0:0:0:
190,124,117115,1,0,0:0:0:0:
190,125,117262,1,0,0:0:0:0:
190,125,117335,1,2,0:0:0:0:
178,102,117482,1,0,0:0:0:0:
178,101,117556,1,0,0:0:0:0:
166,95,117703,1,2,0:0:0:0:
170,102,117997,1,2,0:0:0:0:
170,102,118144,1,2,0:0:0:0:
170,102,118217,1,0,0:0:0:0:
179,76,118365,1,0,0:0:0:0:
176,77,118438,1,0,0:0:0:0:
233,173,118585,1,0,0:0:0:0:
161,96,118659,1,2,0:0:0:0:
186,84,118879,1,2,0:0:0:0:
170,41,119026,1,0,0:0:0:0:
157,75,119100,1,2,0:0:0:0:
248,130,119173,1,2,0:0:0:0:
171,72,119247,1,0,0:0:0:0:
176,77,119320,1,0,0:0:0:0:
248,130,119467,1,0,0:0:0:0:
170,93,119541,1,2,0:0:0:0:
256,192,119983,12,0,125939,0:0:0:0:
184,154,126159,5,0,0:0:0:0:
184,154,126379,1,8,0:0:0:0:
184,154,126600,1,0,0:0:0:0:
184,154,126820,1,8,0:0:0:0:
187,269,127041,5,4,0:0:0:0:
218,82,127262,1,2,0:0:0:0:
181,114,127409,1,0,0:0:0:0:
176,109,127482,1,0,0:0:0:0:
176,109,127629,1,2,0:0:0:0:
176,109,127703,1,0,0:0:0:0:
241,93,127850,1,2,0:0:0:0:
168,249,127923,1,8,0:0:0:0:
189,56,128144,1,0,0:0:0:0:
197,56,128291,1,2,0:0:0:0:
194,107,128365,1,2,0:0:0:0:
191,112,128512,1,0,0:0:0:0:
181,120,128585,1,2,0:0:0:0:
193,130,128732,1,0,0:0:0:0:
193,130,128806,1,0,0:0:0:0:
173,115,128953,1,2,0:0:0:0:
173,117,129026,1,0,0:0:0:0:
170,88,129173,1,2,0:0:0:0:
170,89,129247,1,0,0:0:0:0:
170,89,129394,1,2,0:0:0:0:
170,90,129467,1,0,0:0:0:0:
187,192,129688,1,8,0:0:0:0:
179,77,129909,1,0,0:0:0:0:
181,84,130056,1,2,0:0:0:0:
181,85,130129,1,2,0:0:0:0:
181,85,130276,1,0,0:0:0:0:
181,85,130350,1,0,0:0:0:0:
176,228,130570,1,4,0:0:0:0:
211,91,130791,1,2,0:0:0:0:
210,92,130938,1,0,0:0:0:0:
210,92,131012,1,2,0:0:0:0:
175,119,131159,1,2,0:0:0:0:
176,62,131232,1,0,0:0:0:0:
269,168,131453,1,6,0:0:0:0:
211,91,131673,1,0,0:0:0:0:
210,92,131820,1,2,0:0:0:0:
210,92,131894,1,0,0:0:0:0:
211,91,132041,1,2,0:0:0:0:
211,91,132115,1,2,0:0:0:0:
189,93,132262,1,0,0:0:0:0:
189,93,132335,1,0,0:0:0:0:
186,98,132482,1,2,0:0:0:0:
186,98,132556,1,0,0:0:0:0:
186,98,132703,1,2,0:0:0:0:
186,98,132776,1,0,0:0:0:0:
190,79,132923,1,2,0:0:0:0:
189,80,132997,1,0,0:0:0:0:
229,187,133217,1,8,0:0:0:0:
197,61,133438,1,0,0:0:0:0:
194,64,133585,1,2,0:0:0:0:
190,92,133659,1,2,0:0:0:0:
189,92,133806,1,0,0:0:0:0:
189,92,133879,1,0,0:0:0:0:
231,180,134100,1,4,0:0:0:0:
259,119,134320,1,2,0:0:0:0:
259,119,134467,1,0,0:0:0:0:
259,119,134541,1,0,0:0:0:0:
205,93,134688,1,2,0:0:0:0:
205,93,134762,1,0,0:0:0:0:
116,90,134909,1,2,0:0:0:0:
231,180,134982,1,8,0:0:0:0:
205,93,135203,1,0,0:0:0:0:
205,93,135350,1,2,0:0:0:0:
116,90,135423,1,2,0:0:0:0:
122,97,135570,1,0,0:0:0:0:
122,98,135644,1,2,0:0:0:0:
123,100,135791,1,0,0:0:0:0:
122,99,135865,1,0,0:0:0:0:
125,104,136012,1,2,0:0:0:0:
125,104,136085,1,0,0:0:0:0:
125,105,136232,1,2,0:0:0:0:
125,105,136306,1,2,0:0:0:0:
186,69,136453,1,0,0:0:0:0:
166,71,136526,1,0,0:0:0:0:
224,183,136747,1,8,0:0:0:0:
190,83,136967,1,0,0:0:0:0:
190,84,137115,1,2,0:0:0:0:
187,87,137188,1,2,0:0:0:0:
171,89,137335,1,0,0:0:0:0:
171,89,137409,1,2,0:0:0:0:
224,183,137629,1,4,0:0:0:0:
169,111,137850,1,2,0:0:0:0:
167,112,137997,1,0,0:0:0:0:
167,112,138070,1,2,0:0:0:0:
166,114,138217,1,2,0:0:0:0:
166,114,138291,1,0,0:0:0:0:
224,183,138512,1,12,0:0:0:0:
175,115,138732,1,0,0:0:0:0:
170,121,138879,1,2,0:0:0:0:
170,121,138953,1,2,0:0:0:0:
172,93,139100,1,0,0:0:0:0:
166,95,139173,1,2,0:0:0:0:
172,64,139320,1,0,0:0:0:0:
172,64,139394,1,0,0:0:0:0:
172,65,139541,1,2,0:0:0:0:
172,66,139615,1,0,0:0:0:0:
170,68,139762,1,2,0:0:0:0:
155,79,139835,1,0,0:0:0:0:
157,50,139982,1,2,0:0:0:0:
157,52,140056,1,0,0:0:0:0:
187,269,141159,5,4,0:0:0:0:
218,82,141379,1,2,0:0:0:0:
181,114,141526,1,0,0:0:0:0:
176,109,141600,1,0,0:0:0:0:
176,109,141747,1,2,0:0:0:0:
176,109,141820,1,0,0:0:0:0:
241,93,141967,1,2,0:0:0:0:
168,249,142041,1,8,0:0:0:0:
189,56,142262,1,0,0:0:0:0:
197,56,142409,1,2,0:0:0:0:
194,107,142482,1,2,0:0:0:0:
191,112,142629,1,0,0:0:0:0:
181,120,142703,1,2,0:0:0:0:
193,130,142850,1,2,0:0:0:0:
193,130,142923,1,0,0:0:0:0:
256,98,142997,1,0,0:0:0:0:
173,115,143070,1,2,0:0:0:0:
173,117,143144,1,0,0:0:0:0:
170,88,143291,1,2,0:0:0:0:
170,89,143365,1,0,0:0:0:0:
170,89,143512,1,2,0:0:0:0:
170,90,143585,1,0,0:0:0:0:
187,192,143806,1,8,0:0:0:0:
179,77,144026,1,0,0:0:0:0:
181,84,144173,1,2,0:0:0:0:
181,85,144247,1,2,0:0:0:0:
181,85,144394,1,0,0:0:0:0:
181,85,144467,1,0,0:0:0:0:
176,228,144688,1,4,0:0:0:0:
211,91,144909,1,2,0:0:0:0:
210,92,145056,1,0,0:0:0:0:
210,92,145129,1,2,0:0:0:0:
175,119,145276,1,2,0:0:0:0:
176,62,145350,1,0,0:0:0:0:
269,168,145570,1,6,0:0:0:0:
211,91,145791,1,0,0:0:0:0:
210,92,145938,1,2,0:0:0:0:
210,92,146012,1,0,0:0:0:0:
211,91,146159,1,2,0:0:0:0:
211,91,146232,1,2,0:0:0:0:
189,93,146379,1,0,0:0:0:0:
189,93,146453,1,0,0:0:0:0:
211,98,146526,1,2,0:0:0:0:
186,98,146600,1,2,0:0:0:0:
186,98,146673,1,0,0:0:0:0:
186,98,146820,1,2,0:0:0:0:
186,98,146894,1,0,0:0:0:0:
190,79,147041,1,2,0:0:0:0:
189,80,147115,1,0,0:0:0:0:
229,187,147335,1,8,0:0:0:0:
197,61,147556,1,0,0:0:0:0:
194,64,147703,1,2,0:0:0:0:
190,92,147776,1,2,0:0:0:0:
189,92,147923,1,0,0:0:0:0:
189,92,147997,1,0,0:0:0:0:
231,180,148217,1,4,0:0:0:0:
259,119,148438,1,2,0:0:0:0:
259,119,148585,1,0,0:0:0:0:
259,119,148659,1,0,0:0:0:0:
205,93,148806,1,2,0:0:0:0:
205,93,148879,1,0,0:0:0:0:
116,90,149026,1,2,0:0:0:0:
231,180,149100,1,8,0:0:0:0:
205,93,149320,1,0,0:0:0:0:
205,93,149467,1,2,0:0:0:0:
116,90,149541,1,2,0:0:0:0:
122,97,149688,1,0,0:0:0:0:
122,98,149762,1,2,0:0:0:0:
123,100,149909,1,2,0:0:0:0:
181,64,149982,1,0,0:0:0:0:
177,57,150056,1,0,0:0:0:0:
125,104,150129,1,2,0:0:0:0:
125,104,150203,1,0,0:0:0:0:
125,105,150350,1,2,0:0:0:0:
125,105,150423,1,2,0:0:0:0:
186,69,150570,1,0,0:0:0:0:
166,71,150644,1,0,0:0:0:0:
224,183,150865,1,8,0:0:0:0:
190,83,151085,1,0,0:0:0:0:
190,84,151232,1,2,0:0:0:0:
187,87,151306,1,2,0:0:0:0:
171,89,151453,1,0,0:0:0:0:
171,89,151526,1,2,0:0:0:0:
224,183,151747,1,4,0:0:0:0:
169,111,151967,1,2,0:0:0:0:
167,112,152115,1,0,0:0:0:0:
167,112,152188,1,2,0:0:0:0:
166,114,152335,1,2,0:0:0:0:
166,114,152409,1,0,0:0:0:0:
224,183,152629,1,12,0:0:0:0:
175,115,152850,1,0,0:0:0:0:
170,121,152997,1,2,0:0:0:0:
170,121,153070,1,2,0:0:0:0:
172,93,153217,1,0,0:0:0:0:
166,95,153291,1,2,0:0:0:0:
172,64,153438,1,0,0:0:0:0:
172,64,153512,1,0,0:0:0:0:
233,105,153585,1,2,0:0:0:0:
172,65,153659,1,2,0:0:0:0:
172,66,153732,1,0,0:0:0:0:
170,68,153879,1,2,0:0:0:0:
155,79,153953,1,0,0:0:0:0:
157,50,154100,1,2,0:0:0:0:
157,52,154173,1,0,0:0:0:0:
206,130,154394,1,2,0:0:0:0:
206,130,154467,1,0,0:0:0:0:
83,109,154835,1,2,0:0:0:0:
224,204,155276,1,4,0:0:0:0:
218,210,155423,1,2,0:0:0:0:
212,185,155497,1,0,0:0:0:0:
157,115,155717,1,2,0:0:0:0:
193,89,155865,1,0,0:0:0:0:
173,130,155938,1,0,0:0:0:0:
173,130,156085,1,0,0:0:0:0:
148,24,156159,1,2,0:0:0:0:
157,115,156306,1,0,0:0:0:0:
152,121,156379,1,0,0:0:0:0:
144,67,156526,1,2,0:0:0:0:
162,61,156600,1,0,0:0:0:0:
165,87,156820,1,0,0:0:0:0:
165,87,156967,1,2,0:0:0:0:
168,80,157041,1,0,0:0:0:0:
149,101,157188,1,0,0:0:0:0:
149,102,157262,1,0,0:0:0:0:
168,103,157409,1,2,0:0:0:0:
168,103,157482,1,2,0:0:0:0:
180,113,157629,1,0,0:0:0:0:
180,113,157703,1,0,0:0:0:0:
176,66,157850,1,0,0:0:0:0:
186,71,157923,1,2,0:0:0:0:
175,77,158070,1,0,0:0:0:0:
176,79,158144,1,2,0:0:0:0:
233,130,158217,1,2,0:0:0:0:
175,96,158291,1,2,0:0:0:0:
175,97,158365,1,0,0:0:0:0:
149,88,158512,1,2,0:0:0:0:
149,88,158585,1,2,0:0:0:0:
186,71,158806,1,4,0:0:0:0:
166,88,158953,1,2,0:0:0:0:
141,29,159026,1,2,0:0:0:0:
170,193,159173,1,0,0:0:0:0:
163,88,159247,1,2,0:0:0:0:
203,73,159394,1,0,0:0:0:0:
203,75,159467,1,0,0:0:0:0:
198,82,159688,1,6,0:0:0:0:
261,41,159835,1,0,0:0:0:0:
201,101,159909,1,0,0:0:0:0:
201,101,160056,1,2,0:0:0:0:
203,63,160276,1,0,0:0:0:0:
202,66,160350,1,2,0:0:0:0:
202,70,160497,1,0,0:0:0:0:
202,70,160570,1,0,0:0:0:0:
213,89,160717,1,0,0:0:0:0:
213,90,160791,1,2,0:0:0:0:
213,121,160938,1,2,0:0:0:0:
213,121,161012,1,2,0:0:0:0:
203,105,161159,1,2,0:0:0:0:
203,106,161232,1,0,0:0:0:0:
184,71,161379,1,0,0:0:0:0:
186,71,161453,1,2,0:0:0:0:
204,88,161600,1,0,0:0:0:0:
204,88,161673,1,2,0:0:0:0:
229,96,161747,1,2,0:0:0:0:
227,96,161820,1,0,0:0:0:0:
227,96,161894,1,2,0:0:0:0:
207,79,162041,1,2,0:0:0:0:
207,79,162115,1,0,0:0:0:0:
224,204,162335,1,4,0:0:0:0:
218,210,162482,1,2,0:0:0:0:
212,185,162556,1,0,0:0:0:0:
157,115,162776,1,2,0:0:0:0:
193,89,162923,1,0,0:0:0:0:
173,130,162997,1,0,0:0:0:0:
173,130,163144,1,0,0:0:0:0:
148,24,163217,1,2,0:0:0:0:
157,115,163365,1,0,0:0:0:0:
152,121,163438,1,0,0:0:0:0:
144,67,163585,1,2,0:0:0:0:
162,61,163659,1,0,0:0:0:0:
165,87,163879,1,0,0:0:0:0:
165,87,164026,1,2,0:0:0:0:
168,80,164100,1,0,0:0:0:0:
149,101,164247,1,0,0:0:0:0:
149,102,164320,1,0,0:0:0:0:
168,103,164467,1,2,0:0:0:0:
168,103,164541,1,2,0:0:0:0:
180,113,164688,1,0,0:0:0:0:
180,113,164762,1,0,0:0:0:0:
176,66,164909,1,0,0:0:0:0:
186,71,164982,1,2,0:0:0:0:
175,77,165129,1,0,0:0:0:0:
176,79,165203,1,2,0:0:0:0:
199,88,165276,1,2,0:0:0:0:
175,96,165350,1,2,0:0:0:0:
175,97,165423,1,0,0:0:0:0:
149,88,165570,1,2,0:0:0:0:
149,88,165644,1,2,0:0:0:0:
186,71,165865,1,4,0:0:0:0:
166,88,166012,1,2,0:0:0:0:
141,29,166085,1,2,0:0:0:0:
170,193,166232,1,0,0:0:0:0:
163,88,166306,1,2,0:0:0:0:
203,73,166453,1,0,0:0:0:0:
203,75,166526,1,0,0:0:0:0:
198,82,166747,1,6,0:0:0:0:
261,41,166894,1,0,0:0:0:0:
201,101,166967,1,0,0:0:0:0:
201,101,167115,1,2,0:0:0:0:
203,63,167335,1,0,0:0:0:0:
202,66,167409,1,2,0:0:0:0:
202,70,167556,1,0,0:0:0:0:
202,70,167629,1,0,0:0:0:0:
213,89,167776,1,0,0:0:0:0:
213,90,167850,1,2,0:0:0:0:
213,121,167997,1,2,0:0:0:0:
213,121,168070,1,2,0:0:0:0:
203,105,168217,1,2,0:0:0:0:
203,106,168291,1,0,0:0:0:0:
184,71,168438,1,0,0:0:0:0:
272,57,168953,1,2,0:0:0:0:
224,204,169394,1,4,0:0:0:0:
218,210,169541,1,2,0:0:0:0:
212,185,169615,1,0,0:0:0:0:
157,115,169835,1,2,0:0:0:0:
193,89,169982,1,0,0:0:0:0:
173,130,170056,1,0,0:0:0:0:
173,130,170203,1,0,0:0:0:0:
148,24,170276,1,2,0:0:0:0:
157,115,170423,1,0,0:0:0:0:
152,121,170497,1,0,0:0:0:0:
144,67,170644,1,2,0:0:0:0:
162,61,170717,1,0,0:0:0:0:
165,87,170938,1,0,0:0:0:0:
165,87,171085,1,2,0:0:0:0:
168,80,171159,1,0,0:0:0:0:
271,96,171232,1,0,0:0:0:0:
149,101,171306,1,0,0:0:0:0:
149,102,171379,1,0,0:0:0:0:
168,103,171526,1,2,0:0:0:0:
168,103,171600,1,2,0:0:0:0:
180,113,171747,1,0,0:0:0:0:
180,113,171820,1,0,0:0:0:0:
176,66,171967,1,0,0:0:0:0:
186,71,172041,1,2,0:0:0:0:
175,77,172188,1,0,0:0:0:0:
176,79,172262,1,2,0:0:0:0:
252,106,172335,5,2,0:0:0:0:
175,96,172409,1,2,0:0:0:0:
175,97,172482,1,0,0:0:0:0:
149,88,172629,1,2,0:0:0:0:
149,88,172703,1,2,0:0:0:0:
186,71,172923,1,4,0:0:0:0:
166,88,173070,1,2,0:0:0:0:
141,29,173144,1,2,0:0:0:0:
170,193,173291,1,0,0:0:0:0:
163,88,173365,1,2,0:0:0:0:
203,73,173512,1,0,0:0:0:0:
203,75,173585,1,0,0:0:0:0:
198,82,173806,1,6,0:0:0:0:
261,41,173953,1,0,0:0:0:0:
201,101,174026,1,0,0:0:0:0:
201,101,174173,1,2,0:0:0:0:
203,63,174394,1,0,0:0:0:0:
202,66,174467,1,2,0:0:0:0:
202,70,174615,1,0,0:0:0:0:
202,70,174688,1,0,0:0:0:0:
256,54,174762,1,0,0:0:0:0:
213,89,174835,1,0,0:0:0:0:
213,90,174909,1,2,0:0:0:0:
213,121,175056,1,2,0:0:0:0:
213,121,175129,1,2,0:0:0:0:
203,105,175276,1,2,0:0:0:0:
203,106,175350,1,0,0:0:0:0:
184,71,175497,1,0,0:0:0:0:
186,71,175570,1,2,0:0:0:0:
204,88,175717,1,0,0:0:0:0:
204,88,175791,1,2,0:0:0:0:
229,96,175865,1,2,0:0:0:0:
227,96,175938,1,0,0:0:0:0:
227,96,176012,1,2,0:0:0:0:
207,79,176159,1,2,0:0:0:0:
207,79,176232,1,0,0:0:0:0:
224,204,176453,1,4,0:0:0:0:
218,210,176600,1,2,0:0:0:0:
212,185,176673,1,0,0:0:0:0:
157,115,176894,1,2,0:0:0:0:
193,89,177041,1,0,0:0:0:0:
173,130,177115,1,0,0:0:0:0:
173,130,177262,1,0,0:0:0:0:
148,24,177335,1,2,0:0:0:0:
157,115,177482,1,0,0:0:0:0:
152,121,177556,1,0,0:0:0:0:
144,67,177703,1,2,0:0:0:0:
162,61,177776,1,0,0:0:0:0:
165,87,177997,1,0,0:0:0:0:
165,87,178144,1,2,0:0:0:0:
168,80,178217,1,0,0:0:0:0:
240,79,178291,1,0,0:0:0:0:
149,101,178365,1,0,0:0:0:0:
149,102,178438,1,0,0:0:0:0:
168,103,178585,1,2,0:0:0:0:
168,103,178659,1,2,0:0:0:0:
180,113,178806,1,0,0:0:0:0:
180,113,178879,1,0,0:0:0:0:
176,66,179026,1,0,0:0:0:0:
186,71,179100,1,2,0:0:0:0:
175,77,179247,1,0,0:0:0:0:
176,79,179320,1,2,0:0:0:0:
229,73,179394,1,2,0:0:0:0:
175,96,179467,1,2,0:0:0:0:
175,97,179541,1,0,0:0:0:0:
149,88,179688,1,2,0:0:0:0:
149,88,179762,1,2,0:0:0:0:
186,71,179982,1,4,0:0:0:0:
166,88,180129,1,2,0:0:0:0:
141,29,180203,1,2,0:0:0:0:
170,193,180350,1,0,0:0:0:0:
163,88,180423,1,2,0:0:0:0:
203,73,180570,1,0,0:0:0:0:
203,75,180644,1,0,0:0:0:0:
198,82,180865,1,6,0:0:0:0:
261,41,181012,1,0,0:0:0:0:
201,101,181085,1,0,0:0:0:0:
201,101,181232,1,2,0:0:0:0:
203,63,181453,1,0,0:0:0:0:
202,66,181526,1,2,0:0:0:0:
202,70,181673,1,0,0:0:0:0:
202,70,181747,1,0,0:0:0:0:
245,80,181820,1,0,0:0:0:0:
213,89,181894,1,0,0:0:0:0:
213,90,181967,1,2,0:0:0:0:
213,121,182115,1,2,0:0:0:0:
213,121,182188,1,2,0:0:0:0:
203,105,182335,1,2,0:0:0:0:
203,106,182409,1,0,0:0:0:0:
184,71,182556,1,0,0:0:0:0:
186,71,182629,1,2,0:0:0:0:
