osu file format v14

[General]
AudioFilename: audio.ogg
AudioLeadIn: 0
PreviewTime: 56012
Countdown: 0
SampleSet: Normal
StackLeniency: 0.7
Mode: 1
LetterboxInBreaks: 0
WidescreenStoryboard: 1

[Editor]
Bookmarks: 28226,56460,84696,112931,127049,155284,183520,211314
DistanceSpacing: 0.3
BeatDivisor: 2
GridSize: 16
TimelineZoom: 2.000006

[Metadata]
Title:Where did you fall
TitleUnicode:Where did you fall
Artist:underscores
ArtistUnicode:underscores
Creator:Ulqui
Version:futsuu
Source:
Tags:electronic swing hyper pop hyperpop indie english fishmonger gamelan4 garage
BeatmapID:3511608
BeatmapSetID:1414012

[Difficulty]
HPDrainRate:6
CircleSize:2
OverallDifficulty:4
ApproachRate:10
SliderMultiplier:1.2
SliderTickRate:1

[Events]
//Background and Video events
0,0,"8CCKy8m.jpg",0,-100
//Break Periods
2,54697,56003
2,110476,112473
//Storyboard Layer 0 (Background)
//Storyboard Layer 1 (Fail)
//Storyboard Layer 2 (Pass)
//Storyboard Layer 3 (Foreground)
//Storyboard Layer 4 (Overlay)
//Storyboard Sound Samples

[TimingPoints]
28218,441.176470588235,4,1,0,20,1,0
56416,-83.3333333333333,4,1,0,60,0,0
63070,-83.3333333333333,4,1,0,60,0,1
63291,-83.3333333333333,4,1,0,60,0,0
77188,-83.3333333333333,4,1,0,60,0,1
77409,-83.3333333333333,4,1,0,60,0,0
84688,-71.4285714285714,4,1,0,60,0,0
91306,-71.4285714285714,4,1,0,60,0,1
91526,-71.4285714285714,4,1,0,60,0,0
91719,-71.4285714285714,4,1,0,70,0,0
91747,-66.6666666666667,4,1,0,70,0,0
98769,-62.5,4,1,0,80,0,0
98806,-62.5,4,1,0,80,0,1
105423,-62.5,4,1,0,80,0,0
105644,-58.8235294117647,4,1,0,80,0,1
105837,-58.8235294117647,4,1,0,90,0,1
110497,-58.8235294117647,4,1,0,30,0,1
110717,-100,4,1,0,30,0,0
112445,-90.9090909090909,4,1,0,10,0,0
112887,-90.9090909090909,4,1,0,30,0,0
112923,-90.9090909090909,4,1,0,30,0,0
119955,-90.9090909090909,4,1,0,5,0,0
121692,-100,4,1,0,5,0,0
123456,-111.111111111111,4,1,0,5,0,0
125221,-125,4,1,0,5,0,0
126085,-90.9090909090909,4,1,0,5,0,0
126131,-90.9090909090909,4,1,0,40,0,0
127041,-90.9090909090909,4,1,0,40,0,1
127262,-90.9090909090909,4,1,0,40,0,0
130570,-90.9090909090909,4,1,0,40,0,1
130791,-90.9090909090909,4,1,0,40,0,0
131453,-90.9090909090909,4,1,0,40,0,1
131673,-90.9090909090909,4,1,0,40,0,0
134100,-90.9090909090909,4,1,0,40,0,1
134320,-90.9090909090909,4,1,0,40,0,0
137629,-90.9090909090909,4,1,0,40,0,1
137850,-90.9090909090909,4,1,0,40,0,0
138512,-90.9090909090909,4,1,0,40,0,1
138732,-90.9090909090909,4,1,0,40,0,0
141159,-90.9090909090909,4,1,0,40,0,1
141379,-90.9090909090909,4,1,0,40,0,0
144688,-90.9090909090909,4,1,0,40,0,1
144909,-90.9090909090909,4,1,0,40,0,0
145570,-90.9090909090909,4,1,0,40,0,1
145791,-90.9090909090909,4,1,0,40,0,0
148217,-90.9090909090909,4,1,0,40,0,1
148438,-90.9090909090909,4,1,0,40,0,0
151747,-90.9090909090909,4,1,0,40,0,1
151967,-90.9090909090909,4,1,0,40,0,0
152629,-90.9090909090909,4,1,0,40,0,1
152850,-90.9090909090909,4,1,0,40,0,0
155276,-90.9090909090909,4,1,0,40,0,1
155497,-90.9090909090909,4,1,0,40,0,0
158806,-90.9090909090909,4,1,0,40,0,1
159026,-90.9090909090909,4,1,0,40,0,0
159688,-90.9090909090909,4,1,0,40,0,1
159909,-90.9090909090909,4,1,0,40,0,0
162335,-90.9090909090909,4,1,0,40,0,1
162556,-90.9090909090909,4,1,0,40,0,0
165865,-90.9090909090909,4,1,0,40,0,1
166085,-90.9090909090909,4,1,0,40,0,0
166747,-90.9090909090909,4,1,0,40,0,1
166967,-90.9090909090909,4,1,0,40,0,0
169394,-90.9090909090909,4,1,0,40,0,1
169615,-90.9090909090909,4,1,0,40,0,0
172923,-90.9090909090909,4,1,0,40,0,1
173144,-90.9090909090909,4,1,0,40,0,0
173806,-90.9090909090909,4,1,0,40,0,1
174026,-90.9090909090909,4,1,0,40,0,0
176453,-90.9090909090909,4,1,0,40,0,1
176673,-90.9090909090909,4,1,0,40,0,0
179982,-90.9090909090909,4,1,0,40,0,1
180203,-90.9090909090909,4,1,0,40,0,0
180865,-90.9090909090909,4,1,0,40,0,1
181085,-90.9090909090909,4,1,0,40,0,0

[HitObjects]
141,242,28218,5,0,0:0:0:0:
141,242,28659,1,2,0:0:0:0:
141,242,29100,1,0,0:0:0:0:
141,242,29431,1,2,0:0:0:0:
175,237,29982,1,0,0:0:0:0:
175,237,31747,1,0,0:0:0:0:
175,237,32188,1,2,0:0:0:0:
175,237,32629,1,0,0:0:0:0:
175,237,32960,1,2,0:0:0:0:
234,117,33512,1,0,0:0:0:0:
201,148,35276,1,0,0:0:0:0:
201,148,35718,1,2,0:0:0:0:
201,148,36159,1,0,0:0:0:0:
201,148,36490,1,2,0:0:0:0:
201,148,37041,1,0,0:0:0:0:
208,149,38806,1,0,0:0:0:0:
208,149,39247,1,2,0:0:0:0:
208,149,39688,1,0,0:0:0:0:
208,149,40019,1,2,0:0:0:0:
208,149,40570,1,0,0:0:0:0:
212,155,42335,1,0,0:0:0:0:
212,155,42776,1,2,0:0:0:0:
212,155,43218,1,0,0:0:0:0:
212,155,43548,1,2,0:0:0:0:
212,155,43879,1,2,0:0:0:0:
212,155,44100,1,2,0:0:0:0:
212,155,44541,1,2,0:0:0:0:
212,155,44982,1,2,0:0:0:0:
212,155,45423,1,2,0:0:0:0:
212,155,45865,1,0,0:0:0:0:
191,158,49394,1,0,0:0:0:0:
191,158,49835,1,2,0:0:0:0:
191,158,50276,1,0,0:0:0:0:
191,158,50607,1,2,0:0:0:0:
191,158,50938,1,2,0:0:0:0:
191,158,51159,1,2,0:0:0:0:
191,158,51600,1,2,0:0:0:0:
191,158,51820,1,2,0:0:0:0:
191,158,52262,1,2,0:0:0:0:
191,158,52482,1,2,0:0:0:0:
199,59,52923,1,0,0:0:0:0:
198,79,53365,1,2,0:0:0:0:
197,79,53585,1,2,0:0:0:0:
197,80,53806,1,0,0:0:0:0:
198,79,54137,1,2,0:0:0:0:
197,79,54468,1,2,0:0:0:0:
160,186,56453,5,0,0:0:0:0:
160,186,56894,1,2,0:0:0:0:
160,186,57335,1,2,0:0:0:0:
160,186,57666,1,2,0:0:0:0:
160,186,57997,1,0,0:0:0:0:
160,186,58659,1,2,0:0:0:0:
160,186,59100,1,2,0:0:0:0:
160,186,59431,1,0,0:0:0:0:
160,186,59762,1,2,0:0:0:0:
160,186,60203,1,0,0:0:0:0:
160,186,60423,1,2,0:0:0:0:
188,127,60865,1,0,0:0:0:0:
188,127,61195,1,2,0:0:0:0:
206,139,61747,1,0,0:0:0:0:
206,139,62188,1,2,0:0:0:0:
206,139,62629,1,0,0:0:0:0:
181,88,62850,1,0,0:0:0:0:
206,139,63070,1,8,0:0:0:0:
206,139,63512,1,0,0:0:0:0:
191,133,63953,1,2,0:0:0:0:
191,133,64394,1,2,0:0:0:0:
191,133,64725,1,2,0:0:0:0:
191,133,65056,1,0,0:0:0:0:
191,133,65718,1,2,0:0:0:0:
191,133,66159,1,2,0:0:0:0:
191,133,66490,1,0,0:0:0:0:
191,133,66820,1,2,0:0:0:0:
191,133,67482,1,2,0:0:0:0:
175,148,67923,1,0,0:0:0:0:
175,147,68254,1,2,0:0:0:0:
175,148,68806,1,0,0:0:0:0:
175,148,69247,1,2,0:0:0:0:
175,148,69688,1,0,0:0:0:0:
175,148,70570,1,0,0:0:0:0:
163,167,71012,1,2,0:0:0:0:
163,167,71453,1,2,0:0:0:0:
163,167,71784,1,2,0:0:0:0:
163,167,72115,1,0,0:0:0:0:
163,167,72776,1,2,0:0:0:0:
163,167,73218,1,2,0:0:0:0:
163,167,73548,1,0,0:0:0:0:
163,167,73879,1,2,0:0:0:0:
163,167,74320,1,0,0:0:0:0:
163,167,74541,1,2,0:0:0:0:
218,129,74982,1,0,0:0:0:0:
218,129,75313,1,2,0:0:0:0:
218,129,75865,1,0,0:0:0:0:
218,129,76306,1,2,0:0:0:0:
218,129,76747,1,0,0:0:0:0:
193,120,76968,1,0,0:0:0:0:
218,129,77188,1,8,0:0:0:0:
218,129,77629,1,0,0:0:0:0:
206,127,78070,1,2,0:0:0:0:
206,127,78512,1,2,0:0:0:0:
206,127,78843,1,2,0:0:0:0:
206,127,79173,1,0,0:0:0:0:
206,127,79835,1,2,0:0:0:0:
206,127,80276,1,2,0:0:0:0:
206,127,80607,1,0,0:0:0:0:
206,127,80938,1,2,0:0:0:0:
206,127,81600,1,2,0:0:0:0:
206,127,82041,1,0,0:0:0:0:
216,111,82372,1,2,0:0:0:0:
212,104,82923,1,0,0:0:0:0:
211,112,83365,1,2,0:0:0:0:
211,113,83806,1,0,0:0:0:0:
222,133,84688,1,0,0:0:0:0:
201,232,85129,1,2,0:0:0:0:
201,232,85570,1,0,0:0:0:0:
201,232,85901,1,2,0:0:0:0:
212,191,86453,1,0,0:0:0:0:
212,191,86894,1,2,0:0:0:0:
212,174,87335,1,0,0:0:0:0:
205,68,87556,1,2,0:0:0:0:
198,94,87776,1,2,0:0:0:0:
198,94,88218,1,0,0:0:0:0:
198,94,88659,1,2,0:0:0:0:
198,94,89100,1,0,0:0:0:0:
198,94,89431,1,2,0:0:0:0:
209,94,89982,1,0,0:0:0:0:
209,94,90423,1,2,0:0:0:0:
209,94,90865,1,0,0:0:0:0:
185,84,91085,1,0,0:0:0:0:
209,94,91306,1,2,0:0:0:0:
209,94,91747,1,0,0:0:0:0:
209,94,92188,1,2,0:0:0:0:
209,94,92629,1,0,0:0:0:0:
209,94,92960,1,2,0:0:0:0:
209,94,93512,1,0,0:0:0:0:
209,94,93953,1,2,0:0:0:0:
209,94,94394,1,0,0:0:0:0:
232,72,94615,1,2,0:0:0:0:
209,94,94835,1,2,0:0:0:0:
209,94,95276,1,0,0:0:0:0:
209,94,95718,1,2,0:0:0:0:
209,94,96159,1,0,0:0:0:0:
209,94,96490,1,2,0:0:0:0:
209,94,97041,1,0,0:0:0:0:
206,100,97482,1,2,0:0:0:0:
206,100,97923,1,0,0:0:0:0:
206,101,98806,1,0,0:0:0:0:
210,92,99247,1,2,0:0:0:0:
201,113,99688,1,0,0:0:0:0:
201,114,100019,1,2,0:0:0:0:
201,113,100350,1,0,0:0:0:0:
201,114,100570,1,0,0:0:0:0:
201,113,101012,1,2,0:0:0:0:
201,113,101453,1,0,0:0:0:0:
201,113,101784,1,2,0:0:0:0:
201,113,102115,1,2,0:0:0:0:
201,113,102335,1,0,0:0:0:0:
201,113,102776,1,2,0:0:0:0:
201,113,103217,1,0,0:0:0:0:
201,113,103548,1,2,0:0:0:0:
201,113,103879,1,2,0:0:0:0:
201,113,104100,1,0,0:0:0:0:
201,113,104541,1,2,0:0:0:0:
201,113,104982,1,0,0:0:0:0:
171,88,105203,1,0,0:0:0:0:
201,113,105423,1,2,0:0:0:0:
201,113,105865,1,2,0:0:0:0:
181,110,106306,1,2,0:0:0:0:
271,48,106526,1,2,0:0:0:0:
201,100,106747,1,2,0:0:0:0:
201,101,107078,1,2,0:0:0:0:
201,100,107409,1,2,0:0:0:0:
201,100,107629,1,2,0:0:0:0:
201,100,108070,1,2,0:0:0:0:
252,75,108291,1,2,0:0:0:0:
201,100,108512,1,2,0:0:0:0:
201,100,108842,1,2,0:0:0:0:
201,100,109173,1,2,0:0:0:0:
201,100,109394,1,2,0:0:0:0:
201,100,109835,1,2,0:0:0:0:
201,100,110276,1,2,0:0:0:0:
181,160,112923,5,0,0:0:0:0:
183,230,113365,1,0,0:0:0:0:
183,230,113806,1,0,0:0:0:0:
183,230,114247,1,0,0:0:0:0:
183,230,114688,1,0,0:0:0:0:
183,230,115129,1,0,0:0:0:0:
183,230,115570,1,2,0:0:0:0:
183,230,116012,1,2,0:0:0:0:
183,230,116453,1,2,0:0:0:0:
191,231,116894,1,2,0:0:0:0:
191,231,117335,1,2,0:0:0:0:
191,231,117776,1,2,0:0:0:0:
191,231,118217,1,2,0:0:0:0:
191,231,118659,1,2,0:0:0:0:
191,231,119100,1,2,0:0:0:0:
191,231,119541,1,2,0:0:0:0:
256,192,119982,12,0,125938,0:0:0:0:
201,127,126159,5,2,0:0:0:0:
201,127,126379,1,2,0:0:0:0:
201,127,126600,1,2,0:0:0:0:
201,127,126820,1,2,0:0:0:0:
204,238,127041,5,4,0:0:0:0:
196,238,127482,1,0,0:0:0:0:
204,238,127923,1,2,0:0:0:0:
196,238,128144,1,0,0:0:0:0:
196,238,128365,1,2,0:0:0:0:
196,238,128585,1,2,0:0:0:0:
196,238,128806,1,0,0:0:0:0:
196,238,129247,1,0,0:0:0:0:
180,278,129688,1,2,0:0:0:0:
180,278,129909,1,2,0:0:0:0:
180,278,130129,1,0,0:0:0:0:
180,278,130350,1,2,0:0:0:0:
180,278,130570,1,4,0:0:0:0:
188,95,131012,1,2,0:0:0:0:
188,95,131453,1,6,0:0:0:0:
188,95,131673,1,0,0:0:0:0:
188,95,131894,1,0,0:0:0:0:
188,95,132115,1,2,0:0:0:0:
188,95,132335,1,2,0:0:0:0:
188,95,132776,1,0,0:0:0:0:
186,102,133217,1,2,0:0:0:0:
186,102,133438,1,0,0:0:0:0:
186,102,133659,1,2,0:0:0:0:
186,102,133879,1,2,0:0:0:0:
186,102,134100,1,4,0:0:0:0:
186,102,134541,1,2,0:0:0:0:
163,128,135423,1,2,0:0:0:0:
163,127,135865,1,0,0:0:0:0:
166,140,136085,1,2,0:0:0:0:
172,86,136306,1,0,0:0:0:0:
172,86,136747,1,2,0:0:0:0:
201,115,136967,1,0,0:0:0:0:
201,115,137188,1,2,0:0:0:0:
201,115,137409,1,2,0:0:0:0:
201,115,137629,1,4,0:0:0:0:
202,84,138070,1,2,0:0:0:0:
201,103,138512,1,6,0:0:0:0:
201,102,138732,1,0,0:0:0:0:
201,102,138953,1,0,0:0:0:0:
201,103,139173,1,2,0:0:0:0:
201,103,139394,1,0,0:0:0:0:
201,102,139835,1,0,0:0:0:0:
174,94,141159,1,4,0:0:0:0:
196,135,141600,1,0,0:0:0:0:
163,158,142041,1,2,0:0:0:0:
163,158,142262,1,0,0:0:0:0:
168,162,142482,1,2,0:0:0:0:
168,163,142703,1,2,0:0:0:0:
163,158,142923,1,0,0:0:0:0:
173,95,143365,1,0,0:0:0:0:
173,95,143806,1,2,0:0:0:0:
173,95,144026,1,2,0:0:0:0:
155,138,144247,1,0,0:0:0:0:
155,138,144467,1,2,0:0:0:0:
155,138,144688,1,4,0:0:0:0:
219,98,145129,1,2,0:0:0:0:
219,98,145570,1,6,0:0:0:0:
219,98,145791,1,0,0:0:0:0:
219,98,146012,1,0,0:0:0:0:
219,98,146232,1,2,0:0:0:0:
219,98,146453,1,2,0:0:0:0:
219,98,146894,1,0,0:0:0:0:
176,120,147335,1,2,0:0:0:0:
176,120,147556,1,0,0:0:0:0:
176,120,147776,1,2,0:0:0:0:
176,120,147997,1,2,0:0:0:0:
176,120,148217,1,4,0:0:0:0:
248,134,148659,1,2,0:0:0:0:
214,96,149541,1,2,0:0:0:0:
214,96,149982,1,0,0:0:0:0:
201,153,150203,1,2,0:0:0:0:
201,153,150423,1,0,0:0:0:0:
208,141,150865,1,2,0:0:0:0:
208,140,151085,1,0,0:0:0:0:
216,114,151306,1,2,0:0:0:0:
216,114,151526,1,2,0:0:0:0:
217,114,151747,1,4,0:0:0:0:
216,114,152188,1,2,0:0:0:0:
217,114,152629,1,6,0:0:0:0:
216,114,152850,1,0,0:0:0:0:
216,114,153070,1,0,0:0:0:0:
217,114,153291,1,2,0:0:0:0:
217,114,153512,1,0,0:0:0:0:
224,115,153953,1,0,0:0:0:0:
229,87,154394,1,2,0:0:0:0:
217,159,155276,5,4,0:0:0:0:
210,160,155717,1,2,0:0:0:0:
173,176,156159,1,2,0:0:0:0:
183,184,156490,1,2,0:0:0:0:
183,184,156820,1,0,0:0:0:0:
183,184,157482,1,2,0:0:0:0:
183,184,157923,1,2,0:0:0:0:
183,184,158254,1,0,0:0:0:0:
183,184,158585,1,2,0:0:0:0:
204,34,158806,1,4,0:0:0:0:
213,55,159026,1,2,0:0:0:0:
164,86,159247,1,0,0:0:0:0:
164,87,159688,1,6,0:0:0:0:
204,173,160791,1,0,0:0:0:0:
213,155,161012,1,0,0:0:0:0:
204,173,161453,1,2,0:0:0:0:
186,188,162335,1,4,0:0:0:0:
161,112,162776,1,2,0:0:0:0:
161,112,163217,1,2,0:0:0:0:
161,112,163548,1,2,0:0:0:0:
161,112,163879,1,0,0:0:0:0:
161,112,164541,1,10,0:0:0:0:
161,112,164982,1,2,0:0:0:0:
161,112,165313,1,0,0:0:0:0:
161,112,165644,1,2,0:0:0:0:
228,93,165865,1,4,0:0:0:0:
162,129,166306,1,2,0:0:0:0:
162,128,166747,1,6,0:0:0:0:
219,118,167850,1,0,0:0:0:0:
231,124,168070,1,0,0:0:0:0:
219,118,168291,1,0,0:0:0:0:
208,122,169394,1,4,0:0:0:0:
173,98,169835,1,2,0:0:0:0:
173,98,170276,1,2,0:0:0:0:
173,98,170607,1,2,0:0:0:0:
173,98,170938,1,0,0:0:0:0:
173,98,171600,1,2,0:0:0:0:
173,98,172041,1,2,0:0:0:0:
173,98,172372,1,0,0:0:0:0:
173,98,172703,1,2,0:0:0:0:
175,84,172923,1,4,0:0:0:0:
173,98,173144,1,2,0:0:0:0:
173,98,173365,1,0,0:0:0:0:
203,85,173806,1,6,0:0:0:0:
196,77,174909,1,0,0:0:0:0:
196,77,175129,1,0,0:0:0:0:
196,77,175570,1,2,0:0:0:0:
191,86,176453,1,4,0:0:0:0:
191,86,176894,1,2,0:0:0:0:
191,86,177335,1,2,0:0:0:0:
191,86,177666,1,2,0:0:0:0:
191,86,177997,1,0,0:0:0:0:
191,86,178659,1,2,0:0:0:0:
191,86,179100,1,2,0:0:0:0:
191,86,179431,1,0,0:0:0:0:
191,86,179762,1,2,0:0:0:0:
214,87,179982,1,4,0:0:0:0:
192,94,180423,1,2,0:0:0:0:
191,92,180865,1,6,0:0:0:0:
192,95,181967,1,0,0:0:0:0:
192,95,182188,1,0,0:0:0:0:
192,95,182409,1,0,0:0:0:0:
192,95,182629,1,2,0:0:0:0:
