osu file format v14

[General]
AudioFilename: audio.mp3
AudioLeadIn: 0
PreviewTime: 32191
Countdown: 0
SampleSet: Normal
StackLeniency: 0.7
Mode: 1
LetterboxInBreaks: 0
WidescreenStoryboard: 1

[Editor]
DistanceSpacing: 0.9
BeatDivisor: 2
GridSize: 32
TimelineZoom: 1.7

[Metadata]
Title:Spoiled little brat
TitleUnicode:Spoiled little brat
Artist:underscores
ArtistUnicode:underscores
Creator:Horiiizon
Version:oni
Source:
Tags:d3kuu fishmonger indie pop hyperpop alternative r&b rhythm and n blues english
BeatmapID:3050140
BeatmapSetID:1487650

[Difficulty]
HPDrainRate:6.1
CircleSize:5
OverallDifficulty:5.6
ApproachRate:5
SliderMultiplier:1.4
SliderTickRate:1

[Events]
//Background and Video events
0,0,"underscores.jpg",0,-45
//Break Periods
2,123979,125918
//Storyboard Layer 0 (Background)
//Storyboard Layer 1 (Fail)
//Storyboard Layer 2 (Pass)
//Storyboard Layer 3 (Foreground)
//Storyboard Layer 4 (Overlay)
//Storyboard Sound Samples

[TimingPoints]
142,348.837209302326,4,1,0,40,1,0
142,-125,4,1,0,40,0,0
11261,-100,4,1,0,60,0,0
31101,-100,4,1,0,60,0,0
31188,-97.8456348126941,4,1,0,60,0,0
31362,-93.8037906111786,4,1,0,60,0,0
31537,-90.0826237825333,4,1,0,60,0,0
31624,-88.3306392488362,4,1,0,60,0,0
31711,-86.6455020586971,4,1,0,60,0,0
31798,-85.0233856822319,4,1,0,60,0,0
31886,-83.4609590498804,4,1,0,60,0,0
32191,-125,4,1,0,0,0,0
33586,-125,4,1,0,50,0,0
42002,-125,4,1,0,50,0,0
42176,-123.081770605119,4,1,0,50,0,0
42351,-121.221672010522,4,1,0,50,0,0
42700,-117.665054655418,4,1,0,50,0,0
43048,-114.31118935077,4,1,0,50,0,0
43397,-111.1432191522,4,1,0,50,0,0
43746,-108.14610538838,4,1,0,50,0,0
44095,-105.306388938617,4,1,0,50,0,0
44182,-104.619582274932,4,1,0,50,0,0
44269,-103.941676246624,4,1,0,50,0,0
44444,-102.611988158577,4,1,0,50,0,0
44531,-101.959768714461,4,1,0,50,0,0
44618,-101.315788140582,4,1,0,50,0,0
44705,-100.679891305989,4,1,0,50,0,0
44749,-100,4,1,0,60,0,0
44793,-100.051926950087,4,1,0,60,0,0
50374,-100,4,1,0,60,0,0
50548,-98.7685536728074,4,1,0,60,0,0
50723,-97.5671627956895,4,1,0,60,0,0
50897,-96.3945544788284,4,1,0,60,0,0
51072,-95.2498880813815,4,1,0,60,0,0
51421,-93.0401328613097,4,1,0,60,0,0
51508,-92.5036007026573,4,1,0,60,0,0
51595,-91.9732210769512,4,1,0,60,0,0
51769,-90.9305835924855,4,1,0,60,0,0
51944,-89.9112396242429,4,1,0,60,0,0
52118,-88.9145753217596,4,1,0,60,0,0
52293,-87.9396874447629,4,1,0,60,0,0
52467,-86.9860213463696,4,1,0,60,0,0
52816,-85.1393518341145,4,1,0,60,0,0
52903,-84.689853054636,4,1,0,60,0,0
52990,-84.2450756647147,4,1,0,60,0,0
53165,-83.3333333333333,4,1,0,60,0,0
53514,-86.9565217391304,4,1,0,60,0,0
53688,-88.8888888888889,4,1,0,60,0,0
54037,-93.0232558139535,4,1,0,60,0,0
54211,-95.2380952380952,4,1,0,60,0,0
54560,-100,4,1,0,60,0,0
54735,-102.564102564103,4,1,0,60,0,0
54909,-105.263157894737,4,1,0,60,0,0
55083,-108.108108108108,4,1,0,60,0,0
55258,-111.111111111111,4,1,0,60,0,0
55432,-114.285714285714,4,1,0,60,0,0
55607,-117.647058823529,4,1,0,60,0,0
55955,-125,4,1,0,60,0,0
56261,-125,4,1,0,40,0,0
66726,-100,4,1,0,50,0,0
67075,-100,4,1,0,60,0,0
86915,-100,4,1,0,60,0,0
87002,-97.8456348126941,4,1,0,60,0,0
87176,-93.8037906111786,4,1,0,60,0,0
87351,-90.0826237825333,4,1,0,60,0,0
87438,-88.3306392488362,4,1,0,60,0,0
87525,-86.6455020586971,4,1,0,60,0,0
87612,-85.0233856822319,4,1,0,60,0,0
87700,-83.4609590498804,4,1,0,60,0,0
88005,-125,4,1,0,0,0,0
89400,-125,4,1,0,50,0,0
97816,-125,4,1,0,50,0,0
97990,-123.081770605119,4,1,0,50,0,0
98165,-121.221672010522,4,1,0,50,0,0
98514,-117.665054655418,4,1,0,50,0,0
98862,-114.31118935077,4,1,0,50,0,0
99211,-111.1432191522,4,1,0,50,0,0
99560,-108.14610538838,4,1,0,50,0,0
99909,-105.306388938617,4,1,0,50,0,0
99996,-104.619582274932,4,1,0,50,0,0
100083,-103.941676246624,4,1,0,50,0,0
100258,-102.611988158577,4,1,0,50,0,0
100345,-101.959768714461,4,1,0,50,0,0
100432,-101.315788140582,4,1,0,50,0,0
100519,-100.679891305989,4,1,0,50,0,0
100563,-100,4,1,0,60,0,0
100607,-100,4,1,0,60,0,0
101653,-100,4,1,0,60,0,0
111900,-100,4,1,0,50,0,0
117351,-100,4,1,0,50,0,0
117525,-98.7685536728074,4,1,0,50,0,0
117700,-97.5671627956895,4,1,0,50,0,0
117874,-96.3945544788284,4,1,0,50,0,0
118048,-95.2498880813815,4,1,0,50,0,0
118397,-93.0401328613097,4,1,0,50,0,0
118485,-92.5036007026573,4,1,0,50,0,0
118572,-91.9732210769512,4,1,0,50,0,0
118746,-90.9305835924855,4,1,0,50,0,0
118921,-89.9112396242429,4,1,0,50,0,0
119095,-88.9145753217596,4,1,0,50,0,0
119269,-87.9396874447629,4,1,0,50,0,0
119444,-86.9860213463696,4,1,0,50,0,0
119793,-85.1393518341145,4,1,0,50,0,0
119880,-84.689853054636,4,1,0,50,0,0
119967,-84.2450756647147,4,1,0,50,0,0
120054,-83.8049456650635,4,1,0,50,0,0
120098,-100,4,1,0,60,0,0
120141,-83.3333333333333,4,1,0,60,0,0
120490,-87.5000109375014,4,1,0,60,0,0
120665,-89.7435667324188,4,1,0,60,0,0
120839,-92.1052873961283,4,1,0,60,0,0
120926,-93.3332960000149,4,1,0,60,0,0
121014,-94.594581811543,4,1,0,60,0,0
121101,-95.8904240945786,4,1,0,60,0,0
121188,-97.2222627314984,4,1,0,60,0,0
121362,-100,4,1,0,60,0,0
121450,-101.449304767914,4,1,0,60,0,0
121537,-102.941131055383,4,1,0,60,0,0
121886,-109.374965820323,4,1,0,60,0,0
122060,-112.903262226859,4,1,0,60,0,0
122235,-116.666647222225,4,1,0,60,0,0
122409,-120.68971759813,4,1,0,60,0,0
122583,-125,4,1,0,60,0,0
122889,-125,4,1,0,0,0,0
127075,-125,4,1,0,40,0,0
138237,-125,4,1,0,50,0,0
146653,-125,4,1,0,50,0,0
146828,-122.950870061832,4,1,0,50,0,0
147002,-120.967693158188,4,1,0,50,0,0
147351,-117.187545776385,4,1,0,50,0,0
147700,-113.636363636364,4,1,0,50,0,0
148048,-110.294077097766,4,1,0,50,0,0
148397,-107.142895408177,4,1,0,50,0,0
148703,-100,4,1,0,60,0,0
148746,-104.166666666667,4,1,0,60,0,0
148833,-103.448240190262,4,1,0,60,0,0
148921,-102.739761212247,4,1,0,60,0,0
149008,-102.040816326531,4,1,0,60,0,0
149095,-101.351317111042,4,1,0,60,0,0
149269,-100,4,1,0,60,0,0
149400,-76.9230769230769,4,1,0,90,0,0
149444,-77.8688524590164,4,1,0,90,0,1
149531,-78.8381742738589,4,1,0,90,0,1
149618,-79.8319327731092,4,1,0,90,0,1
149793,-81.8965517241379,4,1,0,90,0,1
149967,-84.070796460177,4,1,0,90,0,1
150054,-85.2017937219731,4,1,0,90,0,1
150142,-86.3636363636364,4,1,0,90,0,1
150316,-88.785046728972,4,1,0,90,0,1
150490,-91.3461538461538,4,1,0,90,0,1
150578,-92.6829268292683,4,1,0,90,0,1
150665,-94.0594059405941,4,1,0,90,0,1
150839,-96.9387755102041,4,1,0,90,0,1
150926,-98.4455958549223,4,1,0,90,0,1
151014,-100,4,1,0,90,0,1
151188,-76.9230769230769,4,1,0,0,0,0
152191,-76.9230769230769,4,1,0,90,0,0
152235,-77.8688524590164,4,1,0,90,0,1
152322,-78.8381742738589,4,1,0,90,0,1
152409,-79.8319327731092,4,1,0,90,0,1
152583,-81.8965517241379,4,1,0,90,0,1
152758,-84.070796460177,4,1,0,90,0,1
152845,-85.2017937219731,4,1,0,90,0,1
152932,-86.3636363636364,4,1,0,90,0,1
153107,-88.785046728972,4,1,0,90,0,1
153281,-91.3461538461538,4,1,0,90,0,1
153368,-92.6829268292683,4,1,0,90,0,1
153455,-94.0594059405941,4,1,0,90,0,1
153630,-96.9387755102041,4,1,0,90,0,1
153717,-98.4455958549223,4,1,0,90,0,1
153804,-100,4,1,0,90,0,1
153979,-76.9230769230769,4,1,0,0,0,0
154982,-76.9230769230769,4,1,0,90,0,0
155025,-77.8688524590164,4,1,0,90,0,1
155112,-78.8381742738589,4,1,0,90,0,1
155200,-79.8319327731092,4,1,0,90,0,1
155374,-81.8965517241379,4,1,0,90,0,1
155548,-84.070796460177,4,1,0,90,0,1
155636,-85.2017937219731,4,1,0,90,0,1
155723,-86.3636363636364,4,1,0,90,0,1
155897,-88.785046728972,4,1,0,90,0,1
156072,-91.3461538461538,4,1,0,90,0,1
156159,-92.6829268292683,4,1,0,90,0,1
156246,-94.0594059405941,4,1,0,90,0,1
156421,-96.9387755102041,4,1,0,90,0,1
156508,-98.4455958549223,4,1,0,90,0,1
156595,-100,4,1,0,90,0,1
156769,-76.9230769230769,4,1,0,0,0,0
157772,-76.9230769230769,4,1,0,90,0,0
157816,-77.8688524590164,4,1,0,90,0,1
157903,-78.8381742738589,4,1,0,90,0,1
157990,-79.8319327731092,4,1,0,90,0,1
158165,-81.8965517241379,4,1,0,90,0,1
158339,-84.070796460177,4,1,0,90,0,1
158426,-85.2017937219731,4,1,0,90,0,1
158514,-86.3636363636364,4,1,0,90,0,1
158688,-88.785046728972,4,1,0,90,0,1
158862,-91.3461538461538,4,1,0,90,0,1
158950,-92.6829268292683,4,1,0,90,0,1
159037,-94.0594059405941,4,1,0,90,0,1
159211,-96.9387755102041,4,1,0,90,0,1
159298,-98.4455958549223,4,1,0,90,0,1
159386,-100,4,1,0,90,0,1
159560,-76.9230769230769,4,1,0,0,0,0
160563,-76.9230769230769,4,1,0,90,0,0
160607,-77.8688524590164,4,1,0,90,0,1
160694,-78.8381742738589,4,1,0,90,0,1
160781,-79.8319327731092,4,1,0,90,0,1
160955,-81.8965517241379,4,1,0,90,0,1
161130,-84.070796460177,4,1,0,90,0,1
161217,-85.2017937219731,4,1,0,90,0,1
161304,-86.3636363636364,4,1,0,90,0,1
161479,-88.785046728972,4,1,0,90,0,1
161653,-91.3461538461538,4,1,0,90,0,1
161740,-92.6829268292683,4,1,0,90,0,1
161828,-94.0594059405941,4,1,0,90,0,1
162002,-96.9387755102041,4,1,0,90,0,1
162089,-98.4455958549223,4,1,0,90,0,1
162176,-100,4,1,0,90,0,1
162351,-76.9230769230769,4,1,0,0,0,0
163354,-76.9230769230769,4,1,0,90,0,0
163397,-77.8688524590164,4,1,0,90,0,1
163485,-78.8381742738589,4,1,0,90,0,1
163572,-79.8319327731092,4,1,0,90,0,1
163746,-81.8965517241379,4,1,0,90,0,1
163921,-84.070796460177,4,1,0,90,0,1
164008,-85.2017937219731,4,1,0,90,0,1
164095,-86.3636363636364,4,1,0,90,0,1
164269,-88.785046728972,4,1,0,90,0,1
164444,-91.3461538461538,4,1,0,90,0,1
164531,-92.6829268292683,4,1,0,90,0,1
164618,-94.0594059405941,4,1,0,90,0,1
164793,-96.9387755102041,4,1,0,90,0,1
164880,-98.4455958549223,4,1,0,90,0,1
164967,-100,4,1,0,90,0,1
165142,-76.9230769230769,4,1,0,0,0,0
166144,-76.9230769230769,4,1,0,90,0,0
166188,-77.8688524590164,4,1,0,90,0,1
166275,-78.8381742738589,4,1,0,90,0,1
166362,-79.8319327731092,4,1,0,90,0,1
166537,-81.8965517241379,4,1,0,90,0,1
166711,-84.070796460177,4,1,0,90,0,1
166798,-85.2017937219731,4,1,0,90,0,1
166886,-86.3636363636364,4,1,0,90,0,1
167060,-88.785046728972,4,1,0,90,0,1
167234,-91.3461538461538,4,1,0,90,0,1
167322,-92.6829268292683,4,1,0,90,0,1
167409,-94.0594059405941,4,1,0,90,0,1
167583,-96.9387755102041,4,1,0,90,0,1
167670,-98.4455958549223,4,1,0,90,0,1
167758,-100,4,1,0,90,0,1
167932,-76.9230769230769,4,1,0,0,0,0
168935,-76.9230769230769,4,1,0,90,0,0
168979,-77.8688524590164,4,1,0,90,0,1
169066,-78.8381742738589,4,1,0,90,0,1
169153,-79.8319327731092,4,1,0,90,0,1
169328,-81.8965517241379,4,1,0,90,0,1
169502,-84.070796460177,4,1,0,90,0,1
169589,-85.2017937219731,4,1,0,90,0,1
169676,-76.9230769230769,4,1,0,90,0,0
170330,-100,4,1,0,50,0,0
171726,-76.9230769230769,4,1,0,90,0,0
171769,-77.8688524590164,4,1,0,90,0,1
171857,-78.8381742738589,4,1,0,90,0,1
171944,-79.8319327731092,4,1,0,90,0,1
172118,-81.8965517241379,4,1,0,90,0,1
172293,-84.070796460177,4,1,0,90,0,1
172380,-85.2017937219731,4,1,0,90,0,1
172467,-86.3636363636364,4,1,0,90,0,1
172641,-88.785046728972,4,1,0,90,0,1
172816,-91.3461538461538,4,1,0,90,0,1
172903,-92.6829268292683,4,1,0,90,0,1
172990,-94.0594059405941,4,1,0,90,0,1
173165,-96.9387755102041,4,1,0,90,0,1
173252,-98.4455958549223,4,1,0,90,0,1
173339,-100,4,1,0,90,0,1
173514,-76.9230769230769,4,1,0,0,0,0
174517,-76.9230769230769,4,1,0,90,0,0
174560,-77.8688524590164,4,1,0,90,0,1
174647,-78.8381742738589,4,1,0,90,0,1
174735,-79.8319327731092,4,1,0,90,0,1
174909,-81.8965517241379,4,1,0,90,0,1
175083,-84.070796460177,4,1,0,90,0,1
175171,-85.2017937219731,4,1,0,90,0,1
175258,-86.3636363636364,4,1,0,90,0,1
175432,-88.785046728972,4,1,0,90,0,1
175607,-91.3461538461538,4,1,0,90,0,1
175694,-92.6829268292683,4,1,0,90,0,1
175781,-94.0594059405941,4,1,0,90,0,1
175955,-96.9387755102041,4,1,0,90,0,1
176043,-98.4455958549223,4,1,0,90,0,1
176130,-100,4,1,0,90,0,1
176304,-76.9230769230769,4,1,0,0,0,0
177307,-76.9230769230769,4,1,0,90,0,0
177351,-77.8688524590164,4,1,0,90,0,1
177438,-78.8381742738589,4,1,0,90,0,1
177525,-79.8319327731092,4,1,0,90,0,1
177699,-81.8965517241379,4,1,0,90,0,1
177874,-84.070796460177,4,1,0,90,0,1
177961,-85.2017937219731,4,1,0,90,0,1
178048,-86.3636363636364,4,1,0,90,0,1
178222,-88.785046728972,4,1,0,90,0,1
178397,-91.3461538461538,4,1,0,90,0,1
178484,-92.6829268292683,4,1,0,90,0,1
178571,-94.0594059405941,4,1,0,90,0,1
178746,-96.9387755102041,4,1,0,90,0,1
178833,-98.4455958549223,4,1,0,90,0,1
178920,-100,4,1,0,90,0,1
179095,-76.9230769230769,4,1,0,0,0,0
180098,-76.9230769230769,4,1,0,90,0,0
180142,-77.8688524590164,4,1,0,90,0,1
180229,-78.8381742738589,4,1,0,90,0,1
180316,-79.8319327731092,4,1,0,90,0,1
180490,-81.8965517241379,4,1,0,90,0,1
180665,-84.070796460177,4,1,0,90,0,1
180752,-85.2017937219731,4,1,0,90,0,1
180839,-86.3636363636364,4,1,0,90,0,1
181013,-88.785046728972,4,1,0,90,0,1
181188,-91.3461538461538,4,1,0,90,0,1
181275,-92.6829268292683,4,1,0,90,0,1
181362,-94.0594059405941,4,1,0,90,0,1
181537,-96.9387755102041,4,1,0,90,0,1
181624,-98.4455958549223,4,1,0,90,0,1
181711,-100,4,1,0,90,0,1
181886,-76.9230769230769,4,1,0,0,0,0
182627,-100,4,1,0,80,0,0
182889,-100,4,1,0,100,0,0
182932,-76.9230769230769,4,1,0,100,0,1
183019,-77.8210116731518,4,1,0,100,0,1
183107,-78.740157480315,4,1,0,100,0,1
183281,-80.6451612903226,4,1,0,100,0,1
183455,-82.6446280991736,4,1,0,100,0,1
183543,-83.6820083682008,4,1,0,100,0,1
183630,-84.7457627118644,4,1,0,100,0,1
183804,-86.9565217391304,4,1,0,100,0,1
183979,-89.2857142857143,4,1,0,100,0,1
184066,-90.4977375565611,4,1,0,100,0,1
184153,-91.743119266055,4,1,0,100,0,1
184328,-94.3396226415094,4,1,0,100,0,1
184415,-95.6937799043062,4,1,0,100,0,1
184502,-97.0873786407767,4,1,0,100,0,1
184589,-98.5221674876847,4,1,0,100,0,1
184676,-100,4,1,0,100,0,1
185723,-76.9230769230769,4,1,0,100,0,1
185810,-77.8210116731518,4,1,0,100,0,1
185897,-78.740157480315,4,1,0,100,0,1
186072,-80.6451612903226,4,1,0,100,0,1
186246,-82.6446280991736,4,1,0,100,0,1
186333,-83.6820083682008,4,1,0,100,0,1
186421,-84.7457627118644,4,1,0,100,0,1
186595,-86.9565217391304,4,1,0,100,0,1
186769,-89.2857142857143,4,1,0,100,0,1
186857,-90.4977375565611,4,1,0,100,0,1
186944,-91.743119266055,4,1,0,100,0,1
187118,-94.3396226415094,4,1,0,100,0,1
187205,-95.6937799043062,4,1,0,100,0,1
187293,-97.0873786407767,4,1,0,100,0,1
187380,-98.5221674876847,4,1,0,100,0,1
187467,-100,4,1,0,100,0,1
188514,-76.9230769230769,4,1,0,100,0,1
188601,-77.8210116731518,4,1,0,100,0,1
188688,-78.740157480315,4,1,0,100,0,1
188862,-80.6451612903226,4,1,0,100,0,1
189037,-82.6446280991736,4,1,0,100,0,1
189124,-83.6820083682008,4,1,0,100,0,1
189211,-84.7457627118644,4,1,0,100,0,1
189386,-86.9565217391304,4,1,0,100,0,1
189560,-89.2857142857143,4,1,0,100,0,1
189647,-90.4977375565611,4,1,0,100,0,1
189735,-91.743119266055,4,1,0,100,0,1
189909,-94.3396226415094,4,1,0,100,0,1
189996,-95.6937799043062,4,1,0,100,0,1
190083,-97.0873786407767,4,1,0,100,0,1
190171,-98.5221674876847,4,1,0,100,0,1
190258,-100,4,1,0,100,0,1
191304,-76.9230769230769,4,1,0,100,0,1
191392,-77.4803993959628,4,1,0,100,0,1
191479,-78.0457957120079,4,1,0,100,0,1
191653,-79.2018355817414,4,1,0,100,0,1
191828,-80.3925730125348,4,1,0,100,0,1
191915,-81.0015025778728,4,1,0,100,0,1
192002,-81.6196605438318,4,1,0,100,0,1
192176,-82.8847884863083,4,1,0,100,0,1
192351,-84.1898244810539,4,1,0,100,0,1
192438,-84.8578037782089,4,1,0,100,0,1
192525,-85.5365407825396,4,1,0,100,0,1
192700,-86.9270421335373,4,1,0,100,0,1
192787,-87.63942336765,4,1,0,100,0,1
192874,-88.3635772403701,4,1,0,100,0,1
193048,-89.8483090997469,4,1,0,100,0,1
193223,-91.3837881504469,4,1,0,100,0,1
193310,-92.1714204076742,4,1,0,100,0,1
193397,-92.9727478281566,4,1,0,100,0,1
193572,-94.6178526856804,4,1,0,100,0,1
193746,-96.3222248122198,4,1,0,100,0,1
193833,-97.1976933043425,4,1,0,100,0,1
193921,-98.0891257414312,4,1,0,100,0,1
194095,-99.9221606368639,4,1,0,100,0,0
194226,-100,4,1,0,50,0,0
194443,-100,4,1,0,49,0,0
194617,-100,4,1,0,48,0,0
194792,-100,4,1,0,47,0,0
194966,-100,4,1,0,46,0,0
195141,-100,4,1,0,45,0,0
195315,-100,4,1,0,44,0,0
195489,-100,4,1,0,43,0,0
195664,-100,4,1,0,42,0,0
195838,-100,4,1,0,41,0,0
196013,-100,4,1,0,40,0,0
196187,-100,4,1,0,39,0,0
196362,-100,4,1,0,38,0,0
196536,-100,4,1,0,37,0,0
196710,-100,4,1,0,36,0,0
196885,-100,4,1,0,35,0,0
197059,-100,4,1,0,34,0,0
197234,-100,4,1,0,33,0,0
197408,-100,4,1,0,32,0,0
197582,-100,4,1,0,31,0,0
197757,-100,4,1,0,30,0,0
197931,-100,4,1,0,29,0,0
198106,-100,4,1,0,28,0,0
198280,-100,4,1,0,27,0,0
198455,-100,4,1,0,26,0,0
198629,-100,4,1,0,25,0,0
198803,-100,4,1,0,24,0,0
198978,-100,4,1,0,23,0,0
199152,-100,4,1,0,22,0,0
199327,-100,4,1,0,21,0,0
199415,-66.6666666666667,4,1,0,80,0,0

[HitObjects]
205,219,142,5,0,0:0:0:0:
250,220,490,1,8,0:0:0:0:
250,220,665,1,0,0:0:0:0:
222,207,1014,1,0,0:0:0:0:
179,79,1188,1,0,0:0:0:0:
197,142,1362,1,0,0:0:0:0:
208,136,1711,1,0,0:0:0:0:
207,136,1886,1,8,0:0:0:0:
213,112,2235,1,0,0:0:0:0:
231,126,2409,1,8,0:0:0:0:
209,101,2583,1,0,0:0:0:0:
209,101,2758,1,0,0:0:0:0:
261,170,3107,1,0,0:0:0:0:
212,153,3281,1,8,0:0:0:0:
212,153,3455,1,0,0:0:0:0:
212,153,3804,1,0,0:0:0:0:
212,153,3979,1,0,0:0:0:0:
212,153,4153,1,0,0:0:0:0:
282,215,4502,1,0,0:0:0:0:
219,160,4676,1,8,0:0:0:0:
206,121,5025,1,0,0:0:0:0:
213,120,5200,1,8,0:0:0:0:
204,112,5374,1,0,0:0:0:0:
237,153,5548,1,0,0:0:0:0:
136,162,5636,1,0,0:0:0:0:
190,170,5723,1,8,0:0:0:0:
211,119,5897,1,0,0:0:0:0:
214,117,6072,1,8,0:0:0:0:
223,118,6246,1,8,0:0:0:0:
188,78,6595,1,0,0:0:0:0:
188,78,6769,1,8,0:0:0:0:
188,78,6944,1,0,0:0:0:0:
201,113,7293,1,0,0:0:0:0:
176,90,7467,1,8,0:0:0:0:
176,85,7816,1,0,0:0:0:0:
176,90,7990,1,8,0:0:0:0:
179,84,8165,1,8,0:0:0:0:
179,84,8339,1,0,0:0:0:0:
181,62,8688,1,0,0:0:0:0:
192,93,8862,1,8,0:0:0:0:
192,93,9037,1,8,0:0:0:0:
189,65,9386,1,0,0:0:0:0:
189,66,9560,1,8,0:0:0:0:
189,66,9735,1,0,0:0:0:0:
197,93,10083,1,0,0:0:0:0:
197,93,10258,1,8,0:0:0:0:
197,93,10607,1,0,0:0:0:0:
197,93,10781,1,0,0:0:0:0:
177,79,10955,1,8,0:0:0:0:
197,93,11304,1,4,0:0:0:0:
193,109,11479,1,0,0:0:0:0:
178,64,11653,1,8,0:0:0:0:
178,65,11828,1,0,0:0:0:0:
185,101,12351,1,8,0:0:0:0:
181,59,12525,1,8,0:0:0:0:
181,59,12700,1,0,0:0:0:0:
181,60,12874,1,0,0:0:0:0:
181,59,13048,1,8,0:0:0:0:
186,91,13397,1,8,0:0:0:0:
198,95,13746,1,0,0:0:0:0:
198,95,14095,1,8,0:0:0:0:
198,95,14269,1,8,0:0:0:0:
178,61,14444,1,0,0:0:0:0:
178,61,14618,1,8,0:0:0:0:
203,157,14967,1,8,0:0:0:0:
176,90,15142,1,0,0:0:0:0:
180,88,15316,1,8,0:0:0:0:
185,87,15490,1,0,0:0:0:0:
199,83,15839,1,8,0:0:0:0:
177,105,16014,1,0,0:0:0:0:
199,83,16188,1,0,0:0:0:0:
189,111,16362,1,8,0:0:0:0:
200,83,16537,1,8,0:0:0:0:
186,110,16886,1,0,0:0:0:0:
185,96,17060,1,0,0:0:0:0:
188,96,17235,1,8,0:0:0:0:
188,96,17409,1,8,0:0:0:0:
177,82,17758,1,8,0:0:0:0:
181,85,17932,1,0,0:0:0:0:
193,80,18107,1,0,0:0:0:0:
181,86,18281,1,8,0:0:0:0:
191,82,18630,1,0,0:0:0:0:
186,100,18804,1,8,0:0:0:0:
186,100,18979,1,0,0:0:0:0:
201,128,19328,1,8,0:0:0:0:
203,137,19502,1,0,0:0:0:0:
212,104,19676,1,12,0:0:0:0:
188,116,20025,1,0,0:0:0:0:
229,109,20200,1,0,0:0:0:0:
229,109,20374,1,8,0:0:0:0:
199,84,20723,1,4,0:0:0:0:
175,72,21072,1,0,0:0:0:0:
182,109,21246,1,0,0:0:0:0:
182,109,21421,1,8,0:0:0:0:
187,95,21769,1,8,0:0:0:0:
176,59,21944,1,0,0:0:0:0:
177,59,22118,1,8,0:0:0:0:
171,89,22293,1,0,0:0:0:0:
166,112,22380,1,0,0:0:0:0:
197,93,22467,1,12,0:0:0:0:
193,109,22642,1,0,0:0:0:0:
178,64,22816,1,8,0:0:0:0:
178,65,22990,1,0,0:0:0:0:
185,101,23514,1,8,0:0:0:0:
165,124,23688,1,0,0:0:0:0:
165,34,23862,1,8,0:0:0:0:
173,101,24037,1,8,0:0:0:0:
180,88,24211,1,0,0:0:0:0:
162,26,24560,1,0,0:0:0:0:
198,95,24909,1,0,0:0:0:0:
192,79,25258,1,0,0:0:0:0:
198,95,25432,1,8,0:0:0:0:
192,79,25607,1,8,0:0:0:0:
193,79,25781,1,0,0:0:0:0:
140,79,26130,1,0,0:0:0:0:
202,62,26304,1,8,0:0:0:0:
146,78,26479,1,0,0:0:0:0:
185,87,26653,1,0,0:0:0:0:
187,52,27002,1,0,0:0:0:0:
178,68,27176,1,0,0:0:0:0:
171,62,27351,1,8,0:0:0:0:
180,107,27525,1,0,0:0:0:0:
188,108,27700,1,0,0:0:0:0:
186,110,28048,1,0,0:0:0:0:
185,96,28223,1,0,0:0:0:0:
188,96,28397,1,8,0:0:0:0:
188,96,28572,1,8,0:0:0:0:
177,82,28921,1,8,0:0:0:0:
181,85,29095,1,0,0:0:0:0:
193,80,29269,1,0,0:0:0:0:
181,86,29444,1,8,0:0:0:0:
216,117,29618,1,0,0:0:0:0:
192,89,29793,1,8,0:0:0:0:
186,100,30142,1,0,0:0:0:0:
201,128,30490,1,8,0:0:0:0:
203,137,30665,1,0,0:0:0:0:
212,104,30839,1,12,0:0:0:0:
185,112,31101,1,0,0:0:0:0:
188,116,31188,1,0,0:0:0:0:
229,109,31362,1,4,0:0:0:0:
241,120,31537,1,8,0:0:0:0:
241,120,31624,1,8,0:0:0:0:
241,120,31711,1,0,0:0:0:0:
199,84,31886,1,12,0:0:0:0:
191,142,33630,1,8,0:0:0:0:
196,91,33979,1,8,0:0:0:0:
196,91,34328,1,8,0:0:0:0:
191,142,34676,1,8,0:0:0:0:
199,140,35025,1,8,0:0:0:0:
201,140,35374,1,8,0:0:0:0:
203,141,35723,1,8,0:0:0:0:
204,141,36072,1,8,0:0:0:0:
180,109,36421,1,0,0:0:0:0:
180,109,36769,1,0,0:0:0:0:
180,109,37118,1,0,0:0:0:0:
180,109,37467,1,0,0:0:0:0:
171,93,37816,1,0,0:0:0:0:
171,93,38165,1,0,0:0:0:0:
171,93,38514,1,0,0:0:0:0:
175,88,38775,1,0,0:0:0:0:
171,93,38862,1,0,0:0:0:0:
176,87,39037,1,0,0:0:0:0:
189,78,39211,1,8,0:0:0:0:
191,78,39560,1,8,0:0:0:0:
192,78,39909,1,8,0:0:0:0:
197,80,40258,1,8,0:0:0:0:
197,80,40607,1,8,0:0:0:0:
196,82,40955,1,8,0:0:0:0:
198,100,41304,1,8,0:0:0:0:
198,102,41653,1,8,0:0:0:0:
192,111,42002,1,0,0:0:0:0:
170,108,42176,1,8,0:0:0:0:
195,150,42351,1,0,0:0:0:0:
182,113,42700,1,0,0:0:0:0:
186,78,43048,1,8,0:0:0:0:
181,125,43397,1,8,0:0:0:0:
188,131,43746,1,0,0:0:0:0:
178,69,44095,1,0,0:0:0:0:
186,84,44182,1,0,0:0:0:0:
194,73,44269,1,8,0:0:0:0:
177,67,44444,1,8,0:0:0:0:
177,67,44531,1,8,0:0:0:0:
186,62,44618,1,0,0:0:0:0:
186,62,44705,1,0,0:0:0:0:
186,62,44793,1,12,0:0:0:0:
204,229,45142,1,0,0:0:0:0:
217,178,45316,1,0,0:0:0:0:
217,178,45490,1,8,0:0:0:0:
201,178,45839,1,0,0:0:0:0:
204,178,46188,1,8,0:0:0:0:
206,116,46537,1,8,0:0:0:0:
179,46,46711,1,8,0:0:0:0:
216,118,46886,1,0,0:0:0:0:
192,108,47060,1,0,0:0:0:0:
188,65,47235,1,8,0:0:0:0:
202,110,47583,1,8,0:0:0:0:
209,102,47932,1,8,0:0:0:0:
209,102,48107,1,0,0:0:0:0:
186,76,48281,1,8,0:0:0:0:
214,98,48630,1,0,0:0:0:0:
238,159,48804,1,0,0:0:0:0:
209,150,48979,1,8,0:0:0:0:
210,139,49328,1,8,0:0:0:0:
197,93,49502,1,0,0:0:0:0:
203,101,49676,1,0,0:0:0:0:
203,103,49851,1,8,0:0:0:0:
203,104,50025,1,8,0:0:0:0:
246,129,50374,1,4,0:0:0:0:
179,93,50548,1,8,0:0:0:0:
182,73,50723,1,0,0:0:0:0:
194,117,50897,1,8,0:0:0:0:
198,116,51072,1,0,0:0:0:0:
189,147,51421,1,0,0:0:0:0:
189,147,51508,1,0,0:0:0:0:
189,147,51595,1,8,0:0:0:0:
189,147,51769,1,0,0:0:0:0:
164,62,51944,1,8,0:0:0:0:
164,62,52118,1,0,0:0:0:0:
164,62,52293,1,8,0:0:0:0:
181,92,52467,1,0,0:0:0:0:
191,90,52816,1,0,0:0:0:0:
200,121,52903,1,0,0:0:0:0:
219,113,52990,1,8,0:0:0:0:
196,61,53165,1,12,0:0:0:0:
186,52,53514,1,0,0:0:0:0:
186,52,53688,1,12,0:0:0:0:
187,85,54037,1,8,0:0:0:0:
181,56,54211,1,4,0:0:0:0:
214,75,54560,1,0,0:0:0:0:
222,75,54735,1,8,0:0:0:0:
222,75,54909,1,0,0:0:0:0:
222,75,55083,1,8,0:0:0:0:
192,74,55258,1,0,0:0:0:0:
192,74,55432,1,0,0:0:0:0:
193,74,55607,1,8,0:0:0:0:
158,135,55955,1,4,0:0:0:0:
250,220,56304,1,8,0:0:0:0:
250,220,56479,1,0,0:0:0:0:
222,207,56828,1,0,0:0:0:0:
179,79,57002,1,0,0:0:0:0:
197,142,57176,1,0,0:0:0:0:
208,136,57525,1,0,0:0:0:0:
207,136,57700,1,8,0:0:0:0:
213,112,58049,1,0,0:0:0:0:
231,126,58223,1,8,0:0:0:0:
209,101,58397,1,0,0:0:0:0:
209,101,58572,1,0,0:0:0:0:
192,135,58921,1,0,0:0:0:0:
250,220,59095,1,8,0:0:0:0:
250,220,59270,1,0,0:0:0:0:
222,207,59619,1,0,0:0:0:0:
179,79,59793,1,0,0:0:0:0:
197,142,59967,1,0,0:0:0:0:
208,136,60316,1,0,0:0:0:0:
207,136,60491,1,8,0:0:0:0:
213,112,60840,1,0,0:0:0:0:
231,126,61014,1,8,0:0:0:0:
209,101,61188,1,0,0:0:0:0:
158,135,61537,1,0,0:0:0:0:
228,151,61711,1,0,0:0:0:0:
250,220,61886,1,8,0:0:0:0:
250,220,62061,1,0,0:0:0:0:
222,207,62410,1,0,0:0:0:0:
179,79,62584,1,0,0:0:0:0:
197,142,62758,1,0,0:0:0:0:
208,136,63107,1,0,0:0:0:0:
207,136,63282,1,8,0:0:0:0:
213,112,63631,1,0,0:0:0:0:
231,126,63805,1,8,0:0:0:0:
209,101,63979,1,0,0:0:0:0:
209,101,64154,1,0,0:0:0:0:
192,135,64503,1,0,0:0:0:0:
250,220,64677,1,8,0:0:0:0:
250,220,64852,1,0,0:0:0:0:
222,207,65201,1,0,0:0:0:0:
179,79,65375,1,0,0:0:0:0:
197,142,65549,1,0,0:0:0:0:
208,136,65898,1,0,0:0:0:0:
207,136,66073,1,8,0:0:0:0:
213,112,66422,1,0,0:0:0:0:
204,57,66595,1,0,0:0:0:0:
204,57,66769,1,8,0:0:0:0:
193,129,66944,1,0,0:0:0:0:
190,130,67031,1,0,0:0:0:0:
202,106,67118,1,12,0:0:0:0:
176,166,67293,1,0,0:0:0:0:
176,166,67467,1,8,0:0:0:0:
176,166,67642,1,0,0:0:0:0:
185,101,68165,5,8,0:0:0:0:
188,125,68339,1,0,0:0:0:0:
196,107,68514,1,8,0:0:0:0:
196,107,68688,1,8,0:0:0:0:
181,87,68862,1,0,0:0:0:0:
186,91,69211,1,8,0:0:0:0:
198,95,69560,1,0,0:0:0:0:
198,95,69909,1,8,0:0:0:0:
198,95,70083,1,8,0:0:0:0:
178,61,70258,1,0,0:0:0:0:
178,61,70432,1,8,0:0:0:0:
173,87,70955,1,8,0:0:0:0:
180,88,71130,1,8,0:0:0:0:
185,87,71304,1,0,0:0:0:0:
189,90,71653,1,8,0:0:0:0:
185,66,71828,1,0,0:0:0:0:
199,83,72002,1,0,0:0:0:0:
179,73,72176,1,8,0:0:0:0:
200,83,72351,1,8,0:0:0:0:
186,110,72700,1,0,0:0:0:0:
185,96,72874,1,0,0:0:0:0:
188,96,73048,1,8,0:0:0:0:
188,96,73223,1,8,0:0:0:0:
181,85,73746,1,0,0:0:0:0:
193,80,73921,1,0,0:0:0:0:
181,86,74095,1,8,0:0:0:0:
188,96,74269,1,8,0:0:0:0:
191,82,74444,1,0,0:0:0:0:
186,100,74793,1,0,0:0:0:0:
201,128,75142,1,8,0:0:0:0:
203,137,75316,1,0,0:0:0:0:
212,104,75490,1,12,0:0:0:0:
188,116,75839,1,0,0:0:0:0:
229,109,76014,1,0,0:0:0:0:
229,109,76188,1,8,0:0:0:0:
199,84,76537,1,4,0:0:0:0:
175,72,76886,1,0,0:0:0:0:
182,109,77060,1,0,0:0:0:0:
182,109,77235,1,8,0:0:0:0:
187,95,77583,1,8,0:0:0:0:
176,59,77758,1,0,0:0:0:0:
177,59,77932,1,8,0:0:0:0:
171,89,78107,1,0,0:0:0:0:
166,112,78194,1,0,0:0:0:0:
197,93,78281,1,12,0:0:0:0:
193,109,78455,1,0,0:0:0:0:
178,64,78630,1,8,0:0:0:0:
178,65,78804,1,0,0:0:0:0:
166,52,79328,1,0,0:0:0:0:
165,124,79502,1,0,0:0:0:0:
165,34,79676,1,8,0:0:0:0:
169,93,79851,1,0,0:0:0:0:
158,37,80025,1,8,0:0:0:0:
155,29,80374,1,8,0:0:0:0:
198,95,80723,1,0,0:0:0:0:
192,79,81072,1,0,0:0:0:0:
198,95,81246,1,8,0:0:0:0:
192,79,81421,1,8,0:0:0:0:
193,79,81595,1,0,0:0:0:0:
195,68,81944,1,0,0:0:0:0:
202,62,82118,1,8,0:0:0:0:
185,91,82293,1,0,0:0:0:0:
178,68,82467,1,8,0:0:0:0:
181,51,82642,1,8,0:0:0:0:
186,36,82990,1,8,0:0:0:0:
186,36,83165,1,0,0:0:0:0:
186,36,83339,1,8,0:0:0:0:
186,36,83514,1,8,0:0:0:0:
186,110,83862,1,0,0:0:0:0:
185,96,84037,1,0,0:0:0:0:
188,96,84211,1,8,0:0:0:0:
188,96,84386,1,8,0:0:0:0:
181,85,84909,1,0,0:0:0:0:
193,80,85083,1,0,0:0:0:0:
181,86,85258,1,8,0:0:0:0:
192,89,85607,1,8,0:0:0:0:
186,100,85781,1,8,0:0:0:0:
186,100,85955,1,0,0:0:0:0:
201,128,86304,1,8,0:0:0:0:
203,137,86479,1,0,0:0:0:0:
212,104,86653,1,12,0:0:0:0:
185,112,86915,1,0,0:0:0:0:
188,116,87002,1,0,0:0:0:0:
229,109,87176,1,4,0:0:0:0:
241,120,87351,1,8,0:0:0:0:
241,120,87438,1,8,0:0:0:0:
241,120,87525,1,0,0:0:0:0:
199,84,87700,1,12,0:0:0:0:
191,142,89444,1,8,0:0:0:0:
196,91,89793,1,8,0:0:0:0:
196,91,90142,1,8,0:0:0:0:
191,142,90490,1,8,0:0:0:0:
199,140,90839,1,8,0:0:0:0:
201,140,91188,1,8,0:0:0:0:
203,141,91537,1,8,0:0:0:0:
204,141,91886,1,8,0:0:0:0:
180,109,92235,1,0,0:0:0:0:
180,109,92583,1,0,0:0:0:0:
180,109,92932,1,0,0:0:0:0:
180,109,93281,1,0,0:0:0:0:
171,93,93630,1,0,0:0:0:0:
171,93,93979,1,0,0:0:0:0:
171,93,94328,1,0,0:0:0:0:
175,88,94589,1,0,0:0:0:0:
171,93,94676,1,0,0:0:0:0:
176,87,94851,1,0,0:0:0:0:
189,78,95025,1,8,0:0:0:0:
191,78,95374,1,8,0:0:0:0:
192,78,95723,1,8,0:0:0:0:
197,80,96072,1,8,0:0:0:0:
197,80,96421,1,8,0:0:0:0:
196,82,96769,1,8,0:0:0:0:
198,100,97118,1,8,0:0:0:0:
198,102,97467,1,8,0:0:0:0:
192,111,97816,1,0,0:0:0:0:
170,108,97990,1,8,0:0:0:0:
195,150,98165,1,0,0:0:0:0:
182,113,98514,1,0,0:0:0:0:
186,78,98862,1,8,0:0:0:0:
181,125,99211,1,8,0:0:0:0:
188,131,99560,1,0,0:0:0:0:
178,69,99909,1,0,0:0:0:0:
186,84,99996,1,0,0:0:0:0:
194,73,100083,1,8,0:0:0:0:
177,67,100258,1,8,0:0:0:0:
177,67,100345,1,8,0:0:0:0:
186,62,100432,1,0,0:0:0:0:
186,62,100519,1,0,0:0:0:0:
186,62,100607,1,12,0:0:0:0:
138,152,100781,1,8,0:0:0:0:
231,98,100955,1,8,0:0:0:0:
138,152,101130,1,8,0:0:0:0:
217,178,101304,1,8,0:0:0:0:
201,178,101653,1,0,0:0:0:0:
204,178,102002,1,8,0:0:0:0:
206,116,102351,1,8,0:0:0:0:
179,46,102525,1,8,0:0:0:0:
216,118,102700,1,0,0:0:0:0:
192,108,102874,1,0,0:0:0:0:
188,65,103048,1,8,0:0:0:0:
202,110,103397,1,8,0:0:0:0:
209,102,103746,1,8,0:0:0:0:
209,102,103921,1,0,0:0:0:0:
186,76,104095,1,8,0:0:0:0:
214,98,104444,1,0,0:0:0:0:
238,159,104618,1,0,0:0:0:0:
209,150,104793,1,8,0:0:0:0:
210,139,105142,1,8,0:0:0:0:
197,93,105316,1,0,0:0:0:0:
203,101,105490,1,0,0:0:0:0:
203,103,105665,1,8,0:0:0:0:
203,104,105839,1,8,0:0:0:0:
176,66,106188,1,12,0:0:0:0:
70,180,106537,1,0,0:0:0:0:
219,117,106711,1,0,0:0:0:0:
217,178,106886,1,8,0:0:0:0:
201,178,107235,1,0,0:0:0:0:
204,178,107583,1,8,0:0:0:0:
206,116,107932,1,8,0:0:0:0:
179,46,108107,1,8,0:0:0:0:
216,118,108281,1,0,0:0:0:0:
192,108,108455,1,0,0:0:0:0:
188,65,108630,1,8,0:0:0:0:
202,110,108979,1,8,0:0:0:0:
209,102,109328,1,8,0:0:0:0:
209,102,109502,1,0,0:0:0:0:
186,76,109676,1,8,0:0:0:0:
214,98,110025,1,0,0:0:0:0:
238,159,110200,1,0,0:0:0:0:
183,138,110287,1,0,0:0:0:0:
209,150,110374,1,8,0:0:0:0:
185,116,110548,1,0,0:0:0:0:
210,139,110723,1,8,0:0:0:0:
213,110,111072,1,8,0:0:0:0:
199,126,111159,1,8,0:0:0:0:
178,19,111246,1,0,0:0:0:0:
168,83,111333,1,0,0:0:0:0:
178,19,111421,1,8,0:0:0:0:
173,52,111595,1,0,0:0:0:0:
179,54,111682,1,0,0:0:0:0:
197,112,111769,1,12,0:0:0:0:
250,220,112117,1,8,0:0:0:0:
250,220,112292,1,0,0:0:0:0:
222,207,112641,1,0,0:0:0:0:
179,79,112815,1,0,0:0:0:0:
197,142,112989,1,0,0:0:0:0:
208,136,113338,1,0,0:0:0:0:
207,136,113513,1,8,0:0:0:0:
213,112,113862,1,0,0:0:0:0:
231,126,114036,1,8,0:0:0:0:
209,101,114210,1,0,0:0:0:0:
209,101,114385,1,0,0:0:0:0:
209,102,114909,1,8,0:0:0:0:
209,102,115084,1,0,0:0:0:0:
186,76,115258,1,8,0:0:0:0:
214,98,115607,1,0,0:0:0:0:
238,159,115781,1,0,0:0:0:0:
209,150,115956,1,8,0:0:0:0:
210,139,116305,1,8,0:0:0:0:
197,93,116479,1,0,0:0:0:0:
203,101,116653,1,0,0:0:0:0:
203,103,116828,1,8,0:0:0:0:
203,104,117002,1,8,0:0:0:0:
176,66,117351,1,12,0:0:0:0:
194,86,117525,1,8,0:0:0:0:
185,86,117700,1,0,0:0:0:0:
201,94,117874,1,8,0:0:0:0:
181,59,118048,1,0,0:0:0:0:
179,79,118397,1,0,0:0:0:0:
186,96,118485,1,0,0:0:0:0:
186,96,118572,1,8,0:0:0:0:
185,120,118746,1,0,0:0:0:0:
189,109,118921,1,8,0:0:0:0:
210,118,119095,1,0,0:0:0:0:
207,128,119269,1,8,0:0:0:0:
213,112,119444,1,0,0:0:0:0:
175,116,119793,1,8,0:0:0:0:
171,115,119880,1,8,0:0:0:0:
171,190,119967,1,8,0:0:0:0:
189,53,120054,1,8,0:0:0:0:
173,54,120142,1,4,0:0:0:0:
209,102,120490,1,8,0:0:0:0:
209,102,120665,1,4,0:0:0:0:
186,76,120839,1,8,0:0:0:0:
173,67,120926,1,8,0:0:0:0:
172,67,121014,1,0,0:0:0:0:
172,67,121101,1,0,0:0:0:0:
205,75,121188,1,12,0:0:0:0:
238,159,121362,1,0,0:0:0:0:
212,119,121450,1,0,0:0:0:0:
209,150,121537,1,8,0:0:0:0:
210,139,121886,1,8,0:0:0:0:
197,93,122060,1,0,0:0:0:0:
203,101,122235,1,0,0:0:0:0:
203,103,122409,1,8,0:0:0:0:
203,104,122583,1,8,0:0:0:0:
211,144,127118,5,0,0:0:0:0:
250,220,127467,1,8,0:0:0:0:
250,220,127642,1,0,0:0:0:0:
222,207,127991,1,0,0:0:0:0:
179,79,128165,1,0,0:0:0:0:
197,142,128339,1,0,0:0:0:0:
208,136,128688,1,0,0:0:0:0:
207,136,128863,1,8,0:0:0:0:
213,112,129212,1,0,0:0:0:0:
231,126,129386,1,8,0:0:0:0:
209,101,129560,1,0,0:0:0:0:
209,101,129735,1,0,0:0:0:0:
192,135,130084,1,0,0:0:0:0:
250,220,130258,1,8,0:0:0:0:
250,220,130433,1,0,0:0:0:0:
222,207,130782,1,0,0:0:0:0:
179,79,130956,1,0,0:0:0:0:
197,142,131130,1,0,0:0:0:0:
208,136,131479,1,0,0:0:0:0:
207,136,131654,1,8,0:0:0:0:
213,112,132003,1,0,0:0:0:0:
231,126,132177,1,8,0:0:0:0:
209,101,132351,1,0,0:0:0:0:
158,135,132700,1,0,0:0:0:0:
228,151,132874,1,0,0:0:0:0:
250,220,133049,1,8,0:0:0:0:
250,220,133224,1,0,0:0:0:0:
222,207,133573,1,0,0:0:0:0:
179,79,133747,1,0,0:0:0:0:
197,142,133921,1,0,0:0:0:0:
208,136,134270,1,0,0:0:0:0:
207,136,134445,1,8,0:0:0:0:
213,112,134794,1,0,0:0:0:0:
231,126,134968,1,8,0:0:0:0:
209,101,135142,1,0,0:0:0:0:
209,101,135317,1,0,0:0:0:0:
192,135,135666,1,0,0:0:0:0:
250,220,135840,1,8,0:0:0:0:
250,220,136015,1,0,0:0:0:0:
222,207,136362,1,0,0:0:0:0:
179,79,136538,1,0,0:0:0:0:
197,142,136712,1,0,0:0:0:0:
208,136,137061,1,0,0:0:0:0:
207,136,137236,5,8,0:0:0:0:
204,100,137583,1,0,0:0:0:0:
204,100,137758,1,8,0:0:0:0:
204,100,137932,1,0,0:0:0:0:
235,162,138281,1,0,0:0:0:0:
235,162,138804,1,8,0:0:0:0:
215,106,141072,1,8,0:0:0:0:
196,75,141246,1,0,0:0:0:0:
196,75,141595,1,8,0:0:0:0:
158,74,143339,1,8,0:0:0:0:
204,164,143862,1,0,0:0:0:0:
187,117,144386,1,8,0:0:0:0:
215,106,146653,1,8,0:0:0:0:
196,75,146828,1,0,0:0:0:0:
161,115,147002,1,8,0:0:0:0:
196,94,147351,1,0,0:0:0:0:
215,106,147700,1,8,0:0:0:0:
196,94,148048,1,0,0:0:0:0:
211,106,148397,1,8,0:0:0:0:
196,94,148746,1,0,0:0:0:0:
196,94,148833,1,0,0:0:0:0:
217,126,148921,1,8,0:0:0:0:
166,69,149095,1,8,0:0:0:0:
156,139,149269,1,0,0:0:0:0:
199,165,149444,1,8,0:0:0:0:
196,142,149531,1,8,0:0:0:0:
192,137,149618,1,8,0:0:0:0:
208,152,149793,1,8,0:0:0:0:
211,157,149967,1,8,0:0:0:0:
206,154,150054,1,8,0:0:0:0:
206,154,150142,1,8,0:0:0:0:
220,164,150316,1,8,0:0:0:0:
221,167,150490,1,8,0:0:0:0:
221,169,150578,1,8,0:0:0:0:
216,164,150665,1,8,0:0:0:0:
192,137,150839,1,8,0:0:0:0:
196,142,150926,1,8,0:0:0:0:
192,137,151014,1,8,0:0:0:0:
192,137,152235,1,0,0:0:0:0:
196,142,152322,1,0,0:0:0:0:
192,137,152409,1,0,0:0:0:0:
208,152,152583,1,0,0:0:0:0:
211,157,152758,1,0,0:0:0:0:
206,154,152845,1,0,0:0:0:0:
206,154,152932,1,0,0:0:0:0:
220,164,153107,1,0,0:0:0:0:
221,167,153281,1,0,0:0:0:0:
221,169,153368,1,0,0:0:0:0:
216,164,153455,1,0,0:0:0:0:
192,137,153630,1,0,0:0:0:0:
196,142,153717,1,0,0:0:0:0:
192,137,153804,1,0,0:0:0:0:
192,137,155025,1,8,0:0:0:0:
196,142,155112,1,8,0:0:0:0:
192,137,155200,1,8,0:0:0:0:
208,152,155374,1,8,0:0:0:0:
211,157,155548,1,8,0:0:0:0:
206,154,155636,1,8,0:0:0:0:
206,154,155723,1,8,0:0:0:0:
220,164,155897,1,8,0:0:0:0:
221,167,156072,1,8,0:0:0:0:
221,169,156159,1,8,0:0:0:0:
216,164,156246,1,8,0:0:0:0:
192,137,156421,1,8,0:0:0:0:
196,142,156508,1,8,0:0:0:0:
192,137,156595,1,8,0:0:0:0:
192,137,157816,1,0,0:0:0:0:
196,142,157903,1,0,0:0:0:0:
192,137,157990,1,0,0:0:0:0:
208,152,158165,1,0,0:0:0:0:
211,157,158339,1,0,0:0:0:0:
206,154,158426,1,0,0:0:0:0:
206,154,158514,1,0,0:0:0:0:
220,164,158688,1,0,0:0:0:0:
221,167,158862,1,0,0:0:0:0:
221,169,158950,1,0,0:0:0:0:
216,164,159037,1,0,0:0:0:0:
192,137,159211,1,0,0:0:0:0:
196,142,159298,1,0,0:0:0:0:
192,137,159386,1,0,0:0:0:0:
192,137,160607,1,8,0:0:0:0:
196,142,160694,1,8,0:0:0:0:
192,137,160781,1,8,0:0:0:0:
208,152,160955,1,8,0:0:0:0:
211,157,161130,1,8,0:0:0:0:
206,154,161217,1,8,0:0:0:0:
206,154,161304,1,8,0:0:0:0:
220,164,161479,1,8,0:0:0:0:
221,167,161653,1,8,0:0:0:0:
221,169,161740,1,8,0:0:0:0:
216,164,161828,1,8,0:0:0:0:
192,137,162002,1,8,0:0:0:0:
196,142,162089,1,8,0:0:0:0:
192,137,162176,1,8,0:0:0:0:
192,137,163397,1,0,0:0:0:0:
196,142,163485,1,0,0:0:0:0:
192,137,163572,1,0,0:0:0:0:
208,152,163746,1,0,0:0:0:0:
211,157,163921,1,0,0:0:0:0:
206,154,164008,1,0,0:0:0:0:
206,154,164095,1,0,0:0:0:0:
220,164,164269,1,0,0:0:0:0:
221,167,164444,1,0,0:0:0:0:
221,169,164531,1,0,0:0:0:0:
216,164,164618,1,0,0:0:0:0:
192,137,164793,1,0,0:0:0:0:
196,142,164880,1,0,0:0:0:0:
192,137,164967,1,0,0:0:0:0:
192,137,166188,1,8,0:0:0:0:
196,142,166275,1,8,0:0:0:0:
192,137,166362,1,8,0:0:0:0:
208,152,166537,1,8,0:0:0:0:
211,157,166711,1,8,0:0:0:0:
206,154,166798,1,8,0:0:0:0:
206,154,166886,1,8,0:0:0:0:
220,164,167060,1,8,0:0:0:0:
221,167,167235,1,8,0:0:0:0:
221,169,167322,1,8,0:0:0:0:
216,164,167409,1,8,0:0:0:0:
192,137,167583,1,8,0:0:0:0:
196,142,167671,1,8,0:0:0:0:
192,137,167758,1,8,0:0:0:0:
192,137,168979,1,0,0:0:0:0:
196,142,169066,1,0,0:0:0:0:
192,137,169153,1,0,0:0:0:0:
208,152,169328,1,0,0:0:0:0:
211,157,169502,1,0,0:0:0:0:
206,154,169589,1,0,0:0:0:0:
206,154,169676,1,12,0:0:0:0:
189,148,170374,1,8,0:0:0:0:
193,150,170723,1,0,0:0:0:0:
194,153,171072,1,0,0:0:0:0:
223,162,171246,1,0,0:0:0:0:
179,97,171421,1,8,0:0:0:0:
175,103,171508,1,8,0:0:0:0:
176,101,171595,1,0,0:0:0:0:
192,137,171769,1,8,0:0:0:0:
196,142,171857,1,8,0:0:0:0:
192,137,171944,1,8,0:0:0:0:
208,152,172118,1,8,0:0:0:0:
211,157,172293,1,8,0:0:0:0:
206,154,172380,1,8,0:0:0:0:
206,154,172467,1,8,0:0:0:0:
220,164,172642,1,8,0:0:0:0:
221,167,172816,1,8,0:0:0:0:
221,169,172903,1,8,0:0:0:0:
216,164,172990,1,8,0:0:0:0:
192,137,173165,1,8,0:0:0:0:
196,142,173252,1,8,0:0:0:0:
192,137,173339,1,8,0:0:0:0:
192,137,174560,1,0,0:0:0:0:
196,142,174647,1,0,0:0:0:0:
192,137,174735,1,0,0:0:0:0:
208,152,174909,1,0,0:0:0:0:
211,157,175083,1,0,0:0:0:0:
206,154,175171,1,0,0:0:0:0:
206,154,175258,1,0,0:0:0:0:
220,164,175432,1,0,0:0:0:0:
221,167,175607,1,0,0:0:0:0:
221,169,175694,1,0,0:0:0:0:
216,164,175781,1,0,0:0:0:0:
192,137,175955,1,0,0:0:0:0:
196,142,176043,1,0,0:0:0:0:
192,137,176130,1,0,0:0:0:0:
192,137,177351,1,8,0:0:0:0:
196,142,177438,1,8,0:0:0:0:
192,137,177525,1,8,0:0:0:0:
208,152,177700,1,8,0:0:0:0:
211,157,177874,1,8,0:0:0:0:
206,154,177961,1,8,0:0:0:0:
206,154,178048,1,8,0:0:0:0:
220,164,178223,1,8,0:0:0:0:
221,167,178397,1,8,0:0:0:0:
221,169,178485,1,8,0:0:0:0:
216,164,178572,1,8,0:0:0:0:
192,137,178746,1,8,0:0:0:0:
196,142,178833,1,8,0:0:0:0:
192,137,178921,1,8,0:0:0:0:
192,137,180142,1,0,0:0:0:0:
196,142,180229,1,0,0:0:0:0:
192,137,180316,1,0,0:0:0:0:
208,152,180490,1,0,0:0:0:0:
211,157,180665,1,0,0:0:0:0:
206,154,180752,1,0,0:0:0:0:
206,154,180839,1,0,0:0:0:0:
220,164,181014,1,0,0:0:0:0:
221,167,181188,1,0,0:0:0:0:
221,169,181275,1,0,0:0:0:0:
216,164,181362,1,0,0:0:0:0:
192,137,181537,1,0,0:0:0:0:
196,142,181624,1,0,0:0:0:0:
192,137,181711,1,0,0:0:0:0:
176,78,182671,1,0,0:0:0:0:
192,137,182932,1,8,0:0:0:0:
196,142,183019,1,8,0:0:0:0:
192,137,183107,1,8,0:0:0:0:
208,152,183281,1,8,0:0:0:0:
211,157,183455,1,8,0:0:0:0:
206,154,183543,1,8,0:0:0:0:
206,154,183630,1,8,0:0:0:0:
220,164,183804,1,8,0:0:0:0:
221,167,183979,1,8,0:0:0:0:
221,169,184066,1,8,0:0:0:0:
216,164,184153,1,8,0:0:0:0:
192,137,184328,1,8,0:0:0:0:
196,142,184415,1,8,0:0:0:0:
192,137,184502,1,8,0:0:0:0:
204,125,184589,1,8,0:0:0:0:
206,116,184676,1,8,0:0:0:0:
179,46,184851,1,8,0:0:0:0:
216,118,185025,1,0,0:0:0:0:
192,108,185200,1,0,0:0:0:0:
188,65,185374,1,8,0:0:0:0:
192,137,185723,1,0,0:0:0:0:
196,142,185810,1,0,0:0:0:0:
192,137,185897,1,0,0:0:0:0:
208,152,186072,1,0,0:0:0:0:
211,157,186246,1,0,0:0:0:0:
206,154,186333,1,0,0:0:0:0:
206,154,186421,1,0,0:0:0:0:
220,164,186595,1,0,0:0:0:0:
221,167,186769,1,0,0:0:0:0:
221,169,186857,1,0,0:0:0:0:
216,164,186944,1,0,0:0:0:0:
192,137,187118,1,0,0:0:0:0:
196,142,187205,1,0,0:0:0:0:
192,137,187293,1,0,0:0:0:0:
192,137,187380,1,0,0:0:0:0:
196,142,187467,1,0,0:0:0:0:
209,102,187642,1,0,0:0:0:0:
186,76,187816,1,8,0:0:0:0:
214,98,188165,1,0,0:0:0:0:
238,159,188339,1,0,0:0:0:0:
192,137,188514,1,8,0:0:0:0:
196,142,188601,1,8,0:0:0:0:
192,137,188688,1,8,0:0:0:0:
208,152,188862,1,8,0:0:0:0:
211,157,189037,1,8,0:0:0:0:
206,154,189124,1,8,0:0:0:0:
206,154,189211,1,8,0:0:0:0:
220,164,189386,1,8,0:0:0:0:
221,167,189560,1,8,0:0:0:0:
221,169,189647,1,8,0:0:0:0:
216,164,189735,1,8,0:0:0:0:
192,137,189909,1,8,0:0:0:0:
196,142,189996,1,8,0:0:0:0:
192,137,190083,1,8,0:0:0:0:
192,137,190171,1,8,0:0:0:0:
210,139,190258,1,8,0:0:0:0:
197,93,190432,1,0,0:0:0:0:
203,101,190607,1,0,0:0:0:0:
203,103,190781,1,8,0:0:0:0:
203,104,190955,1,8,0:0:0:0:
196,142,191304,1,0,0:0:0:0:
196,142,191392,1,0,0:0:0:0:
192,137,191479,1,0,0:0:0:0:
208,152,191653,1,0,0:0:0:0:
211,157,191828,1,0,0:0:0:0:
206,154,191915,1,0,0:0:0:0:
206,154,192002,1,0,0:0:0:0:
220,164,192176,1,0,0:0:0:0:
221,167,192351,1,0,0:0:0:0:
221,169,192438,1,0,0:0:0:0:
216,164,192525,1,0,0:0:0:0:
192,137,192700,1,0,0:0:0:0:
196,142,192787,1,0,0:0:0:0:
192,137,192874,1,0,0:0:0:0:
192,137,193048,1,0,0:0:0:0:
192,137,193223,1,0,0:0:0:0:
192,137,193310,1,0,0:0:0:0:
208,152,193397,1,0,0:0:0:0:
211,157,193572,1,0,0:0:0:0:
206,154,193746,1,0,0:0:0:0:
206,154,193833,1,0,0:0:0:0:
220,164,193921,1,0,0:0:0:0:
164,129,194095,1,12,0:0:0:0:
256,192,194269,12,0,199328,0:0:0:0:
4,267,199458,6,0,P|18:302|66:369,1,105.000004005432
