osu file format v14

[General]
AudioFilename: audio.mp3
AudioLeadIn: 0
PreviewTime: 32191
Countdown: 0
SampleSet: Normal
StackLeniency: 0.7
Mode: 1
LetterboxInBreaks: 0
WidescreenStoryboard: 1

[Editor]
DistanceSpacing: 0.9
BeatDivisor: 4
GridSize: 32
TimelineZoom: 3.999999

[Metadata]
Title:Spoiled little brat
TitleUnicode:Spoiled little brat
Artist:underscores
ArtistUnicode:underscores
Creator:Horiiizon
Version:futsuu
Source:
Tags:d3kuu fishmonger indie pop hyperpop alternative r&b rhythm and n blues english
BeatmapID:3052851
BeatmapSetID:1487650

[Difficulty]
HPDrainRate:7.1
CircleSize:5
OverallDifficulty:4.1
ApproachRate:5
SliderMultiplier:1.4
SliderTickRate:1

[Events]
//Background and Video events
0,0,"underscores.jpg",0,-45
//Break Periods
2,123979,125918
//Storyboard Layer 0 (Background)
//Storyboard Layer 1 (Fail)
//Storyboard Layer 2 (Pass)
//Storyboard Layer 3 (Foreground)
//Storyboard Layer 4 (Overlay)
//Storyboard Sound Samples

[TimingPoints]
142,348.837209302326,4,1,0,40,1,0
142,-100,4,1,0,40,0,0
11261,-100,4,1,0,60,0,0
32191,-100,4,1,0,0,0,0
33586,-100,4,1,0,50,0,0
44749,-100,4,1,0,60,0,0
56261,-100,4,1,0,40,0,0
66726,-100,4,1,0,50,0,0
67075,-100,4,1,0,60,0,0
88005,-100,4,1,0,0,0,0
89400,-100,4,1,0,50,0,0
100563,-100,4,1,0,60,0,0
111900,-100,4,1,0,50,0,0
120098,-100,4,1,0,60,0,0
122889,-100,4,1,0,0,0,0
127075,-100,4,1,0,40,0,0
138237,-100,4,1,0,50,0,0
148703,-100,4,1,0,60,0,0
149400,-100,4,1,0,90,0,0
149444,-76.9230769230769,4,1,0,90,0,1
150839,-100,4,1,0,90,0,1
151100,-100,4,1,0,90,0,1
151188,-100,4,1,0,0,0,0
152191,-100,4,1,0,90,0,0
152235,-66.6666666666667,4,1,0,90,0,1
153630,-100,4,1,0,90,0,1
153891,-100,4,1,0,90,0,1
153979,-100,4,1,0,0,0,0
154981,-100,4,1,0,90,0,0
155025,-76.9230769230769,4,1,0,90,0,1
156421,-100,4,1,0,90,0,1
156682,-100,4,1,0,90,0,1
156769,-100,4,1,0,0,0,0
157772,-100,4,1,0,90,0,0
157816,-66.6666666666667,4,1,0,90,0,1
159211,-100,4,1,0,90,0,1
159472,-100,4,1,0,90,0,1
159560,-100,4,1,0,0,0,0
160563,-100,4,1,0,90,0,0
160607,-76.9230769230769,4,1,0,90,0,1
162002,-100,4,1,0,90,0,1
162263,-100,4,1,0,90,0,1
162351,-100,4,1,0,0,0,0
163354,-100,4,1,0,90,0,0
163397,-66.6666666666667,4,1,0,90,0,1
164793,-100,4,1,0,90,0,1
165054,-100,4,1,0,90,0,1
165142,-100,4,1,0,0,0,0
166144,-100,4,1,0,90,0,0
166188,-76.9230769230769,4,1,0,90,0,1
167583,-100,4,1,0,90,0,1
167845,-100,4,1,0,90,0,1
167932,-100,4,1,0,0,0,0
168935,-100,4,1,0,90,0,0
168979,-71.4285714285714,4,1,0,90,0,1
169676,-76.9230769230769,4,1,0,90,0,0
170330,-100,4,1,0,50,0,0
171726,-100,4,1,0,90,0,0
171769,-76.9230769230769,4,1,0,90,0,1
173165,-100,4,1,0,90,0,1
173426,-100,4,1,0,90,0,1
173514,-100,4,1,0,0,0,0
174517,-100,4,1,0,90,0,0
174560,-66.6666666666667,4,1,0,90,0,1
175955,-100,4,1,0,90,0,1
176217,-100,4,1,0,90,0,1
176304,-100,4,1,0,0,0,0
177307,-100,4,1,0,90,0,0
177351,-76.9230769230769,4,1,0,90,0,1
178746,-100,4,1,0,90,0,1
179008,-100,4,1,0,90,0,1
179095,-100,4,1,0,0,0,0
180098,-100,4,1,0,90,0,0
180142,-66.6666666666667,4,1,0,90,0,1
181537,-100,4,1,0,90,0,1
181798,-100,4,1,0,90,0,1
181886,-100,4,1,0,0,0,0
182627,-100,4,1,0,80,0,0
182889,-100,4,1,0,100,0,0
182932,-76.9230769230769,4,1,0,100,0,1
194095,-76.9230769230769,4,1,0,100,0,0
194226,-76.9230769230769,4,1,0,50,0,0
194443,-100,4,1,0,49,0,0
194617,-100,4,1,0,48,0,0
194792,-100,4,1,0,47,0,0
194966,-100,4,1,0,46,0,0
195141,-100,4,1,0,45,0,0
195315,-100,4,1,0,44,0,0
195489,-100,4,1,0,43,0,0
195664,-100,4,1,0,42,0,0
195838,-100,4,1,0,41,0,0
196013,-100,4,1,0,40,0,0
196187,-100,4,1,0,39,0,0
196362,-100,4,1,0,38,0,0
196536,-100,4,1,0,37,0,0
196710,-100,4,1,0,36,0,0
196885,-100,4,1,0,35,0,0
197059,-100,4,1,0,34,0,0
197234,-100,4,1,0,33,0,0
197408,-100,4,1,0,32,0,0
197582,-100,4,1,0,31,0,0
197757,-100,4,1,0,30,0,0
197931,-100,4,1,0,29,0,0
198106,-100,4,1,0,28,0,0
198280,-100,4,1,0,27,0,0
198455,-100,4,1,0,26,0,0
198629,-100,4,1,0,25,0,0
198803,-100,4,1,0,24,0,0
198978,-100,4,1,0,23,0,0
199152,-100,4,1,0,22,0,0
199327,-100,4,1,0,21,0,0
199415,-100,4,1,0,80,0,0

[HitObjects]
205,219,142,5,0,0:0:0:0:
250,220,490,1,8,0:0:0:0:
250,220,665,1,0,0:0:0:0:
222,207,1014,1,0,0:0:0:0:
179,79,1188,1,0,0:0:0:0:
197,142,1362,1,0,0:0:0:0:
208,136,1711,1,0,0:0:0:0:
207,136,1886,1,8,0:0:0:0:
197,115,2583,1,0,0:0:0:0:
182,87,2758,1,0,0:0:0:0:
178,97,3107,1,0,0:0:0:0:
212,153,3281,1,8,0:0:0:0:
212,153,3455,1,0,0:0:0:0:
212,153,3804,1,0,0:0:0:0:
212,153,3979,1,0,0:0:0:0:
212,153,4153,1,0,0:0:0:0:
282,215,4502,1,0,0:0:0:0:
219,160,4676,1,8,0:0:0:0:
204,112,5374,1,0,0:0:0:0:
237,153,5548,1,0,0:0:0:0:
190,170,5723,1,8,0:0:0:0:
214,117,6072,1,8,0:0:0:0:
223,118,6246,1,8,0:0:0:0:
180,91,6595,1,8,0:0:0:0:
188,78,6769,1,8,0:0:0:0:
188,78,6944,1,0,0:0:0:0:
201,113,7293,1,0,0:0:0:0:
176,90,7467,1,8,0:0:0:0:
179,84,8165,1,8,0:0:0:0:
179,84,8339,1,0,0:0:0:0:
214,117,8862,1,8,0:0:0:0:
223,118,9036,1,8,0:0:0:0:
180,91,9385,1,8,0:0:0:0:
188,78,9559,1,8,0:0:0:0:
188,78,9734,1,0,0:0:0:0:
201,113,10083,1,0,0:0:0:0:
176,90,10257,1,8,0:0:0:0:
186,120,10781,1,0,0:0:0:0:
179,84,10955,1,8,0:0:0:0:
197,93,11304,1,4,0:0:0:0:
178,64,11653,1,8,0:0:0:0:
178,65,11828,1,0,0:0:0:0:
185,101,12351,1,8,0:0:0:0:
181,59,12700,1,0,0:0:0:0:
181,60,12874,1,0,0:0:0:0:
181,59,13048,1,8,0:0:0:0:
186,91,13397,1,8,0:0:0:0:
198,95,14095,1,8,0:0:0:0:
178,61,14444,1,0,0:0:0:0:
178,61,14618,1,8,0:0:0:0:
203,157,14967,1,8,0:0:0:0:
176,90,15142,1,0,0:0:0:0:
185,87,15490,1,0,0:0:0:0:
199,83,15839,1,8,0:0:0:0:
199,83,16188,1,0,0:0:0:0:
185,87,16362,1,8,0:0:0:0:
173,60,16537,1,8,0:0:0:0:
186,110,16886,1,0,0:0:0:0:
188,96,17235,1,8,0:0:0:0:
188,96,17409,1,8,0:0:0:0:
177,82,17758,1,8,0:0:0:0:
181,85,17932,1,0,0:0:0:0:
181,86,18281,1,8,0:0:0:0:
161,98,18630,1,8,0:0:0:0:
161,98,18804,1,8,0:0:0:0:
165,90,18979,1,0,0:0:0:0:
181,75,19328,1,0,0:0:0:0:
203,137,19502,1,0,0:0:0:0:
212,104,19676,1,12,0:0:0:0:
188,116,20025,1,0,0:0:0:0:
229,109,20374,1,8,0:0:0:0:
199,84,20723,1,4,0:0:0:0:
175,72,21072,1,0,0:0:0:0:
169,62,21246,1,8,0:0:0:0:
182,109,21421,1,8,0:0:0:0:
187,95,21769,1,8,0:0:0:0:
190,112,22118,1,0,0:0:0:0:
171,89,22293,1,0,0:0:0:0:
197,93,22467,1,12,0:0:0:0:
178,64,22816,1,8,0:0:0:0:
178,65,22991,1,0,0:0:0:0:
185,101,23514,1,8,0:0:0:0:
181,59,23863,1,0,0:0:0:0:
181,60,24037,1,0,0:0:0:0:
181,59,24211,1,8,0:0:0:0:
186,91,24560,1,8,0:0:0:0:
215,149,25258,1,0,0:0:0:0:
201,121,25607,1,8,0:0:0:0:
201,121,25781,1,0,0:0:0:0:
201,121,26130,1,0,0:0:0:0:
180,67,26304,1,0,0:0:0:0:
185,87,26653,1,0,0:0:0:0:
199,83,27002,1,8,0:0:0:0:
199,83,27351,1,0,0:0:0:0:
185,87,27525,1,8,0:0:0:0:
173,60,27700,1,8,0:0:0:0:
186,110,28049,1,0,0:0:0:0:
188,96,28398,1,8,0:0:0:0:
188,96,28572,1,8,0:0:0:0:
177,82,28921,1,8,0:0:0:0:
181,85,29095,1,0,0:0:0:0:
190,122,29269,1,0,0:0:0:0:
181,86,29444,1,8,0:0:0:0:
161,98,29793,1,8,0:0:0:0:
161,98,29967,1,8,0:0:0:0:
165,90,30142,1,0,0:0:0:0:
181,75,30491,1,0,0:0:0:0:
203,137,30665,1,0,0:0:0:0:
212,104,30839,1,12,0:0:0:0:
188,116,31188,1,0,0:0:0:0:
229,109,31362,1,12,0:0:0:0:
199,84,31886,1,4,0:0:0:0:
197,128,33630,1,8,0:0:0:0:
178,64,33979,1,8,0:0:0:0:
196,91,34328,1,8,0:0:0:0:
191,142,34676,1,8,0:0:0:0:
199,140,35025,1,8,0:0:0:0:
201,140,35374,1,8,0:0:0:0:
203,141,35723,1,8,0:0:0:0:
180,109,36421,1,0,0:0:0:0:
180,109,36769,1,0,0:0:0:0:
180,109,37118,1,0,0:0:0:0:
180,109,37467,1,0,0:0:0:0:
171,93,37816,1,0,0:0:0:0:
171,93,38165,1,0,0:0:0:0:
171,93,38514,1,0,0:0:0:0:
171,93,38862,1,0,0:0:0:0:
176,87,39037,1,0,0:0:0:0:
189,78,39211,1,8,0:0:0:0:
191,78,39560,1,8,0:0:0:0:
192,78,39909,1,8,0:0:0:0:
197,80,40258,1,8,0:0:0:0:
197,80,40607,1,8,0:0:0:0:
196,82,40955,1,8,0:0:0:0:
198,100,41304,1,8,0:0:0:0:
192,111,42002,1,0,0:0:0:0:
170,108,42176,1,8,0:0:0:0:
195,150,42351,1,0,0:0:0:0:
182,113,42700,1,0,0:0:0:0:
186,78,43048,1,8,0:0:0:0:
181,125,43397,1,8,0:0:0:0:
188,131,43746,1,0,0:0:0:0:
178,69,44095,1,0,0:0:0:0:
191,74,44269,1,0,0:0:0:0:
177,67,44444,1,8,0:0:0:0:
191,74,44793,1,4,0:0:0:0:
217,178,45490,1,8,0:0:0:0:
201,178,45839,1,0,0:0:0:0:
204,178,46188,1,8,0:0:0:0:
206,116,46537,1,8,0:0:0:0:
179,46,46711,1,8,0:0:0:0:
216,118,46886,1,0,0:0:0:0:
181,86,47235,1,0,0:0:0:0:
202,110,47583,1,8,0:0:0:0:
209,102,47932,1,8,0:0:0:0:
209,102,48107,1,0,0:0:0:0:
186,76,48281,1,8,0:0:0:0:
214,98,48630,1,0,0:0:0:0:
238,159,48804,1,0,0:0:0:0:
209,150,48979,1,8,0:0:0:0:
210,139,49328,1,8,0:0:0:0:
197,93,49502,1,0,0:0:0:0:
200,114,49676,1,0,0:0:0:0:
203,104,50025,1,8,0:0:0:0:
246,129,50374,1,12,0:0:0:0:
217,178,51072,1,8,0:0:0:0:
201,178,51421,1,0,0:0:0:0:
204,178,51770,1,8,0:0:0:0:
206,116,52119,1,8,0:0:0:0:
179,46,52293,1,8,0:0:0:0:
216,118,52468,1,0,0:0:0:0:
214,72,52816,1,0,0:0:0:0:
202,110,53165,1,12,0:0:0:0:
186,52,53688,1,12,0:0:0:0:
181,56,54211,1,4,0:0:0:0:
169,76,54560,1,8,0:0:0:0:
210,139,54909,1,8,0:0:0:0:
197,93,55083,1,0,0:0:0:0:
200,114,55257,1,0,0:0:0:0:
203,104,55606,1,8,0:0:0:0:
246,129,55955,1,4,0:0:0:0:
250,220,56479,1,0,0:0:0:0:
222,207,56828,1,0,0:0:0:0:
179,79,57002,1,0,0:0:0:0:
197,142,57176,1,0,0:0:0:0:
208,136,57525,1,0,0:0:0:0:
176,89,57700,1,8,0:0:0:0:
208,136,58397,1,8,0:0:0:0:
209,101,58572,1,0,0:0:0:0:
192,135,58921,1,0,0:0:0:0:
250,220,59095,1,8,0:0:0:0:
250,220,59270,1,0,0:0:0:0:
222,207,59619,1,0,0:0:0:0:
179,79,59793,1,0,0:0:0:0:
197,142,59967,1,0,0:0:0:0:
208,136,60316,1,0,0:0:0:0:
207,136,60491,1,8,0:0:0:0:
179,131,60839,1,8,0:0:0:0:
178,132,61014,1,8,0:0:0:0:
209,101,61188,1,0,0:0:0:0:
207,136,61537,1,0,0:0:0:0:
207,136,61886,1,8,0:0:0:0:
250,220,62060,1,0,0:0:0:0:
222,207,62409,1,0,0:0:0:0:
179,79,62583,1,0,0:0:0:0:
197,142,62757,1,0,0:0:0:0:
208,136,63106,1,0,0:0:0:0:
176,89,63281,1,8,0:0:0:0:
208,136,63978,1,8,0:0:0:0:
209,101,64153,1,0,0:0:0:0:
192,135,64502,1,0,0:0:0:0:
250,220,64676,1,8,0:0:0:0:
250,220,64851,1,0,0:0:0:0:
222,207,65200,1,0,0:0:0:0:
179,79,65374,5,0,0:0:0:0:
197,142,65548,1,0,0:0:0:0:
208,136,65897,1,0,0:0:0:0:
207,136,66072,1,8,0:0:0:0:
182,64,66769,1,0,0:0:0:0:
193,129,66944,1,0,0:0:0:0:
181,87,67118,1,12,0:0:0:0:
176,166,67467,1,8,0:0:0:0:
176,166,67642,1,0,0:0:0:0:
185,101,68165,5,8,0:0:0:0:
188,125,68339,1,0,0:0:0:0:
196,107,68514,1,8,0:0:0:0:
181,87,68862,1,0,0:0:0:0:
186,91,69211,1,8,0:0:0:0:
198,95,69909,1,8,0:0:0:0:
178,61,70258,1,0,0:0:0:0:
178,61,70432,1,8,0:0:0:0:
173,87,70955,1,8,0:0:0:0:
180,88,71130,1,8,0:0:0:0:
185,87,71304,1,0,0:0:0:0:
189,90,71653,1,8,0:0:0:0:
199,83,72002,1,0,0:0:0:0:
179,73,72176,1,8,0:0:0:0:
200,83,72351,1,8,0:0:0:0:
186,110,72700,1,0,0:0:0:0:
188,96,73048,1,8,0:0:0:0:
188,96,73223,1,8,0:0:0:0:
181,85,73746,1,0,0:0:0:0:
193,80,73921,1,0,0:0:0:0:
181,86,74095,1,8,0:0:0:0:
191,82,74444,1,0,0:0:0:0:
186,100,74793,1,0,0:0:0:0:
181,75,75142,1,0,0:0:0:0:
203,137,75316,1,0,0:0:0:0:
212,104,75490,1,12,0:0:0:0:
188,116,75839,1,0,0:0:0:0:
229,109,76188,1,8,0:0:0:0:
199,84,76537,1,4,0:0:0:0:
175,72,76886,1,0,0:0:0:0:
169,62,77060,1,8,0:0:0:0:
182,109,77235,1,8,0:0:0:0:
187,95,77583,1,8,0:0:0:0:
190,112,77932,1,0,0:0:0:0:
171,89,78107,1,0,0:0:0:0:
197,93,78281,1,12,0:0:0:0:
193,151,78630,1,8,0:0:0:0:
193,151,78804,1,0,0:0:0:0:
166,52,79328,1,0,0:0:0:0:
165,124,79502,1,0,0:0:0:0:
165,34,79676,1,8,0:0:0:0:
158,37,80025,1,8,0:0:0:0:
155,29,80374,1,8,0:0:0:0:
192,79,81072,1,0,0:0:0:0:
192,79,81421,1,8,0:0:0:0:
193,79,81595,1,0,0:0:0:0:
202,62,82118,1,8,0:0:0:0:
185,91,82293,1,0,0:0:0:0:
178,68,82467,1,8,0:0:0:0:
181,51,82816,1,8,0:0:0:0:
186,36,83165,1,0,0:0:0:0:
201,80,83339,1,8,0:0:0:0:
186,36,83514,1,8,0:0:0:0:
186,110,83862,1,0,0:0:0:0:
188,96,84211,1,8,0:0:0:0:
188,96,84386,1,8,0:0:0:0:
181,85,84909,1,0,0:0:0:0:
181,86,85258,1,8,0:0:0:0:
192,89,85607,1,8,0:0:0:0:
186,100,85781,1,8,0:0:0:0:
186,100,85955,1,0,0:0:0:0:
204,113,86304,1,0,0:0:0:0:
203,137,86479,1,0,0:0:0:0:
212,104,86653,1,12,0:0:0:0:
188,116,87002,1,0,0:0:0:0:
229,109,87176,1,12,0:0:0:0:
199,84,87700,1,4,0:0:0:0:
191,142,89444,1,8,0:0:0:0:
196,91,89793,1,8,0:0:0:0:
196,91,90142,1,8,0:0:0:0:
191,142,90490,1,8,0:0:0:0:
199,140,90839,1,8,0:0:0:0:
201,140,91188,1,8,0:0:0:0:
203,141,91537,1,8,0:0:0:0:
180,109,92235,1,0,0:0:0:0:
180,109,92583,1,0,0:0:0:0:
180,109,92932,1,0,0:0:0:0:
180,109,93281,1,0,0:0:0:0:
171,93,93630,1,0,0:0:0:0:
171,93,93979,1,0,0:0:0:0:
171,93,94328,1,0,0:0:0:0:
171,93,94676,1,0,0:0:0:0:
176,87,94851,1,0,0:0:0:0:
189,78,95025,1,8,0:0:0:0:
191,78,95374,1,8,0:0:0:0:
192,78,95723,1,8,0:0:0:0:
197,80,96072,1,8,0:0:0:0:
197,80,96421,1,8,0:0:0:0:
196,82,96769,1,8,0:0:0:0:
198,100,97118,1,8,0:0:0:0:
192,111,97816,1,0,0:0:0:0:
170,108,97990,1,8,0:0:0:0:
195,150,98165,1,0,0:0:0:0:
182,113,98514,1,0,0:0:0:0:
186,78,98862,1,8,0:0:0:0:
181,125,99211,1,8,0:0:0:0:
188,131,99560,1,0,0:0:0:0:
178,69,99909,1,0,0:0:0:0:
191,74,100083,1,0,0:0:0:0:
177,67,100258,1,8,0:0:0:0:
190,109,100607,1,8,0:0:0:0:
176,115,100781,1,8,0:0:0:0:
190,109,100955,1,8,0:0:0:0:
217,178,101304,1,8,0:0:0:0:
201,178,101653,1,0,0:0:0:0:
204,178,102002,1,8,0:0:0:0:
206,116,102351,1,8,0:0:0:0:
179,46,102525,1,8,0:0:0:0:
216,118,102700,1,0,0:0:0:0:
181,86,103049,1,0,0:0:0:0:
202,110,103397,1,8,0:0:0:0:
209,102,103746,1,8,0:0:0:0:
209,102,103921,1,0,0:0:0:0:
186,76,104095,1,8,0:0:0:0:
214,98,104444,1,0,0:0:0:0:
238,159,104618,1,0,0:0:0:0:
209,150,104793,1,8,0:0:0:0:
210,139,105142,1,8,0:0:0:0:
197,93,105316,1,0,0:0:0:0:
199,113,105490,1,0,0:0:0:0:
203,104,105839,1,8,0:0:0:0:
246,129,106188,1,12,0:0:0:0:
217,178,106886,1,8,0:0:0:0:
201,178,107235,1,0,0:0:0:0:
204,178,107584,1,8,0:0:0:0:
206,116,107933,1,8,0:0:0:0:
179,46,108107,1,8,0:0:0:0:
216,118,108282,1,0,0:0:0:0:
214,72,108630,1,0,0:0:0:0:
193,107,108979,1,8,0:0:0:0:
209,102,109328,1,8,0:0:0:0:
209,102,109503,1,0,0:0:0:0:
186,76,109677,1,8,0:0:0:0:
214,98,110026,1,0,0:0:0:0:
238,159,110200,1,0,0:0:0:0:
209,150,110375,1,8,0:0:0:0:
210,139,110724,1,8,0:0:0:0:
197,93,110898,1,0,0:0:0:0:
199,113,111072,1,0,0:0:0:0:
214,140,111421,1,0,0:0:0:0:
210,139,111595,1,0,0:0:0:0:
246,129,111770,1,12,0:0:0:0:
250,220,112118,1,8,0:0:0:0:
250,220,112293,1,0,0:0:0:0:
222,207,112642,1,0,0:0:0:0:
179,79,112816,1,0,0:0:0:0:
197,142,112990,1,0,0:0:0:0:
208,136,113339,1,0,0:0:0:0:
207,136,113514,1,8,0:0:0:0:
197,115,114211,1,0,0:0:0:0:
182,87,114386,1,0,0:0:0:0:
209,102,114909,1,8,0:0:0:0:
209,102,115084,1,0,0:0:0:0:
186,76,115258,1,8,0:0:0:0:
214,98,115607,1,0,0:0:0:0:
238,159,115781,1,0,0:0:0:0:
209,150,115956,1,8,0:0:0:0:
210,139,116305,1,8,0:0:0:0:
197,93,116479,1,0,0:0:0:0:
199,113,116653,1,0,0:0:0:0:
203,104,117002,1,8,0:0:0:0:
246,129,117351,1,12,0:0:0:0:
185,86,117700,1,0,0:0:0:0:
201,94,117874,1,8,0:0:0:0:
204,137,118223,1,8,0:0:0:0:
179,79,118397,1,0,0:0:0:0:
135,55,118572,1,8,0:0:0:0:
183,119,118921,1,0,0:0:0:0:
186,113,119095,1,8,0:0:0:0:
199,132,119444,1,0,0:0:0:0:
175,116,119793,1,8,0:0:0:0:
183,119,119967,1,0,0:0:0:0:
202,110,120142,1,12,0:0:0:0:
186,52,120665,1,12,0:0:0:0:
181,56,121188,1,4,0:0:0:0:
169,76,121537,1,8,0:0:0:0:
210,139,121886,1,8,0:0:0:0:
197,93,122060,1,0,0:0:0:0:
203,101,122235,1,0,0:0:0:0:
203,104,122583,1,8,0:0:0:0:
217,142,127118,5,0,0:0:0:0:
217,142,127467,1,8,0:0:0:0:
250,220,127642,5,0,0:0:0:0:
222,207,127991,1,0,0:0:0:0:
179,79,128165,1,0,0:0:0:0:
197,142,128339,1,0,0:0:0:0:
208,136,128688,1,0,0:0:0:0:
176,89,128863,1,8,0:0:0:0:
208,136,129560,1,8,0:0:0:0:
209,101,129735,1,0,0:0:0:0:
192,135,130084,1,0,0:0:0:0:
250,220,130258,1,8,0:0:0:0:
250,220,130433,1,0,0:0:0:0:
222,207,130782,1,0,0:0:0:0:
179,79,130956,1,0,0:0:0:0:
197,142,131130,1,0,0:0:0:0:
208,136,131479,1,0,0:0:0:0:
207,136,131654,1,8,0:0:0:0:
179,131,132002,1,8,0:0:0:0:
178,132,132177,1,8,0:0:0:0:
209,101,132351,1,0,0:0:0:0:
207,136,132700,1,0,0:0:0:0:
207,136,133049,1,8,0:0:0:0:
250,220,133223,1,0,0:0:0:0:
222,207,133572,1,0,0:0:0:0:
179,79,133746,1,0,0:0:0:0:
197,142,133920,1,0,0:0:0:0:
208,136,134269,1,0,0:0:0:0:
176,89,134444,1,8,0:0:0:0:
208,136,135141,1,8,0:0:0:0:
209,101,135316,1,0,0:0:0:0:
192,135,135665,1,0,0:0:0:0:
250,220,135839,1,8,0:0:0:0:
250,220,136014,1,0,0:0:0:0:
222,207,136363,1,0,0:0:0:0:
179,79,136537,5,0,0:0:0:0:
197,142,136711,1,0,0:0:0:0:
208,136,137060,1,0,0:0:0:0:
207,136,137235,1,8,0:0:0:0:
217,113,138281,1,0,0:0:0:0:
217,113,138804,1,8,0:0:0:0:
215,106,141072,5,8,0:0:0:0:
196,75,141246,1,0,0:0:0:0:
196,75,141595,1,8,0:0:0:0:
158,74,143339,1,8,0:0:0:0:
204,164,143862,1,0,0:0:0:0:
187,117,144386,1,8,0:0:0:0:
215,106,146653,1,8,0:0:0:0:
196,75,146828,1,0,0:0:0:0:
161,115,147002,1,8,0:0:0:0:
196,94,147351,1,0,0:0:0:0:
215,106,147700,1,8,0:0:0:0:
196,94,148048,1,0,0:0:0:0:
211,106,148397,1,8,0:0:0:0:
196,94,148746,1,0,0:0:0:0:
186,139,148921,1,0,0:0:0:0:
166,69,149095,1,8,0:0:0:0:
134,87,149444,2,0,L|111:105,38,22.7499989585877
225,118,152235,2,4,L|237:137,76,13.125000500679
134,87,155025,2,0,L|111:105,38,22.7499989585877
225,118,157816,2,4,L|237:137,76,13.125000500679
134,87,160607,2,0,L|111:105,38,22.7499989585877
225,118,163397,2,4,L|237:137,76,13.125000500679
134,87,166188,2,0,L|111:105,38,22.7499989585877
133,156,168979,2,4,L|148:166,24,12.2499996261597
206,154,169676,5,12,0:0:0:0:
189,148,170374,1,8,0:0:0:0:
193,150,170723,1,0,0:0:0:0:
194,153,171072,1,0,0:0:0:0:
223,162,171246,1,0,0:0:0:0:
179,97,171421,1,8,0:0:0:0:
134,87,171769,2,0,L|111:105,38,22.7499989585877
225,118,174560,2,4,L|237:137,76,13.125000500679
134,87,177351,2,0,L|111:105,38,22.7499989585877
225,118,180142,2,4,L|237:137,76,13.125000500679
202,241,182932,2,0,L|220:261,36,22.7499989585877
206,116,184676,5,8,0:0:0:0:
179,46,184851,1,8,0:0:0:0:
216,118,185025,1,0,0:0:0:0:
188,65,185374,1,8,0:0:0:0:
335,231,185723,2,0,L|323:245,72,11.3749994792938
196,142,187467,1,0,0:0:0:0:
209,102,187642,1,0,0:0:0:0:
186,76,187816,1,8,0:0:0:0:
214,98,188165,1,0,0:0:0:0:
202,241,188514,2,0,L|220:261,36,22.7499989585877
210,139,190258,1,8,0:0:0:0:
197,93,190432,1,0,0:0:0:0:
203,101,190607,1,0,0:0:0:0:
203,104,190955,1,8,0:0:0:0:
255,192,191304,2,4,L|268:192,120,11.3749994792938
207,100,194095,1,12,0:0:0:0:
256,192,194269,12,0,199240,0:0:0:0:
167,197,199458,6,0,L|245:203,1,70
