osu file format v14

[General]
AudioFilename: audio.mp3
AudioLeadIn: 0
PreviewTime: 52703
Countdown: 0
SampleSet: Normal
StackLeniency: 0.7
Mode: 0
LetterboxInBreaks: 0
WidescreenStoryboard: 0

[Editor]
Bookmarks: 16343,25943,37463,45143,52823,68183,75863,87383,102743,118103,141143,156503,179543
DistanceSpacing: 0.1
BeatDivisor: 4
GridSize: 4
TimelineZoom: 4.299998

[Metadata]
Title:humanly
TitleUnicode:人間らしい
Artist:umu.
ArtistUnicode:ゆーむ
Creator:Luscent
Version:MirashMyMommy Collab
Source:
Tags:Mirash Delis ShirohaMyMommy _Epreus Epreus Japanese vocaloid GUMI ningenrashii umu ユリイ・カノン YURRY CANON utaite rock
BeatmapID:2233760
BeatmapSetID:1045518

[Difficulty]
HPDrainRate:6
CircleSize:4
OverallDifficulty:9
ApproachRate:9.7
SliderMultiplier:1.4
SliderTickRate:1

[Events]
//Background and Video events
0,0,"bg.png",0,0
//Break Periods
2,76063,83018
2,118303,124328
//Storyboard Layer 0 (Background)
//Storyboard Layer 1 (Fail)
//Storyboard Layer 2 (Pass)
//Storyboard Layer 3 (Foreground)
//Storyboard Layer 4 (Overlay)
//Storyboard Sound Samples

[TimingPoints]
983,240,4,1,1,50,1,0
6503,-100,4,1,1,60,0,0
6623,-100,4,1,1,50,0,0
8663,-83.3333333333333,4,1,1,65,0,0
15383,-76.9230769230769,4,1,1,65,0,0
15863,-71.4285714285714,4,1,1,65,0,0
16103,-66.6666666666667,4,1,1,65,0,0
16343,-83.3333333333333,4,1,1,65,0,0
19943,-71.4285714285714,4,1,1,65,0,0
20183,-83.3333333333333,4,1,1,65,0,0
23063,-76.9230769230769,4,1,1,65,0,0
23543,-71.4285714285714,4,1,1,65,0,0
23783,-66.6666666666667,4,1,1,65,0,0
25943,-100,4,1,1,55,0,0
35543,-200,4,1,1,55,0,0
37463,-66.6666666666667,4,1,1,55,0,0
37823,-100,4,1,1,55,0,0
39383,-76.9230769230769,4,1,1,55,0,0
39863,-100,4,1,1,55,0,0
41303,-76.9230769230769,4,1,1,55,0,0
43943,-76.9230769230769,4,1,1,55,0,0
45503,-133.333333333333,4,1,1,55,0,0
45623,-133.333333333333,4,1,1,60,0,0
45743,-133.333333333333,4,1,1,55,0,0
46703,-133.333333333333,4,1,1,60,0,0
46823,-133.333333333333,4,1,1,55,0,0
48143,-133.333333333333,4,1,1,60,0,0
48263,-133.333333333333,4,1,1,55,0,0
50543,-133.333333333333,4,1,1,60,0,0
50663,-133.333333333333,4,1,1,55,0,0
52103,-200,4,1,1,40,0,0
52823,-66.6666666666667,4,1,1,75,0,0
87383,-100,4,1,1,55,0,0
92423,-66.6666666666667,4,1,1,55,0,0
92663,-50,4,1,1,55,0,0
95063,-100,4,1,1,55,0,0
102023,-200,4,1,1,55,0,0
102743,-66.6666666666667,4,1,1,75,0,0
125783,-100,4,1,1,60,0,0
141143,-200,4,1,1,60,0,0
142103,-71.4285714285714,4,1,1,60,0,0
143063,-200,4,1,1,60,0,0
144023,-71.4285714285714,4,1,1,60,0,0
144743,-125,4,1,1,60,0,0
144983,-200,4,1,1,60,0,0
145943,-71.4285714285714,4,1,1,60,0,0
147863,-55.5555555555556,4,1,1,60,0,0
148583,-125,4,1,1,60,0,0
148823,-200,4,1,1,60,0,0
149783,-71.4285714285714,4,1,1,60,0,0
150743,-200,4,1,1,60,0,0
151703,-71.4285714285714,4,1,1,60,0,0
152663,-200,4,1,1,60,0,0
153623,-71.4285714285714,4,1,1,60,0,0
155543,-50,4,1,1,60,0,0
156503,-250,4,1,1,55,0,0
163103,-100,4,1,1,75,0,0
164183,-66.6666666666667,4,1,1,75,0,0
171143,-200,4,1,1,50,0,0
171863,-66.6666666666667,4,1,1,80,0,0
194903,-55.5555555555556,4,1,1,80,0,0

[Colours]
Combo1 : 70,119,119
Combo2 : 198,200,176
Combo3 : 34,187,204
Combo4 : 247,115,154

[HitObjects]
255,193,983,5,0,0:0:0:0:
329,167,1103,1,0,0:0:0:0:
361,238,1223,2,0,L|347:318,1,70
186,238,1463,2,0,L|173:169,1,70
335,86,1703,5,0,0:0:0:0:
246,129,1823,2,0,L|93:88,1,140
264,220,2183,2,0,L|417:179,1,140
250,309,2543,2,0,L|97:268,1,140
84,185,2903,5,0,0:0:0:0:
160,207,3023,1,0,0:0:0:0:
224,165,3143,2,0,L|209:90,1,70
279,216,3383,2,0,L|265:284,1,70
308,136,3623,5,0,0:0:0:0:
492,195,3743,2,0,P|447:196|333:203,1,140
337,271,4103,1,0,0:0:0:0:
348,349,4223,1,0,0:0:0:0:
299,335,4343,1,0,0:0:0:0:
299,335,4583,2,0,L|266:349,1,35,2|0,0:2|0:0,2:0:0:0:
266,348,4823,5,0,0:0:0:0:
246,278,4943,1,0,0:0:0:0:
196,332,5063,2,0,P|153:332|115:338,1,70
64,261,5303,2,0,P|107:261|145:255,1,70
169,188,5543,5,0,0:0:0:0:
268,129,5663,2,0,L|225:271,1,140
207,64,6023,2,0,L|250:206,1,140
284,40,6383,1,0,0:0:0:0:
256,126,6503,1,0,0:0:0:0:
309,74,6623,1,0,0:0:0:0:
386,102,6743,5,0,0:0:0:0:
284,40,6863,2,0,L|201:63,2,70
360,11,7223,2,0,P|355:67|355:171,1,140
153,368,7583,6,0,P|152:298|147:228,1,140
187,145,7943,1,0,0:0:0:0:
259,187,8063,1,0,0:0:0:0:
331,232,8183,1,0,0:0:0:0:
259,187,8423,6,0,L|268:136,1,35,2|0,0:2|0:0,2:0:0:0:
436,157,8663,6,0,P|497:226|496:309,1,167.999994873047,4|8,0:0|0:0,0:0:0:0:
266,367,9023,2,0,P|272:284|329:225,1,167.999994873047,0|0,1:0|1:0,0:0:0:0:
409,233,9383,1,8,0:0:0:0:
429,328,9503,1,0,1:0:0:0:
316,222,9623,6,0,L|337:130,1,83.9999974365235,2|0,0:0|0:0,0:0:0:0:
233,203,9863,2,0,L|251:284,1,83.9999974365235,10|0,0:0|0:0,0:0:0:0:
259,125,10103,2,0,L|238:33,1,83.9999974365235,2|0,0:0|0:0,0:0:0:0:
328,299,10343,2,0,L|309:380,1,83.9999974365235,8|0,0:0|0:0,0:0:0:0:
37,278,10583,6,0,P|108:261|212:262,1,167.999994873047,0|8,1:0|0:0,0:0:0:0:
251,320,10943,1,0,1:0:0:0:
251,320,11183,1,0,1:0:0:0:
353,222,11303,1,8,0:0:0:0:
243,137,11423,1,0,1:0:0:0:
261,218,11543,6,0,P|262:288|263:318,1,83.9999974365235,2|0,0:0|0:0,0:0:0:0:
337,135,11783,2,0,P|336:205|335:235,1,83.9999974365235,10|0,0:0|0:0,0:0:0:0:
169,77,12023,2,0,P|170:147|171:177,1,83.9999974365235,2|0,0:0|0:0,0:0:0:0:
269,0,12263,1,8,0:0:0:0:
271,86,12383,1,0,0:0:0:0:
83,52,12503,6,0,P|87:116|89:226,1,167.999994873047,0|8,1:0|0:0,0:0:0:0:
93,292,12863,2,0,P|157:288|267:286,1,167.999994873047,0|0,1:0|1:0,0:0:0:0:
313,227,13223,1,8,0:0:0:0:
355,289,13343,1,0,1:0:0:0:
456,179,13463,6,0,L|385:225,1,83.9999974365235,2|0,0:0|0:0,0:0:0:0:
352,378,13703,2,0,L|368:284,1,83.9999974365235,10|0,0:0|0:0,0:0:0:0:
313,227,13943,1,2,0:0:0:0:
237,162,14063,1,0,0:0:0:0:
188,250,14183,2,0,L|268:308,1,83.9999974365235,8|0,0:0|0:0,0:0:0:0:
122,334,14423,6,0,P|129:246|126:137,1,167.999994873047,0|8,1:0|0:0,0:0:0:0:
80,104,14783,1,0,1:0:0:0:
80,104,15023,1,0,1:0:0:0:
217,83,15143,1,8,0:0:0:0:
224,217,15263,1,0,1:0:0:0:
363,83,15383,6,0,B|318:86|318:86|278:130,1,90.9999958343508,10|0,0:0|0:0,0:0:0:0:
314,253,15623,1,10,0:0:0:0:
441,258,15743,1,0,0:0:0:0:
159,273,15863,6,0,B|136:230|136:230|146:181,1,97.9999970092774,10|0,0:0|0:0,0:0:0:0:
318,263,16103,6,0,L|304:367,1,105.000004005432,8|0,0:0|2:0,0:0:0:0:
237,164,16343,5,4,0:0:0:0:
237,164,16583,1,8,0:0:0:0:
367,38,16703,1,0,1:0:0:0:
367,38,16943,1,0,1:0:0:0:
331,186,17063,1,8,0:0:0:0:
215,78,17183,1,0,1:0:0:0:
155,144,17303,5,2,0:0:0:0:
181,307,17423,1,0,0:0:0:0:
120,357,17543,1,10,0:0:0:0:
96,192,17663,1,0,0:0:0:0:
196,222,17783,2,0,L|292:243,1,83.9999974365235,2|0,0:0|0:0,0:0:0:0:
477,268,18023,5,8,0:0:0:0:
384,187,18143,1,0,0:0:0:0:
397,316,18263,1,0,1:0:0:0:
456,76,18503,5,8,0:0:0:0:
456,76,18623,1,0,1:0:0:0:
196,52,18863,5,0,1:0:0:0:
237,132,18983,1,8,0:0:0:0:
308,77,19103,1,0,1:0:0:0:
391,154,19223,6,0,P|396:198|389:253,1,83.9999974365235,2|0,0:0|0:0,0:0:0:0:
198,330,19463,2,0,L|94:326,1,83.9999974365235,10|0,0:0|0:0,0:0:0:0:
297,220,19703,1,2,0:0:0:0:
297,220,19823,1,0,0:0:0:0:
185,152,19943,2,0,L|213:255,1,97.9999970092774,8|0,0:0|0:0,0:0:0:0:
90,133,20183,6,0,L|145:310,1,167.999994873047,0|8,1:0|0:0,0:0:0:0:
262,96,20543,1,0,1:0:0:0:
262,96,20783,1,0,1:0:0:0:
175,76,20903,1,8,0:0:0:0:
246,189,21023,1,0,1:0:0:0:
276,39,21143,6,0,P|363:68|375:68,1,83.9999974365235,2|0,0:0|0:0,0:0:0:0:
468,129,21383,2,0,P|400:147|356:145,1,83.9999974365235,10|0,0:0|0:0,0:0:0:0:
185,200,21623,2,0,P|104:221|73:219,1,83.9999974365235,2|0,0:0|0:0,0:0:0:0:
25,290,21863,2,0,P|95:304|140:302,1,83.9999974365235,8|0,0:0|0:0,0:0:0:0:
339,232,22103,1,0,1:0:0:0:
237,325,22343,5,8,0:0:0:0:
339,232,22463,2,0,P|356:154|304:44,1,167.999994873047,0|0,1:0|1:0,0:0:0:0:
267,119,22823,1,8,0:0:0:0:
192,91,22943,1,0,1:0:0:0:
401,158,23063,6,0,P|441:169|495:172,1,90.9999958343508,10|0,0:0|0:0,0:0:0:0:
273,222,23303,2,0,L|145:247,1,90.9999958343508,10|0,0:0|0:0,0:0:0:0:
92,92,23543,6,0,L|76:212,1,97.9999970092774,10|0,0:0|0:0,0:0:0:0:
288,27,23783,6,0,P|305:99|344:143,1,105.000004005432,8|0,2:1|2:0,0:0:0:0:
285,361,24023,5,2,2:2:0:0:
206,284,24383,1,2,2:2:0:0:
194,289,24503,1,2,2:2:0:0:
314,221,24863,1,2,2:2:0:0:
199,137,25103,1,2,2:2:0:0:
307,85,25343,1,2,2:2:0:0:
89,356,25463,5,2,2:2:0:0:
437,289,25703,1,2,2:2:0:0:
339,193,25943,6,0,P|280:212|179:239,1,140,0|0,2:0|0:0,0:0:0:0:
135,207,26303,1,0,2:0:0:0:
176,313,26423,2,0,P|195:356|204:381,1,70,0|0,1:0|0:0,0:0:0:0:
255,308,26663,1,0,2:0:0:0:
166,297,26783,1,0,1:0:0:0:
125,372,26903,1,0,2:0:0:0:
203,378,27023,1,0,0:0:0:0:
173,306,27143,2,0,P|160:273|146:241,1,70,0|0,0:0|2:0,0:0:0:0:
304,191,27383,2,0,P|275:254|248:326,1,140,0|0,1:0|3:0,0:0:0:0:
203,378,27743,1,0,3:0:0:0:
213,185,27863,6,0,P|204:125|202:35,1,140,0|0,2:0|0:0,0:0:0:0:
274,29,28223,1,0,2:0:0:0:
272,105,28343,1,0,1:0:0:0:
130,101,28463,1,0,0:0:0:0:
130,101,28583,1,0,2:0:0:0:
131,23,28703,1,0,1:0:0:0:
144,202,28823,6,0,L|218:224,2,70,0|0|0,2:0|0:0|0:0,0:0:0:0:
74,238,29183,1,0,2:0:0:0:
270,168,29303,5,0,1:0:0:0:
289,262,29423,1,0,0:0:0:0:
357,175,29543,1,0,3:0:0:0:
375,262,29663,1,0,3:0:0:0:
388,85,29783,6,0,P|334:104|239:126,1,140,0|0,2:0|0:0,0:0:0:0:
186,91,30143,1,0,2:0:0:0:
186,263,30263,2,0,P|225:253|257:247,1,70,0|0,1:0|0:0,0:0:0:0:
173,186,30503,1,0,2:0:0:0:
115,279,30623,1,0,1:0:0:0:
206,335,30743,1,0,2:0:0:0:
258,249,30863,1,0,0:0:0:0:
186,262,30983,5,0,0:0:0:0:
283,338,31103,1,0,2:0:0:0:
264,258,31223,5,0,1:0:0:0:
210,365,31343,1,0,0:0:0:0:
210,194,31463,5,0,3:0:0:0:
286,373,31583,1,0,3:0:0:0:
292,182,31703,6,0,B|335:206|335:206|412:144,1,140,0|0,2:0|0:0,0:0:0:0:
367,85,32063,1,0,2:0:0:0:
174,109,32183,2,0,B|190:146|190:146|179:186,1,70,0|0,1:0|2:0,0:0:0:0:
76,293,32423,2,0,L|162:282,1,70,0|0,1:0|2:0,0:0:0:0:
218,244,32663,5,8,0:0:0:0:
308,312,32783,1,0,0:0:0:0:
231,362,32903,1,8,0:0:0:0:
88,208,33023,5,0,0:0:0:0:
183,197,33143,1,8,0:0:0:0:
230,279,33263,1,0,1:0:0:0:
178,360,33383,2,0,L|92:349,1,70,8|0,0:0|1:0,0:0:0:0:
37,373,33623,5,12,0:0:0:0:
41,377,33863,1,0,0:0:0:0:
41,377,33983,1,0,0:0:0:0:
41,377,34223,1,0,0:0:0:0:
41,377,34463,1,0,0:0:0:0:
41,377,34703,1,0,0:0:0:0:
45,381,34943,1,0,0:0:0:0:
45,381,35063,1,0,0:0:0:0:
45,381,35303,1,0,0:0:0:0:
283,377,35483,5,0,0:0:0:0:
283,377,35543,2,0,B|123:169|423:206|265:-5,1,420,0|8,0:0|1:1,0:0:0:0:
269,1,37103,1,8,1:1:0:0:
269,1,37223,1,8,1:1:0:0:
269,1,37343,1,8,1:1:0:0:
144,92,37463,6,0,P|130:166|147:311,1,210.000008010865,0|0,2:0|0:0,0:0:0:0:
211,335,37823,1,0,2:0:0:0:
275,290,37943,2,0,L|359:310,1,70,0|0,1:0|0:0,0:0:0:0:
397,255,38183,2,0,L|475:243,1,70,0|0,2:0|1:0,0:0:0:0:
496,174,38423,5,0,2:0:0:0:
420,176,38543,1,0,0:0:0:0:
293,113,38663,1,0,0:0:0:0:
371,108,38783,1,0,2:0:0:0:
273,336,38903,5,0,1:0:0:0:
224,64,39143,1,0,3:0:0:0:
148,105,39383,6,0,P|136:201|163:299,1,181.999991668702,0|0,2:0|0:0,0:0:0:0:
232,272,39743,1,0,2:0:0:0:
231,130,39863,2,0,L|214:210,1,70,0|0,1:0|0:0,0:0:0:0:
303,331,40103,2,0,L|320:249,1,70,0|0,2:0|1:0,0:0:0:0:
336,187,40343,5,0,2:0:0:0:
424,218,40463,1,0,0:0:0:0:
268,244,40583,5,0,0:0:0:0:
336,187,40703,1,0,2:0:0:0:
398,130,40823,1,0,1:0:0:0:
398,130,41063,5,0,3:0:0:0:
398,130,41183,1,0,3:0:0:0:
168,287,41303,6,0,P|99:233|126:57,1,272.999987503052,0|0,2:0|2:0,0:0:0:0:
181,109,41783,2,0,P|239:125|285:127,1,90.9999958343508,0|0,1:0|0:0,0:0:0:0:
346,86,42023,2,0,P|392:82|463:72,1,90.9999958343508,0|0,2:0|1:0,0:0:0:0:
486,133,42263,1,0,2:0:0:0:
450,289,42383,1,0,0:0:0:0:
470,210,42503,5,0,0:0:0:0:
390,229,42623,1,0,2:0:0:0:
450,289,42743,1,0,1:0:0:0:
450,289,42983,5,0,3:0:0:0:
239,322,43103,1,0,3:0:0:0:
159,313,43223,6,0,P|145:185|154:32,1,272.999987503052,0|0,2:0|2:0,0:0:0:0:
181,134,43703,2,0,P|244:129|289:132,1,90.9999958343508,0|0,1:0|0:0,0:0:0:0:
75,256,43943,2,0,P|72:213|70:150,1,90.9999958343508,0|0,2:0|1:0,0:0:0:0:
282,224,44183,5,8,2:1:0:0:
346,287,44303,1,0,0:0:0:0:
351,185,44423,5,8,2:1:0:0:
209,244,44543,1,0,0:0:0:0:
389,256,44663,5,8,2:1:0:0:
362,106,44783,1,8,2:1:0:0:
256,192,44903,5,8,2:1:0:0:
256,192,45023,1,8,2:1:0:0:
256,192,45143,1,0,0:0:0:0:
234,121,45383,5,0,2:0:0:0:
266,57,45503,2,0,P|267:7|266:-17,1,52.5000020027161
148,89,45743,5,0,1:0:0:0:
161,165,45863,1,0,0:0:0:0:
170,237,45983,1,0,2:0:0:0:
166,313,46103,1,0,0:0:0:0:
134,310,46343,5,0,0:0:0:0:
237,276,46463,1,0,0:0:0:0:
159,210,46583,1,0,2:0:0:0:
176,267,46703,1,0,0:0:0:0:
226,177,46823,5,0,0:0:0:0:
90,248,46943,1,0,0:0:0:0:
208,348,47063,5,0,0:0:0:0:
208,348,47183,1,0,2:0:0:0:
293,217,47303,1,0,0:0:0:0:
293,217,47423,1,0,2:0:0:0:
132,157,47543,1,0,0:0:0:0:
132,157,47663,1,0,2:0:0:0:
47,288,47783,1,0,0:0:0:0:
47,288,47903,1,0,2:0:0:0:
162,231,48023,6,0,L|234:250,1,52.5000020027161
265,303,48263,2,0,L|383:277,1,105.000004005432,0|8,0:0|1:0,0:0:0:0:
367,280,48563,1,0,2:0:0:0:
367,280,48623,1,8,1:0:0:0:
418,225,48743,1,8,1:0:0:0:
482,261,48863,1,8,1:0:0:0:
266,160,48983,6,0,P|257:110|252:41,1,105.000004005432,0|0,0:0|2:0,0:0:0:0:
203,0,49343,1,0,0:0:0:0:
155,58,49463,2,0,P|116:55|91:50,1,52.5000020027161,0|0,0:0|2:0,0:0:0:0:
27,26,49703,1,0,0:0:0:0:
100,4,49823,1,0,2:0:0:0:
56,137,49943,5,0,0:0:0:0:
256,366,50183,5,0,0:0:0:0:
241,290,50303,1,0,0:0:0:0:
275,221,50423,1,0,2:0:0:0:
260,145,50543,1,0,0:0:0:0:
245,33,50663,5,0,0:0:0:0:
356,108,50783,1,0,0:0:0:0:
123,197,50903,5,0,0:0:0:0:
394,205,51143,5,0,0:0:0:0:
54,167,51383,5,0,0:0:0:0:
464,226,51623,5,0,0:0:0:0:
213,329,51863,5,0,0:0:0:0:
263,99,52103,6,0,L|248:30,2,70,2|2|2,2:2|2:2|2:2,0:0:0:0:
465,332,52823,6,0,L|287:312,1,157.500006008148,4|0,1:0|2:0,0:0:0:0:
338,334,53063,2,0,L|195:314,1,105.000004005432,8|0,0:0|2:0,0:0:0:0:
40,288,53303,1,0,1:0:0:0:
421,212,53423,2,0,L|414:84,1,105.000004005432,0|8,2:0|0:0,0:0:0:0:
111,55,53663,6,0,P|93:160|125:270,1,210.000008010865,0|0,1:0|1:0,0:0:0:0:
317,181,54023,1,8,0:0:0:0:
190,124,54143,1,0,2:0:0:0:
258,256,54263,5,0,1:0:0:0:
365,254,54383,1,0,1:0:0:0:
423,165,54503,1,8,0:0:0:0:
408,64,54623,1,0,2:0:0:0:
165,246,54743,6,0,P|158:307|168:363,1,105.000004005432,0|0,1:0|1:0,0:0:0:0:
186,328,54923,1,0,0:0:0:0:
164,314,54983,2,0,L|45:305,1,105.000004005432,8|0,0:0|2:0,0:0:0:0:
298,333,55223,2,0,L|447:312,1,105.000004005432,0|0,1:0|2:0,0:0:0:0:
99,129,55463,5,8,0:0:0:0:
167,180,55583,2,0,P|258:195|373:160,1,210.000008010865,0|0,1:0|1:0,0:0:0:0:
86,214,55943,1,8,0:0:0:0:
173,94,56063,1,0,2:0:0:0:
87,30,56183,6,0,B|76:80|76:80|99:130,1,105.000004005432,0|0,1:0|1:0,0:0:0:0:
152,378,56423,2,0,B|163:328|163:328|140:278,1,105.000004005432,8|0,0:0|2:0,0:0:0:0:
77,329,56663,5,0,1:0:0:0:
219,264,56783,1,0,2:0:0:0:
264,318,56903,5,8,0:0:0:0:
486,344,57023,1,0,2:0:0:0:
416,353,57143,5,0,1:0:0:0:
292,251,57263,1,0,2:0:0:0:
148,353,57383,1,8,0:0:0:0:
217,377,57503,6,0,B|431:330,1,210.000008010865,0|0,1:0|1:0,0:0:0:0:
450,210,57863,1,8,0:0:0:0:
481,278,57983,5,0,2:0:0:0:
416,197,58103,1,0,1:0:0:0:
353,115,58223,1,0,1:0:0:0:
484,197,58343,5,8,0:0:0:0:
358,219,58463,1,0,2:0:0:0:
227,242,58583,2,0,L|106:264,1,105.000004005432,12|0,0:0|1:0,0:0:0:0:
252,87,58823,2,0,L|105:114,1,105.000004005432,8|0,0:0|1:0,0:0:0:0:
331,246,59063,2,0,L|308:370,1,105.000004005432,8|0,0:0|1:0,0:0:0:0:
470,102,59303,1,8,0:0:0:0:
470,102,59423,2,0,L|437:332,1,210.000008010865,0|0,1:0|0:0,0:0:0:0:
235,352,59783,1,8,0:0:0:0:
161,319,59903,1,0,2:0:0:0:
87,352,60023,5,8,0:0:0:0:
87,352,60083,1,0,0:0:0:0:
87,352,60143,1,0,1:0:0:0:
120,29,60263,1,8,1:0:0:0:
437,56,60383,1,8,0:0:0:0:
404,379,60503,2,0,B|382:330|394:277|394:277|379:204,1,157.500006008148,4|0,0:0|2:0,0:0:0:0:
407,223,60743,2,0,L|379:117,1,105.000004005432,8|0,0:0|2:0,0:0:0:0:
360,50,60983,1,0,1:0:0:0:
103,299,61103,2,0,P|163:276|225:277,1,105.000004005432,0|8,2:0|0:0,0:0:0:0:
276,245,61343,6,0,P|159:210|106:136,1,210.000008010865,0|0,1:0|1:0,0:0:0:0:
85,68,61703,1,8,0:0:0:0:
43,234,61823,1,0,2:0:0:0:
208,156,61943,1,0,1:0:0:0:
108,142,62063,5,0,1:0:0:0:
269,71,62183,1,8,0:0:0:0:
246,335,62303,1,0,2:0:0:0:
360,356,62423,5,0,1:0:0:0:
351,278,62543,1,0,2:0:0:0:
129,266,62663,5,8,0:0:0:0:
138,340,62783,1,0,2:0:0:0:
272,245,62903,5,0,1:0:0:0:
259,169,63023,2,0,L|243:42,1,105.000004005432,0|8,2:0|0:0,0:0:0:0:
392,340,63263,2,0,P|278:325|201:388,1,210.000008010865,0|0,1:0|1:0,0:0:0:0:
195,268,63623,1,8,0:0:0:0:
117,335,63743,1,0,2:0:0:0:
265,141,63863,5,0,1:0:0:0:
206,378,63983,1,0,1:0:0:0:
379,122,64103,5,8,0:0:0:0:
305,379,64223,1,0,2:0:0:0:
336,305,64343,5,0,1:0:0:0:
305,379,64463,1,0,2:0:0:0:
264,273,64583,1,8,1:0:0:0:
372,239,64703,1,0,2:0:0:0:
405,346,64823,1,0,1:0:0:0:
336,305,64943,1,0,2:0:0:0:
372,239,65063,1,8,0:0:0:0:
438,277,65183,2,0,B|470:293|488:339|488:339|474:260|519:207,1,210.000008010865,0|0,2:0|1:0,0:0:0:0:
425,174,65543,2,0,P|371:147|321:116,1,105.000004005432,8|0,0:0|2:0,0:0:0:0:
292,56,65783,5,0,1:0:0:0:
426,90,65903,1,0,1:0:0:0:
336,219,66023,1,8,0:0:0:0:
336,219,66263,5,12,0:0:0:0:
65,79,66383,1,0,1:0:0:0:
138,105,66503,1,8,0:0:0:0:
81,155,66623,1,0,1:0:0:0:
330,56,66743,5,8,0:0:0:0:
364,309,66863,1,0,1:0:0:0:
119,236,66983,1,8,0:0:0:0:
272,334,67103,5,8,0:0:0:0:
247,41,67343,1,0,0:0:0:0:
258,353,67583,1,0,0:0:0:0:
419,140,67703,5,0,1:0:0:0:
405,179,67763,1,0,1:0:0:0:
363,172,67823,1,0,1:0:0:0:
304,123,67943,5,8,0:0:0:0:
285,214,68063,1,8,0:0:0:0:
191,191,68183,1,12,0:0:0:0:
228,129,68303,5,0,0:0:0:0:
231,262,68423,1,8,0:0:0:0:
116,198,68543,1,0,0:0:0:0:
223,52,68663,5,8,0:0:0:0:
141,114,68783,1,0,0:0:0:0:
307,137,68903,1,8,0:0:0:0:
261,218,69023,1,0,0:0:0:0:
402,300,69143,5,8,0:0:0:0:
409,200,69263,1,0,0:0:0:0:
247,215,69383,1,8,0:0:0:0:
297,320,69503,1,0,0:0:0:0:
336,241,69623,5,8,0:0:0:0:
307,137,69743,1,0,0:0:0:0:
342,229,69863,1,8,0:0:0:0:
313,125,69983,1,0,0:0:0:0:
209,276,70103,6,0,L|94:299,1,105.000004005432,12|0,0:0|0:0,0:0:0:0:
53,246,70343,1,8,0:0:0:0:
64,358,70463,1,0,0:0:0:0:
117,307,70583,2,0,L|219:286,1,105.000004005432,8|0,0:0|0:0,0:0:0:0:
256,217,70823,5,8,0:0:0:0:
436,272,70943,1,0,0:0:0:0:
276,379,71063,1,8,0:0:0:0:
106,296,71183,1,0,0:0:0:0:
277,105,71303,5,8,0:0:0:0:
97,160,71423,1,0,0:0:0:0:
257,267,71543,1,8,0:0:0:0:
427,184,71663,1,0,1:0:0:0:
216,153,71783,5,8,1:0:0:0:
184,231,71903,1,8,0:0:0:0:
388,284,72023,5,12,0:0:0:0:
345,73,72143,1,0,0:0:0:0:
134,116,72263,1,8,0:0:0:0:
177,327,72383,1,0,0:0:0:0:
265,249,72503,5,8,0:0:0:0:
87,248,72623,1,0,0:0:0:0:
171,382,72743,1,8,0:0:0:0:
359,197,72863,5,0,0:0:0:0:
175,294,72983,1,8,0:0:0:0:
157,210,73103,1,0,0:0:0:0:
241,234,73223,1,8,0:0:0:0:
175,294,73343,1,0,0:0:0:0:
315,283,73463,5,8,0:0:0:0:
226,122,73583,1,0,0:0:0:0:
65,211,73703,1,8,0:0:0:0:
154,372,73823,1,0,0:0:0:0:
365,198,73943,6,0,P|371:142|382:78,1,105.000004005432,12|8,0:0|0:0,0:0:0:0:
60,24,74183,2,0,P|68:75|73:128,1,105.000004005432,8|8,0:0|0:0,0:0:0:0:
326,316,74423,5,8,0:0:0:0:
206,108,74543,1,8,0:0:0:0:
185,203,74663,1,8,0:0:0:0:
429,15,74783,6,0,P|437:66|443:152,1,105.000004005432,8|0,0:0|0:0,0:0:0:0:
83,369,75023,2,0,P|74:317|69:232,1,105.000004005432,8|0,0:0|0:0,0:0:0:0:
365,81,75263,6,0,P|369:106|372:149,1,52.5000020027161,8|0,0:0|2:0,0:0:0:0:
147,303,75383,2,0,P|142:277|140:234,1,52.5000020027161,8|0,0:0|2:0,0:0:0:0:
256,32,75623,5,0,0:0:0:0:
256,352,75863,1,0,1:0:0:0:
13,138,83543,5,4,1:2:0:0:
26,318,83783,1,0,0:0:0:0:
0,220,83903,1,0,0:0:0:0:
120,342,84143,1,0,0:0:0:0:
188,176,84383,1,0,0:0:0:0:
208,360,84623,1,0,0:0:0:0:
356,216,84863,1,0,0:0:0:0:
300,280,84983,5,0,0:0:0:0:
268,44,85223,1,0,0:0:0:0:
458,109,85463,5,0,0:0:0:0:
374,271,85703,1,0,0:0:0:0:
452,196,85823,1,0,0:0:0:0:
287,249,86063,1,0,0:0:0:0:
290,64,86303,1,0,0:0:0:0:
203,230,86543,1,0,0:0:0:0:
136,56,86783,1,0,0:0:0:0:
268,360,86903,6,0,L|341:351,1,52.5000020027161,8|0,1:1|2:0,0:0:0:0:
293,329,87023,2,0,L|284:256,1,52.5000020027161,8|0,1:1|2:0,0:0:0:0:
250,301,87143,2,0,L|177:310,1,52.5000020027161,8|0,1:1|2:0,0:0:0:0:
225,332,87263,2,0,L|234:405,1,52.5000020027161,8|0,1:1|2:0,0:0:0:0:
370,295,87383,6,0,P|375:234|387:139,1,140,0|0,2:0|0:0,0:0:0:0:
318,123,87743,1,0,2:0:0:0:
195,67,87863,2,0,P|237:123|259:145,1,70,0|0,1:0|0:0,0:0:0:0:
392,11,88103,2,0,P|353:31|322:54,1,70,0|0,2:0|1:0,0:0:0:0:
285,189,88343,5,0,2:0:0:0:
387,99,88463,1,0,0:0:0:0:
262,43,88583,1,0,0:0:0:0:
307,112,88703,1,0,2:0:0:0:
314,101,88823,1,0,1:0:0:0:
111,254,89063,5,0,3:0:0:0:
104,243,89183,1,0,3:0:0:0:
157,167,89303,2,0,P|146:235|135:329,1,140,0|0,2:0|0:0,0:0:0:0:
142,376,89663,1,0,2:0:0:0:
60,312,89783,2,0,P|18:329|-8:343,1,70,0|0,1:0|0:0,0:0:0:0:
58,233,90023,1,0,2:0:0:0:
58,233,90143,1,0,1:0:0:0:
155,155,90263,5,0,2:0:0:0:
247,230,90383,1,0,0:0:0:0:
153,309,90503,1,0,0:0:0:0:
58,233,90623,1,0,2:0:0:0:
241,146,90743,5,0,1:0:0:0:
243,316,90863,1,0,0:0:0:0:
73,318,90983,1,8,1:0:0:0:
71,148,91103,1,8,1:0:0:0:
318,243,91223,5,8,1:0:0:0:
318,243,92183,6,0,L|327:167,1,70,8|0,0:0|0:0,0:0:0:0:
245,289,92423,6,0,L|228:184,1,105.000004005432,8|0,0:0|0:0,0:0:0:0:
195,371,92663,6,0,L|131:234,1,140,8|0,0:0|0:0,0:0:0:0:
64,224,92903,1,0,0:0:0:0:
68,210,92963,1,0,0:0:0:0:
72,196,93023,1,0,0:0:0:0:
148,75,93143,5,0,2:0:0:0:
216,107,93263,1,0,0:0:0:0:
236,179,93383,1,0,0:0:0:0:
216,251,93503,1,0,2:0:0:0:
109,98,93623,5,0,0:0:0:0:
186,66,93743,1,0,0:0:0:0:
268,82,93863,1,0,2:0:0:0:
328,140,93983,1,0,0:0:0:0:
101,189,94103,5,8,0:0:0:0:
121,85,94223,1,0,0:0:0:0:
216,32,94343,1,8,0:0:0:0:
319,68,94463,1,0,0:0:0:0:
391,31,94583,5,8,0:0:0:0:
251,132,94703,1,8,0:0:0:0:
271,0,94823,5,8,0:0:0:0:
381,161,94943,1,8,0:0:0:0:
457,129,95063,6,0,P|447:220|434:285,1,140,4|8,1:0|0:0,0:0:0:0:
423,340,95423,1,8,0:0:0:0:
260,263,95543,1,0,1:0:0:0:
260,263,95783,2,0,P|255:220|256:184,1,70,8|0,0:0|2:0,0:0:0:0:
192,298,96023,5,0,1:0:0:0:
269,340,96143,1,0,2:0:0:0:
334,277,96263,1,8,0:0:0:0:
336,263,96383,1,8,0:0:0:0:
219,122,96503,5,0,1:0:0:0:
89,91,96623,1,0,2:0:0:0:
43,207,96743,1,8,0:0:0:0:
60,227,96863,1,0,2:0:0:0:
126,169,96983,5,0,1:0:0:0:
29,138,97103,1,0,2:0:0:0:
135,153,97223,1,8,0:0:0:0:
38,122,97343,1,8,0:0:0:0:
212,123,97463,5,0,1:0:0:0:
309,92,97583,1,0,2:0:0:0:
203,107,97703,1,8,0:0:0:0:
300,76,97823,1,0,2:0:0:0:
149,14,97943,6,0,P|158:102|161:177,1,140,0|8,1:0|0:0,0:0:0:0:
195,224,98303,1,0,2:0:0:0:
213,297,98423,1,0,0:0:0:0:
205,331,98483,1,0,0:0:0:0:
194,364,98543,1,8,0:0:0:0:
126,276,98663,1,0,0:0:0:0:
282,264,98783,1,0,0:0:0:0:
281,353,98903,6,0,P|274:273|271:184,1,140,4|8,1:0|0:0,0:0:0:0:
276,138,99263,1,8,0:0:0:0:
437,103,99383,1,0,1:0:0:0:
437,103,99623,1,8,0:0:0:0:
407,172,99743,1,0,2:0:0:0:
358,104,99863,6,0,P|354:173|348:243,1,140,0|8,1:0|0:0,0:0:0:0:
366,314,100223,1,8,0:0:0:0:
417,259,100343,1,0,1:0:0:0:
291,291,100463,1,0,2:0:0:0:
219,192,100583,1,8,0:0:0:0:
288,88,100703,1,0,0:0:0:0:
410,127,100823,5,0,0:0:0:0:
102,257,101063,5,0,0:0:0:0:
373,241,101303,5,0,0:0:0:0:
138,142,101543,5,0,0:0:0:0:
271,74,101783,5,0,0:0:0:0:
249,285,102023,6,0,L|264:354,2,70,2|2|2,2:2|2:2|2:2,0:0:0:0:
426,69,102743,6,0,L|293:92,1,105.000004005432,4|0,1:0|1:0,0:0:0:0:
297,76,102923,1,0,1:0:0:0:
271,68,102983,2,0,L|148:90,1,105.000004005432,8|0,0:0|2:0,0:0:0:0:
225,168,103223,2,0,L|84:196,2,105.000004005432,0|0|8,1:0|2:0|0:0,0:0:0:0:
480,213,103583,6,0,P|380:210|281:304,1,210.000008010865,0|0,1:0|1:0,0:0:0:0:
243,343,103943,1,8,0:0:0:0:
213,250,104063,1,0,2:0:0:0:
166,346,104183,1,0,1:0:0:0:
114,236,104303,1,0,1:0:0:0:
73,351,104423,1,8,0:0:0:0:
23,222,104543,1,0,2:0:0:0:
73,79,104663,6,0,P|115:52|170:35,1,105.000004005432,0|0,1:0|2:0,0:0:0:0:
366,102,104903,1,8,0:0:0:0:
446,120,105023,1,0,2:0:0:0:
275,161,105143,1,0,1:0:0:0:
102,192,105263,1,0,2:0:0:0:
272,355,105383,1,8,0:0:0:0:
210,289,105503,6,0,L|-2:299,1,210.000008010865,0|0,1:0|1:0,0:0:0:0:
350,257,105863,2,0,P|344:317|354:363,1,105.000004005432,8|0,0:0|2:0,0:0:0:0:
427,307,106103,5,0,1:0:0:0:
420,76,106223,1,0,1:0:0:0:
85,307,106343,5,8,0:0:0:0:
92,76,106463,1,0,2:0:0:0:
91,163,106583,5,0,1:0:0:0:
174,117,106703,1,0,2:0:0:0:
92,76,106823,1,8,0:0:0:0:
91,163,106943,5,0,2:0:0:0:
254,228,107063,1,0,1:0:0:0:
415,296,107183,5,0,2:0:0:0:
343,245,107303,1,8,0:0:0:0:
417,210,107423,2,0,L|531:211,1,105.000004005432,0|0,1:0|2:0,0:0:0:0:
252,342,107663,1,0,1:0:0:0:
106,255,107783,2,0,L|106:123,1,105.000004005432,8|0,0:0|2:0,0:0:0:0:
224,253,108023,2,0,L|319:341,1,105.000004005432,0|0,1:0|1:0,0:0:0:0:
292,102,108263,2,0,L|199:24,1,105.000004005432,8|0,0:0|2:0,0:0:0:0:
178,113,108503,5,12,0:0:0:0:
211,35,108623,1,0,1:0:0:0:
291,235,108743,5,8,0:0:0:0:
369,268,108863,1,0,1:0:0:0:
177,270,108983,5,8,0:0:0:0:
103,86,109103,1,0,1:0:0:0:
292,155,109223,5,8,0:0:0:0:
385,345,109343,1,0,1:0:0:0:
385,345,109583,5,0,0:0:0:0:
432,156,109703,2,0,L|435:277,1,105.000004005432,8|0,0:0|2:0,0:0:0:0:
298,336,109943,1,8,0:0:0:0:
465,331,110063,5,0,1:0:0:0:
74,196,110183,1,0,1:0:0:0:
440,46,110303,1,8,0:0:0:0:
373,92,110423,5,12,0:0:0:0:
294,81,110543,1,0,2:0:0:0:
217,73,110663,1,8,0:0:0:0:
142,62,110783,1,0,2:0:0:0:
51,282,110903,5,0,1:0:0:0:
130,271,111023,1,0,2:0:0:0:
207,261,111143,1,8,0:0:0:0:
282,251,111263,2,0,B|333:266|375:234|375:234|355:298|441:348,1,210.000008010865,0|0,1:0|1:0,0:0:0:0:
452,260,111623,1,8,0:0:0:0:
330,352,111743,1,0,2:0:0:0:
342,174,111863,2,0,P|348:114|336:60,1,105.000004005432,0|0,1:0|1:0,0:0:0:0:
43,141,112103,2,0,L|180:122,1,105.000004005432,8|0,0:0|2:0,0:0:0:0:
200,71,112343,6,0,P|224:150|188:228,1,157.500006008148,0|0,1:0|2:0,0:0:0:0:
167,250,112583,1,8,0:0:0:0:
99,204,112703,1,0,2:0:0:0:
272,247,112823,2,0,P|327:245|394:239,1,105.000004005432,0|0,1:0|2:0,0:0:0:0:
457,262,113063,1,8,0:0:0:0:
228,337,113183,6,0,P|151:338|33:356,1,157.500006008148,0|0,1:0|2:0,0:0:0:0:
32,362,113423,1,0,1:0:0:0:
193,221,113543,1,8,0:0:0:0:
61,137,113663,1,0,2:0:0:0:
141,153,113783,6,0,P|175:114|203:55,1,105.000004005432,0|0,1:0|1:0,0:0:0:0:
371,231,114023,2,0,P|337:270|309:329,1,105.000004005432,8|0,0:0|2:0,0:0:0:0:
245,358,114263,5,0,1:0:0:0:
215,228,114383,1,0,2:0:0:0:
144,262,114503,5,8,1:0:0:0:
238,154,114623,1,0,2:0:0:0:
172,102,114743,5,0,1:0:0:0:
306,110,114863,1,0,2:0:0:0:
356,47,114983,5,8,0:0:0:0:
311,194,115103,2,0,P|384:276|487:228,1,210.000008010865,0|0,2:0|1:0,0:0:0:0:
456,170,115463,1,8,0:0:0:0:
442,90,115583,1,0,0:0:0:0:
442,90,115643,1,0,0:0:0:0:
442,90,115703,1,0,1:0:0:0:
182,76,115823,5,0,1:0:0:0:
250,131,115943,1,8,0:0:0:0:
200,201,116063,1,0,2:0:0:0:
131,152,116183,5,8,0:0:0:0:
265,58,116303,1,0,1:0:0:0:
360,190,116423,1,8,0:0:0:0:
228,286,116543,1,0,1:0:0:0:
349,101,116663,5,8,0:0:0:0:
324,291,116783,1,0,1:0:0:0:
129,259,116903,1,8,0:0:0:0:
168,69,117023,1,0,1:0:0:0:
256,192,117143,12,4,118103,0:0:0:0:
256,191,124823,5,0,0:0:0:0:
256,191,125183,1,0,0:0:0:0:
256,191,125783,6,0,P|258:132|271:31,1,140,0|0,0:0|2:0,0:0:0:0:
267,51,126143,1,0,0:0:0:0:
343,65,126263,2,0,P|391:70|418:73,1,70,0|0,2:0|0:0,0:0:0:0:
408,149,126503,2,0,P|360:144|333:141,1,70,0|0,2:0|2:0,0:0:0:0:
282,194,126743,5,0,0:0:0:0:
351,346,126983,1,0,2:0:0:0:
503,277,127223,1,0,2:0:0:0:
467,207,127343,1,0,0:0:0:0:
415,266,127463,1,0,2:0:0:0:
453,334,127583,1,0,2:0:0:0:
256,220,127703,6,0,P|262:292|262:368,1,140,0|0,0:0|2:0,0:0:0:0:
160,364,128063,1,0,0:0:0:0:
184,292,128183,1,0,2:0:0:0:
147,357,128303,1,0,0:0:0:0:
171,285,128423,1,0,2:0:0:0:
78,323,128543,1,0,2:0:0:0:
96,234,128663,6,0,P|91:178|75:83,1,140,0|0,0:0|2:0,0:0:0:0:
86,22,129023,1,0,0:0:0:0:
149,65,129143,1,0,1:0:0:0:
227,61,129263,1,0,0:0:0:0:
284,11,129383,1,0,2:0:0:0:
284,11,129503,1,0,2:0:0:0:
512,93,129623,6,0,P|456:98|361:114,1,140,0|0,0:0|2:0,0:0:0:0:
306,81,129983,1,0,0:0:0:0:
282,152,130103,2,0,P|293:210|299:239,1,70,0|0,2:0|0:0,0:0:0:0:
380,255,130343,2,0,P|373:220|366:186,1,70,0|0,2:0|2:0,0:0:0:0:
347,338,130583,5,0,0:0:0:0:
415,370,130703,1,0,2:0:0:0:
429,297,130823,1,0,2:0:0:0:
361,265,130943,1,0,0:0:0:0:
256,372,131063,5,0,2:0:0:0:
256,372,131183,1,0,0:0:0:0:
256,372,131303,1,0,2:0:0:0:
256,372,131423,1,0,2:0:0:0:
122,239,131543,6,0,P|131:162|135:82,1,140,0|0,0:0|2:0,0:0:0:0:
98,32,131903,1,0,0:0:0:0:
229,63,132023,2,0,P|219:122|216:151,1,70,0|0,2:0|0:0,0:0:0:0:
33,247,132263,1,0,2:0:0:0:
39,324,132383,1,0,2:0:0:0:
158,283,132503,6,0,P|110:305|90:390,1,140,0|0,0:0|2:0,0:0:0:0:
210,363,132863,1,0,0:0:0:0:
238,292,132983,2,0,P|239:256|241:215,2,70,0|0|0,2:0|0:0|2:0,0:0:0:0:
315,202,133343,1,0,2:0:0:0:
138,192,133463,6,0,P|131:137|128:25,1,140,0|0,0:0|2:0,0:0:0:0:
73,1,133823,1,0,0:0:0:0:
50,93,133943,1,0,2:0:0:0:
200,103,134063,1,0,0:0:0:0:
223,11,134183,1,0,2:0:0:0:
127,52,134303,1,0,2:0:0:0:
75,174,134423,6,0,P|77:243|86:333,1,140,0|0,0:0|2:0,0:0:0:0:
161,300,134783,1,0,0:0:0:0:
139,372,134903,1,0,2:0:0:0:
152,290,135023,2,0,P|190:298|231:310,2,70,0|0|0,0:0|2:0|2:0,0:0:0:0:
281,239,135383,5,0,0:0:0:0:
281,239,135623,1,0,2:0:0:0:
294,164,135743,1,0,0:0:0:0:
294,88,135863,1,0,2:0:0:0:
283,13,135983,1,0,0:0:0:0:
352,40,136103,5,0,2:0:0:0:
221,67,136223,1,0,2:0:0:0:
293,193,136343,5,0,0:0:0:0:
365,113,136463,1,0,2:0:0:0:
214,136,136583,1,0,2:0:0:0:
294,88,136703,5,0,0:0:0:0:
222,8,136823,1,0,0:0:0:0:
373,31,136943,1,0,0:0:0:0:
386,184,137063,5,0,2:0:0:0:
364,258,137183,1,0,2:0:0:0:
469,193,137303,6,0,P|412:213|317:236,1,140,0|0,0:0|2:0,0:0:0:0:
265,219,137663,1,0,0:0:0:0:
268,332,137783,2,0,P|306:321|352:314,1,70,0|0,2:0|0:0,0:0:0:0:
207,276,138023,2,0,P|172:282|139:292,1,70,0|0,2:0|2:0,0:0:0:0:
118,363,138263,5,0,0:0:0:0:
196,352,138383,1,0,2:0:0:0:
54,226,138503,5,0,2:0:0:0:
65,304,138623,1,0,0:0:0:0:
211,204,138743,5,0,2:0:0:0:
133,215,138863,1,0,0:0:0:0:
275,345,138983,5,0,2:0:0:0:
264,267,139103,1,0,2:0:0:0:
168,301,139223,5,0,1:0:0:0:
341,215,139343,1,0,1:0:0:0:
206,133,139463,5,0,1:0:0:0:
334,289,139583,1,0,1:0:0:0:
340,84,139703,5,0,1:0:0:0:
207,210,139823,1,0,1:0:0:0:
226,28,139943,5,0,1:0:0:0:
310,149,140063,1,0,1:0:0:0:
307,10,140183,5,8,0:0:0:0:
243,100,140303,1,8,0:0:0:0:
389,144,140423,5,8,0:0:0:0:
453,54,140543,1,8,0:0:0:0:
216,92,140663,5,8,0:0:0:0:
291,199,140783,1,8,0:0:0:0:
505,147,140903,5,8,0:0:0:0:
430,40,141023,1,8,0:0:0:0:
343,293,141143,6,0,P|327:323|326:358,1,70,4|8,0:0|0:0,0:0:0:0:
95,85,141503,5,0,1:0:0:0:
95,85,141743,1,0,1:0:0:0:
113,267,141863,1,8,0:0:0:0:
8,135,141983,1,0,1:0:0:0:
407,58,142103,6,0,L|417:159,1,97.9999970092774,2|0,0:0|2:0,0:0:0:0:
216,239,142343,2,0,P|213:294|225:345,1,97.9999970092774,10|0,0:0|2:0,0:0:0:0:
448,268,142583,5,2,0:0:0:0:
299,283,142703,1,0,2:0:0:0:
448,268,142823,1,8,0:0:0:0:
299,283,142943,1,0,2:0:0:0:
202,53,143063,6,0,P|240:51|270:25,1,70,0|8,1:0|0:0,0:0:0:0:
76,327,143423,5,0,1:0:0:0:
76,327,143663,1,0,1:0:0:0:
124,182,143783,1,8,0:0:0:0:
50,51,143903,1,0,1:0:0:0:
256,320,144023,6,0,L|390:309,1,97.9999970092774,2|0,0:0|2:0,0:0:0:0:
477,94,144263,2,0,L|353:104,1,97.9999970092774,10|0,0:0|2:0,0:0:0:0:
32,214,144503,5,2,0:0:0:0:
256,192,144623,1,0,2:0:0:0:
480,164,144743,2,0,L|408:172,1,56,8|0,0:0|2:0,0:0:0:0:
90,354,144983,6,0,P|133:345|156:320,1,70,0|8,1:0|0:0,0:0:0:0:
311,48,145343,5,0,1:0:0:0:
311,48,145583,1,0,1:0:0:0:
285,275,145703,1,8,0:0:0:0:
289,62,145823,1,0,1:0:0:0:
81,48,145943,6,0,L|95:168,1,97.9999970092774,2|0,0:0|2:0,0:0:0:0:
419,208,146183,1,10,0:0:0:0:
432,119,146303,1,0,2:0:0:0:
174,349,146423,6,0,L|179:243,1,97.9999970092774,2|0,0:0|2:0,0:0:0:0:
347,152,146663,1,8,0:0:0:0:
269,189,146783,1,0,2:0:0:0:
278,103,146903,1,0,1:0:0:0:
262,269,147023,5,0,2:0:0:0:
347,152,147143,1,8,0:0:0:0:
184,138,147263,2,0,P|100:190|1:162,1,195.999994018555,0|0,1:0|1:0,0:0:0:0:
10,168,147623,1,8,0:0:0:0:
184,138,147743,1,0,1:0:0:0:
19,344,147863,6,0,P|77:291|139:294,1,125.999996154785,10|0,0:0|2:0,0:0:0:0:
176,242,148103,2,0,P|248:258|290:327,1,125.999996154785,10|0,0:0|2:0,0:0:0:0:
356,320,148343,2,0,L|333:171,1,125.999996154785,10|0,0:0|2:0,0:0:0:0:
47,69,148583,6,0,L|120:80,1,56,10|0,0:0|2:0,0:0:0:0:
476,118,148823,6,0,P|437:122|406:147,1,70,4|8,0:0|0:0,0:0:0:0:
205,54,149183,5,0,1:0:0:0:
205,54,149423,1,0,1:0:0:0:
316,169,149543,1,8,0:0:0:0:
157,150,149663,1,0,1:0:0:0:
391,48,149783,6,0,P|413:87|405:156,1,97.9999970092774,2|0,0:0|2:0,0:0:0:0:
121,336,150023,2,0,P|99:297|107:228,1,97.9999970092774,10|0,0:0|2:0,0:0:0:0:
304,204,150263,2,0,B|245:205|259:189|185:181,1,97.9999970092774,2|0,0:0|2:0,0:0:0:0:
131,160,150503,5,8,0:0:0:0:
383,225,150623,1,0,2:0:0:0:
131,160,150743,6,0,P|91:162|55:183,1,70,0|8,1:0|0:0,0:0:0:0:
359,54,151103,5,0,1:0:0:0:
359,54,151343,1,0,1:0:0:0:
354,212,151463,1,8,0:0:0:0:
345,369,151583,1,0,1:0:0:0:
266,359,151703,6,0,L|162:374,1,97.9999970092774,2|0,0:0|2:0,0:0:0:0:
266,359,151943,2,0,L|277:249,1,97.9999970092774,10|0,0:0|2:0,0:0:0:0:
132,144,152183,5,2,0:0:0:0:
115,235,152303,1,0,2:0:0:0:
380,240,152423,5,8,0:0:0:0:
397,149,152543,1,0,2:0:0:0:
356,77,152663,6,0,P|306:86|283:103,1,70,0|8,1:0|0:0,0:0:0:0:
440,353,153023,5,0,1:0:0:0:
440,353,153263,1,0,1:0:0:0:
210,232,153383,1,8,0:0:0:0:
210,232,153503,1,0,1:0:0:0:
15,82,153623,6,0,L|46:219,1,97.9999970092774,2|0,0:0|2:0,0:0:0:0:
109,128,153863,2,0,L|86:26,1,97.9999970092774,10|0,0:0|2:0,0:0:0:0:
131,213,154103,1,2,0:0:0:0:
36,177,154223,1,0,2:0:0:0:
256,194,154343,1,8,0:0:0:0:
239,357,154463,1,0,2:0:0:0:
151,345,154583,5,0,1:0:0:0:
164,263,154703,1,0,2:0:0:0:
249,275,154823,1,8,0:0:0:0:
239,357,154943,1,0,1:0:0:0:
239,357,155183,5,0,1:0:0:0:
257,188,155303,1,8,0:0:0:0:
86,168,155423,1,0,1:0:0:0:
70,343,155543,6,0,P|61:297|40:259,1,70,2|0,1:2|2:0,0:0:0:0:
248,308,155663,6,0,P|251:266|271:217,1,70,2|0,1:2|2:0,0:0:0:0:
144,263,155783,6,0,P|141:215|123:157,1,70,2|0,1:2|2:0,0:0:0:0:
312,235,155903,6,0,P|326:170|347:136,1,70,2|0,1:2|2:0,0:0:0:0:
183,171,156023,6,0,P|172:115|151:79,1,70,2|0,1:2|2:0,0:0:0:0:
368,142,156143,6,0,P|396:71|418:52,1,70,2|0,1:2|2:0,0:0:0:0:
210,105,156263,6,0,P|189:48|166:21,1,70,2|0,1:2|2:0,0:0:0:0:
404,40,156383,6,0,P|446:79|459:113,1,70,2|0,1:2|0:0,0:0:0:0:
299,62,156503,6,0,P|304:139|297:263,1,196,12|0,1:0|0:0,0:0:0:0:
297,257,157583,1,0,0:0:0:0:
308,330,157703,1,0,0:0:0:0:
308,330,157823,1,0,0:0:0:0:
213,357,157943,2,0,L|217:321,1,28
215,254,158183,1,0,0:0:0:0:
410,162,158423,6,0,P|406:186|405:198,3,28,8|0|0|0,1:0|0:0|0:0|0:0,0:0:0:0:
348,104,158903,2,0,P|377:99|440:87,1,84
430,88,159503,1,0,0:0:0:0:
503,108,159623,1,0,0:0:0:0:
503,108,159863,1,0,0:0:0:0:
487,182,159983,1,0,0:0:0:0:
413,163,160103,1,0,0:0:0:0:
179,83,160343,5,8,1:0:0:0:
165,87,160463,1,0,0:0:0:0:
151,91,160583,1,0,0:0:0:0:
137,95,160703,1,0,0:0:0:0:
132,18,160823,5,0,0:0:0:0:
146,22,160943,1,0,0:0:0:0:
160,26,161063,1,0,0:0:0:0:
172,32,161183,2,0,P|218:25|236:19,1,56
289,63,161543,1,0,0:0:0:0:
358,39,161663,1,0,0:0:0:0:
358,39,161783,1,0,0:0:0:0:
346,113,161903,1,0,0:0:0:0:
272,138,162023,1,0,0:0:0:0:
272,138,162263,5,8,0:0:0:0:
350,303,162383,1,0,1:0:0:0:
373,130,162503,5,8,0:0:0:0:
248,310,162623,1,0,1:0:0:0:
441,231,162743,5,8,0:0:0:0:
180,209,162863,1,0,1:0:0:0:
310,223,162983,5,8,0:0:0:0:
292,149,163103,2,0,P|300:104|299:-14,1,140,0|0,1:0|0:0,0:0:0:0:
80,106,163463,2,0,P|79:175|89:245,1,140,8|8,0:0|0:0,0:0:0:0:
138,300,163823,5,8,0:0:0:0:
298,223,163943,1,8,0:0:0:0:
221,63,164063,1,8,0:0:0:0:
207,172,164183,6,0,B|241:140|241:140|313:152,1,105.000004005432,4|0,1:0|1:0,0:0:0:0:
322,139,164363,1,0,1:0:0:0:
346,128,164423,2,0,L|332:247,1,105.000004005432,8|0,0:0|2:0,0:0:0:0:
238,360,164663,2,0,B|161:334|161:334|131:295|131:295|51:268,1,210.000008010865,0|8,1:0|0:0,0:0:0:0:
26,196,165023,1,0,1:0:0:0:
70,37,165143,6,0,L|105:145,1,105.000004005432,0|0,2:0|1:0,0:0:0:0:
295,117,165383,1,8,0:0:0:0:
150,247,165503,1,0,2:0:0:0:
183,49,165623,1,0,1:0:0:0:
274,223,165743,1,0,1:0:0:0:
440,92,165863,6,0,P|418:159|387:305,1,210.000008010865,8|0,0:0|1:0,0:0:0:0:
437,356,166223,1,0,2:0:0:0:
312,286,166343,1,8,0:0:0:0:
274,363,166463,1,0,2:0:0:0:
130,298,166583,2,0,P|146:238|175:80,1,210.000008010865,0|8,1:0|0:0,0:0:0:0:
268,23,166943,2,0,P|285:126|311:228,1,210.000008010865,0|0,1:0|1:0,0:0:0:0:
253,276,167303,5,8,0:0:0:0:
130,376,167423,1,0,2:0:0:0:
30,253,167543,1,0,1:0:0:0:
153,153,167663,1,0,1:0:0:0:
219,359,167783,6,0,L|345:337,1,105.000004005432,8|0,0:0|2:0,0:0:0:0:
113,269,168023,5,0,1:0:0:0:
89,200,168143,1,0,2:0:0:0:
213,213,168263,1,8,0:0:0:0:
237,282,168383,1,0,2:0:0:0:
62,199,168503,5,0,1:0:0:0:
121,108,168623,1,0,2:0:0:0:
306,214,168743,5,8,0:0:0:0:
365,266,168863,2,0,P|359:157|352:32,1,210.000008010865,0|0,1:0|1:0,0:0:0:0:
293,7,169223,1,8,0:0:0:0:
457,6,169343,1,0,2:0:0:0:
454,156,169463,1,0,1:0:0:0:
186,113,169583,5,0,1:0:0:0:
158,209,169703,2,0,L|277:186,1,105.000004005432,8|0,0:0|2:0,0:0:0:0:
306,250,169943,5,8,1:0:0:0:
410,78,170063,1,0,1:0:0:0:
380,149,170183,5,8,1:0:0:0:
187,24,170303,1,0,1:0:0:0:
266,19,170423,5,8,1:0:0:0:
124,255,170543,1,0,1:0:0:0:
95,178,170663,5,8,1:0:0:0:
391,348,170783,1,0,1:0:0:0:
262,232,171143,6,0,L|254:148,2,70,2|2|2,2:2|2:2|2:2,0:0:0:0:
122,227,171863,6,0,P|177:250|218:278,1,105.000004005432,4|0,1:0|1:0,0:0:0:0:
200,297,172043,1,0,1:0:0:0:
188,320,172103,2,0,P|163:280|194:114,1,210.000008010865,8|0,0:0|1:0,0:0:0:0:
387,188,172463,1,0,2:0:0:0:
248,233,172583,1,8,0:0:0:0:
280,132,172703,6,0,P|250:78|101:46,1,210.000008010865,0|0,1:0|1:0,0:0:0:0:
40,7,173063,1,8,0:0:0:0:
23,173,173183,1,0,2:0:0:0:
106,135,173303,1,0,1:0:0:0:
89,301,173423,1,0,1:0:0:0:
228,270,173543,1,8,0:0:0:0:
33,249,173663,1,0,2:0:0:0:
162,229,173783,6,0,L|194:340,1,105.000004005432,0|0,1:0|2:0,0:0:0:0:
260,144,174023,2,0,L|256:254,1,105.000004005432,8|0,0:0|2:0,0:0:0:0:
285,321,174263,5,0,1:0:0:0:
387,190,174383,1,0,2:0:0:0:
256,88,174503,1,8,0:0:0:0:
154,219,174623,2,0,P|93:193|46:57,1,210.000008010865,0|0,1:0|1:0,0:0:0:0:
206,17,174983,5,8,0:0:0:0:
289,21,175103,1,0,2:0:0:0:
370,263,175223,1,0,1:0:0:0:
287,259,175343,1,0,1:0:0:0:
244,92,175463,6,0,L|228:216,1,105.000004005432,8|0,0:0|2:0,0:0:0:0:
476,156,175703,5,0,1:0:0:0:
359,65,175823,1,0,2:0:0:0:
300,232,175943,5,8,0:0:0:0:
464,241,176063,1,0,2:0:0:0:
485,384,176183,5,0,1:0:0:0:
255,346,176303,1,0,2:0:0:0:
143,203,176423,5,8,0:0:0:0:
72,156,176543,2,0,P|92:265|102:369,1,210.000008010865,0|0,1:0|1:0,0:0:0:0:
179,277,176903,5,8,0:0:0:0:
11,226,177023,1,0,2:0:0:0:
133,100,177143,1,0,1:0:0:0:
179,277,177263,1,0,1:0:0:0:
29,95,177383,6,0,L|141:119,1,105.000004005432,8|0,0:0|2:0,0:0:0:0:
197,74,177623,5,12,0:0:0:0:
255,265,177743,1,0,1:0:0:0:
446,207,177863,1,8,0:0:0:0:
388,16,177983,1,0,1:0:0:0:
286,186,178103,5,8,0:0:0:0:
421,119,178223,1,0,1:0:0:0:
275,29,178343,1,8,0:0:0:0:
326,98,178463,1,0,1:0:0:0:
366,173,178583,2,0,L|348:286,1,105.000004005432
4,190,178823,5,8,0:0:0:0:
4,190,179063,5,8,0:0:0:0:
135,94,179183,1,0,1:0:0:0:
52,35,179303,5,0,1:0:0:0:
72,259,179423,1,8,0:0:0:0:
292,116,179543,6,0,L|426:96,1,105.000004005432,4|0,1:0|2:0,0:0:0:0:
466,178,179783,2,0,L|342:196,1,105.000004005432,8|0,0:0|1:0,0:0:0:0:
347,214,179963,1,0,1:0:0:0:
332,235,180023,1,0,1:0:0:0:
256,180,180143,1,0,2:0:0:0:
284,344,180263,1,8,0:0:0:0:
140,296,180383,6,0,P|144:192|92:60,1,210.000008010865,0|0,1:0|1:0,0:0:0:0:
58,172,180743,1,8,0:0:0:0:
224,273,180863,5,0,2:0:0:0:
436,316,180983,1,0,1:0:0:0:
427,85,181103,1,0,1:0:0:0:
222,148,181223,1,8,0:0:0:0:
336,211,181343,1,0,2:0:0:0:
210,45,181463,6,0,L|87:58,1,105.000004005432,0|0,1:0|2:0,0:0:0:0:
233,181,181703,2,0,L|88:196,1,105.000004005432,8|0,0:0|2:0,0:0:0:0:
251,313,181943,2,0,L|6:332,1,210.000008010865,0|8,1:0|0:0,0:0:0:0:
10,251,182303,5,0,1:0:0:0:
10,251,182363,1,0,0:0:0:0:
10,251,182423,1,0,2:0:0:0:
245,123,182543,1,0,1:0:0:0:
247,42,182663,5,8,0:0:0:0:
479,198,182783,1,0,2:0:0:0:
255,235,182903,5,0,1:0:0:0:
332,155,183023,1,0,1:0:0:0:
157,113,183143,1,8,0:0:0:0:
186,291,183263,1,0,2:0:0:0:
172,203,183383,5,0,1:0:0:0:
343,267,183503,1,0,2:0:0:0:
186,291,183623,5,8,0:0:0:0:
336,187,183743,1,0,2:0:0:0:
157,113,183863,5,0,1:0:0:0:
172,203,183983,1,0,2:0:0:0:
157,113,184103,1,8,0:0:0:0:
299,339,184223,6,0,P|414:342|483:262,1,210.000008010865,0|0,1:0|1:0,0:0:0:0:
460,82,184583,1,8,0:0:0:0:
288,59,184703,5,0,2:0:0:0:
355,141,184823,1,0,1:0:0:0:
275,197,184943,1,0,1:0:0:0:
210,122,185063,1,8,0:0:0:0:
61,45,185183,5,0,2:0:0:0:
120,92,185303,5,12,0:0:0:0:
78,318,185423,1,0,1:0:0:0:
149,341,185543,5,8,0:0:0:0:
440,329,185663,1,0,1:0:0:0:
373,303,185783,5,8,0:0:0:0:
404,50,185903,1,0,1:0:0:0:
358,107,186023,5,8,0:0:0:0:
120,92,186143,1,0,1:0:0:0:
462,220,186383,5,0,0:0:0:0:
60,192,186623,1,0,2:0:0:0:
280,208,186743,5,8,0:0:0:0:
241,211,186803,1,8,0:0:0:0:
259,210,186863,1,0,1:0:0:0:
253,132,186983,1,8,1:0:0:0:
270,286,187103,1,8,0:0:0:0:
152,136,187223,5,12,0:0:0:0:
351,117,187343,1,0,1:0:0:0:
155,231,187463,2,0,L|188:350,1,105.000004005432,8|0,0:0|1:0,0:0:0:0:
357,231,187703,2,0,L|324:350,1,105.000004005432,8|0,0:0|1:0,0:0:0:0:
255,365,187943,5,8,0:0:0:0:
257,35,188063,1,0,1:0:0:0:
227,290,188183,5,8,0:0:0:0:
308,90,188303,1,0,1:0:0:0:
197,217,188423,5,8,0:0:0:0:
315,166,188543,1,0,1:0:0:0:
70,182,188663,5,8,0:0:0:0:
139,146,188783,1,0,1:0:0:0:
322,269,188903,5,8,0:0:0:0:
392,295,189023,1,0,1:0:0:0:
452,31,189143,5,8,0:0:0:0:
455,112,189263,1,0,1:0:0:0:
273,53,189383,5,8,0:0:0:0:
263,138,189503,1,0,1:0:0:0:
56,48,189623,5,8,0:0:0:0:
79,197,189743,1,0,1:0:0:0:
102,346,189863,1,8,0:0:0:0:
332,210,189983,5,0,1:0:0:0:
177,248,190103,1,8,0:0:0:0:
350,291,190223,1,0,1:0:0:0:
195,329,190343,1,8,0:0:0:0:
239,180,190463,1,0,1:0:0:0:
350,291,190583,2,0,P|418:288|466:263,1,105.000004005432,8|0,0:0|1:0,0:0:0:0:
352,62,190823,5,8,0:0:0:0:
140,117,190943,1,0,1:0:0:0:
440,156,191063,5,12,0:0:0:0:
492,91,191183,1,0,1:0:0:0:
241,201,191303,5,8,0:0:0:0:
195,267,191423,1,0,1:0:0:0:
235,62,191543,5,8,0:0:0:0:
290,279,191663,1,0,1:0:0:0:
352,62,191783,5,8,0:0:0:0:
228,349,191903,1,0,1:0:0:0:
369,253,192023,5,8,0:0:0:0:
291,121,192143,1,0,1:0:0:0:
286,290,192263,1,8,0:0:0:0:
296,111,192383,1,0,1:0:0:0:
195,267,192503,1,8,0:0:0:0:
301,102,192623,1,0,1:0:0:0:
121,217,192743,1,8,0:0:0:0:
306,95,192863,1,0,1:0:0:0:
19,51,192983,6,0,P|18:117|26:177,1,105.000004005432,8|0,0:0|1:0,0:0:0:0:
493,333,193223,2,0,P|494:267|486:207,1,105.000004005432,8|0,0:0|1:0,0:0:0:0:
121,217,193463,5,8,0:0:0:0:
392,164,193583,1,0,1:0:0:0:
121,217,193703,1,8,0:0:0:0:
392,164,193823,1,0,1:0:0:0:
310,163,193943,5,8,0:0:0:0:
218,217,194063,1,0,1:0:0:0:
310,163,194183,1,8,0:0:0:0:
218,217,194303,1,0,1:0:0:0:
263,69,194423,5,8,0:0:0:0:
264,63,194483,1,0,0:0:0:0:
266,58,194543,1,8,0:0:0:0:
380,130,194663,1,8,0:0:0:0:
491,79,194783,1,8,0:0:0:0:
266,309,194903,6,0,B|209:333|209:333|134:315,1,125.999996154785,12|0,0:0|1:0,0:0:0:0:
89,264,195143,1,8,0:0:0:0:
346,343,195263,1,0,1:0:0:0:
416,291,195383,2,0,B|443:256|428:203|428:203|388:179,1,125.999996154785,8|0,0:0|1:0,0:0:0:0:
329,220,195623,1,8,0:0:0:0:
68,41,195743,2,0,B|-6:94|26:183|26:183|86:143|143:207,1,251.999992309571,0|0,1:0|1:0,0:0:0:0:
175,130,196103,5,8,0:0:0:0:
459,61,196223,1,0,1:0:0:0:
318,344,196343,1,8,0:0:0:0:
224,44,196463,5,0,1:0:0:0:
466,249,196583,1,8,0:0:0:0:
189,332,196703,1,0,1:0:0:0:
337,96,196823,6,0,B|338:77|338:77|399:94|405:160,1,125.999996154785,8|0,0:0|1:0,0:0:0:0:
146,239,197063,2,0,B|145:258|145:258|84:241|78:175,1,125.999996154785,8|0,0:0|1:0,0:0:0:0:
188,168,197303,1,8,0:0:0:0:
453,284,197423,2,0,B|443:298|443:298|355:335|355:335|346:373,1,125.999996154785,0|8,1:0|0:0,0:0:0:0:
282,286,197663,1,0,1:0:0:0:
433,42,197783,5,8,0:0:0:0:
365,253,197903,1,0,1:0:0:0:
246,63,198023,1,8,0:0:0:0:
158,262,198143,1,0,1:0:0:0:
41,73,198263,2,0,B|70:132|70:132|54:157|55:207,1,125.999996154785,8|0,0:0|1:0,0:0:0:0:
122,350,198503,1,8,0:0:0:0:
295,357,198623,5,0,1:0:0:0:
295,357,198683,1,0,0:0:0:0:
295,357,198743,2,0,L|435:339,1,125.999996154785,12|0,0:0|1:0,0:0:0:0:
476,39,198983,2,0,L|336:57,1,125.999996154785,8|0,0:0|1:0,0:0:0:0:
182,280,199223,5,8,0:0:0:0:
258,53,199343,1,0,1:0:0:0:
297,236,199463,5,8,0:0:0:0:
216,146,199583,1,0,1:0:0:0:
125,339,199703,5,8,0:0:0:0:
401,328,199823,1,0,1:0:0:0:
120,249,199943,5,8,0:0:0:0:
396,238,200063,1,0,1:0:0:0:
118,163,200183,5,8,0:0:0:0:
394,152,200303,1,0,1:0:0:0:
113,73,200423,5,8,0:0:0:0:
389,62,200543,1,0,1:0:0:0:
257,191,200663,6,0,B|251:214|263:238|263:238|199:218|211:146|211:146|252:118|257:36,2,251.999992309571,12|8|8,0:0|0:0|0:0,0:0:0:0:
328,32,201263,1,8,0:0:0:0:
132,109,201383,1,8,0:0:0:0:
507,384,201503,5,12,0:0:0:0:
0,252,201743,1,12,0:0:0:0:
448,0,201983,1,12,0:0:0:0:
448,0,202103,1,12,0:0:0:0:
