osu file format v14

[General]
AudioFilename: audio.mp3
AudioLeadIn: 0
PreviewTime: 52703
Countdown: 0
SampleSet: Normal
StackLeniency: 0.7
Mode: 0
LetterboxInBreaks: 0
WidescreenStoryboard: 1

[Editor]
DistanceSpacing: 1.1
BeatDivisor: 2
GridSize: 4
TimelineZoom: 3.399999

[Metadata]
Title:humanly
TitleUnicode:人間らしい
Artist:umu.
ArtistUnicode:ゆーむ
Creator:Luscent
Version:Insane
Source:
Tags:Mirash Delis ShirohaMyMommy _Epreus Epreus Japanese vocaloid GUMI ningenrashii umu ユリイ・カノン YURRY CANON utaite rock
BeatmapID:2187504
BeatmapSetID:1045518

[Difficulty]
HPDrainRate:5
CircleSize:4
OverallDifficulty:8
ApproachRate:9
SliderMultiplier:1.4
SliderTickRate:1

[Events]
//Background and Video events
0,0,"bg.png",0,0
//Break Periods
2,24103,25314
2,33823,36354
2,83743,86274
2,118303,125154
2,156703,157794
2,158623,159714
2,160543,161634
//Storyboard Layer 0 (Background)
//Storyboard Layer 1 (Fail)
//Storyboard Layer 2 (Pass)
//Storyboard Layer 3 (Foreground)
//Storyboard Layer 4 (Overlay)
//Storyboard Sound Samples

[TimingPoints]
983,240,4,1,1,50,1,0
2783,-100,4,1,1,50,0,0
8663,-83.3333333333333,4,1,1,65,0,0
15383,-71.4285714285714,4,1,1,65,0,0
16343,-83.3333333333333,4,1,1,65,0,0
23063,-71.4285714285714,4,1,1,65,0,0
25943,-95.2380952380952,4,1,1,55,0,0
52823,-83.3333333333333,4,1,1,75,0,1
75383,-83.3333333333333,4,1,1,75,0,0
75863,-100,4,1,1,60,0,0
83063,-133.333333333333,4,1,1,60,0,0
87383,-95.2380952380952,4,1,1,55,0,0
102743,-83.3333333333333,4,1,1,75,0,1
117023,-166.666666666667,4,1,1,40,0,1
117143,-166.666666666667,4,1,1,5,0,1
117623,-166.666666666667,4,1,1,25,0,1
118103,-166.666666666667,4,1,1,65,0,0
125783,-100,4,1,1,60,0,0
139223,-100,4,1,1,40,0,0
139463,-100,4,1,1,45,0,0
139703,-100,4,1,1,50,0,0
139943,-100,4,1,1,55,0,0
140183,-100,4,1,1,60,0,0
141143,-83.3333333333333,4,1,1,60,0,0
147863,-71.4285714285714,4,1,1,60,0,0
148823,-83.3333333333333,4,1,1,60,0,0
156503,-83.3333333333333,4,1,1,55,0,0
162263,-83.3333333333333,4,1,1,75,0,1
170783,-83.3333333333333,4,1,1,75,0,0
171863,-76.9230769230769,4,1,1,80,0,1
202103,-76.9230769230769,4,1,1,80,0,0

[Colours]
Combo1 : 70,119,119
Combo2 : 198,200,176
Combo3 : 34,187,204
Combo4 : 247,115,154

[HitObjects]
194,239,983,6,0,P|162:251|128:249,2,70
294,178,1463,6,0,L|260:350,1,140
277,98,1823,2,0,B|363:89|333:141|428:133,1,140
208,153,2183,2,0,P|193:71|257:11,1,140
34,113,2543,2,0,P|86:110|127:96,1,70
103,105,2783,1,0,0:0:0:0:
99,226,2903,6,0,P|68:209|33:205,2,70
57,353,3383,6,0,P|126:348|186:313,1,140
230,223,3743,2,0,P|223:291|254:353,1,140
334,324,4103,1,0,0:0:0:0:
415,302,4223,1,0,0:0:0:0:
475,360,4343,1,0,0:0:0:0:
502,188,4823,6,0,P|469:201|435:202,2,70
437,109,5303,6,0,B|363:97|378:153|304:136,1,140
228,82,5663,2,0,P|268:136|251:201,1,140
203,274,6023,2,0,P|162:219|179:154,1,140
107,110,6383,2,0,P|71:103|25:100,1,70
37,100,6623,1,0,0:0:0:0:
228,82,6743,6,0,P|227:45|222:7,2,70
304,136,7223,6,0,P|373:141|443:138,1,140
499,204,7583,2,0,P|496:270|437:301,1,140
283,339,7943,1,0,0:0:0:0:
359,304,8063,1,0,0:0:0:0:
406,373,8183,1,0,0:0:0:0:
99,384,8663,6,0,P|76:300|110:242,1,125.999996154785,4|0,0:0|2:0,0:0:0:0:
88,266,8903,1,8,0:0:0:0:
168,289,9023,2,0,P|241:287|356:272,1,167.999994873047,0|0,1:0|1:0,0:0:0:0:
416,256,9383,2,0,P|417:206|415:164,1,83.9999974365235,8|0,0:0|1:0,0:0:0:0:
261,4,9623,6,0,P|271:44|303:70,1,83.9999974365235,2|0,0:0|0:0,0:0:0:0:
452,110,9863,2,0,P|413:97|374:111,1,83.9999974365235,10|0,0:0|0:0,0:3:0:0:
268,220,10103,2,0,P|297:190|304:150,1,83.9999974365235,2|0,0:0|0:0,0:3:0:0:
226,153,10343,1,8,0:0:0:0:
226,153,10463,1,0,0:0:0:0:
144,173,10583,6,0,P|141:261|142:313,1,125.999996154785,0|0,1:0|2:0,0:0:0:0:
141,298,10823,1,8,0:0:0:0:
224,289,10943,2,0,B|315:275|281:321|394:307,1,167.999994873047,0|0,1:0|1:0,0:0:0:0:
465,275,11303,2,0,B|477:231|477:231|457:169,1,83.9999974365235,8|0,0:0|1:0,0:0:0:0:
206,122,11543,6,0,P|252:114|323:139,1,83.9999974365235,2|0,0:0|0:0,0:0:0:0:
399,233,11783,2,0,P|369:197|355:123,1,83.9999974365235,10|0,0:0|0:0,0:0:0:0:
395,14,12023,2,0,P|378:57|321:106,1,83.9999974365235,2|0,0:0|0:0,0:0:0:0:
302,15,12263,1,8,0:0:0:0:
133,12,12503,6,0,P|108:68|126:127,1,125.999996154785,0|0,1:0|2:0,0:0:0:0:
126,127,12743,1,8,0:0:0:0:
8,189,12863,2,0,B|86:166|81:239|182:205,1,167.999994873047,0|0,1:0|1:0,0:0:0:0:
253,212,13223,2,0,P|260:252|247:292,1,83.9999974365235,8|0,0:0|1:0,0:0:0:0:
334,307,13463,6,0,P|364:340|430:353,1,83.9999974365235,2|0,0:0|0:0,0:0:0:0:
414,177,13703,2,0,P|370:186|326:237,1,83.9999974365235,10|0,0:0|0:0,0:0:0:0:
485,311,13943,2,0,P|498:268|476:204,1,83.9999974365235,2|0,0:0|0:0,0:0:0:0:
500,146,14183,1,8,0:0:0:0:
500,146,14303,1,0,0:0:0:0:
437,89,14423,6,0,B|377:75|390:114|313:98,1,125.999996154785,0|0,1:0|2:0,0:0:0:0:
314,98,14663,1,8,0:0:0:0:
255,33,14783,2,0,P|224:107|270:174,1,167.999994873047,0|0,1:0|1:0,0:0:0:0:
353,192,15143,2,0,P|355:255|321:298,1,83.9999974365235,8|0,0:0|1:0,0:0:0:0:
25,313,15383,6,0,P|9:258|32:209,1,97.9999970092774,10|0,0:0|0:0,0:0:0:0:
186,216,15623,2,0,P|146:256|92:261,1,97.9999970092774,10|0,0:0|0:0,0:0:0:0:
22,124,15863,2,0,P|77:138|108:181,1,97.9999970092774,10|0,0:0|0:0,0:0:0:0:
175,328,16103,2,0,L|171:353,4,24.4999992523194,8|0|0|0|0,0:0|2:0|2:0|2:0|2:0,2:1:0:0:
255,335,16343,6,0,P|315:349|393:331,1,125.999996154785,4|0,0:0|2:0,0:0:0:0:
377,338,16583,1,8,0:0:0:0:
469,362,16703,2,0,P|456:286|363:247,1,167.999994873047,0|0,1:0|1:0,0:0:0:0:
313,187,17063,2,0,P|291:240|306:291,1,83.9999974365235,8|0,0:0|1:0,0:0:0:0:
329,109,17303,6,0,P|292:93|258:53,1,83.9999974365235,2|0,0:0|0:0,0:0:0:0:
388,164,17543,2,0,P|393:203|375:252,1,83.9999974365235,10|0,0:0|0:0,0:0:0:0:
407,86,17783,2,0,P|438:62|490:52,1,83.9999974365235,2|0,0:0|0:0,0:0:0:0:
481,141,18023,1,8,0:0:0:0:
481,141,18143,1,0,0:0:0:0:
501,222,18263,6,0,P|502:301|501:363,1,125.999996154785,0|0,1:0|2:0,0:0:0:0:
501,347,18503,1,8,0:0:0:0:
417,343,18623,2,0,P|349:358|256:314,1,167.999994873047,0|0,1:0|0:0,0:0:0:0:
188,277,18983,2,0,P|176:327|193:372,1,83.9999974365235,8|0,0:0|0:0,0:0:0:0:
262,241,19223,6,0,P|218:195|141:207,1,83.9999974365235,2|0,0:0|0:0,0:0:0:0:
51,250,19463,2,0,P|112:234|140:162,1,83.9999974365235,10|0,0:0|0:0,0:0:0:0:
153,67,19703,2,0,P|135:128|184:188,1,83.9999974365235,2|0,0:0|0:0,0:0:0:0:
216,120,19943,1,8,0:0:0:0:
433,27,20183,6,0,P|455:103|435:168,1,125.999996154785,0|0,1:0|2:0,0:0:0:0:
445,147,20423,1,8,0:0:0:0:
309,195,20543,2,0,B|356:178|393:207|384:208|426:245|485:226,1,167.999994873047,0|0,1:0|1:0,0:0:0:0:
335,272,20903,2,0,P|326:313|331:354,1,83.9999974365235,8|0,0:0|1:0,0:0:0:0:
237,239,21143,6,0,P|227:188|245:134,1,83.9999974365235,2|0,0:0|0:0,0:0:0:0:
342,47,21383,2,0,P|302:81|247:92,1,83.9999974365235,10|0,0:0|0:0,0:0:0:0:
122,50,21623,2,0,P|171:66|208:109,1,83.9999974365235,2|0,0:0|0:0,0:0:0:0:
125,135,21863,1,8,0:0:0:0:
125,135,21983,1,0,0:0:0:0:
44,133,22103,6,0,P|42:237|43:286,1,125.999996154785,0|0,1:0|2:0,0:0:0:0:
42,258,22343,1,8,0:0:0:0:
17,342,22463,2,0,B|112:357|92:290|201:308,1,167.999994873047,0|0,1:0|1:0,0:0:0:0:
255,342,22823,2,0,P|264:290|234:237,1,83.9999974365235,8|0,0:0|1:0,0:0:0:0:
202,133,23063,6,0,L|294:185,1,97.9999970092774,10|0,0:0|0:0,0:0:0:0:
351,326,23303,2,0,L|350:220,1,97.9999970092774,10|0,0:0|0:0,0:0:0:0:
442,105,23543,2,0,L|350:158,1,97.9999970092774,10|0,0:0|0:0,0:0:0:0:
460,216,23783,6,0,L|490:224,4,24.4999992523194,8|0|0|0|0,2:1|2:0|2:0|2:0|2:0,2:0:0:0:
87,160,25943,6,0,P|117:239|193:227,1,146.999995513916,0|0,2:0|0:0,0:0:0:0:
233,204,26303,1,0,2:0:0:0:
306,204,26423,2,0,P|309:283|308:371,1,146.999995513916,0|0,1:0|2:0,0:0:0:0:
238,372,26783,1,0,1:0:0:0:
383,296,26903,6,0,P|420:298|472:307,2,73.4999977569581,0|0|0,2:0|0:0|0:0,0:0:0:0:
386,374,27263,1,0,2:0:0:0:
386,374,27383,1,0,1:0:0:0:
483,232,27623,1,0,3:0:0:0:
282,114,27863,6,0,P|345:170|434:123,1,146.999995513916,0|0,2:0|0:0,0:0:0:0:
463,120,28223,1,0,2:0:0:0:
463,120,28343,2,0,B|474:85|474:85|458:30,1,73.4999977569581,0|0,1:0|0:0,0:0:0:0:
289,189,28583,2,0,B|278:224|278:224|294:279,1,73.4999977569581,0|0,2:0|1:0,0:0:0:0:
350,319,28823,6,0,L|435:305,2,73.4999977569581,0|0|0,2:0|0:0|0:0,0:0:0:0:
281,363,29183,1,0,2:0:0:0:
281,363,29303,2,0,L|208:374,1,73.4999977569581,0|0,1:0|0:0,0:0:0:0:
145,336,29543,5,0,3:0:0:0:
79,302,29663,1,0,3:0:0:0:
6,314,29783,2,0,L|13:153,1,146.999995513916,4|0,2:0|0:0,0:0:0:0:
120,87,30143,1,0,2:0:0:0:
120,87,30263,2,0,L|115:185,1,73.4999977569581,0|0,1:0|0:0,0:0:0:0:
16,85,30503,2,0,L|19:11,1,73.4999977569581,0|0,2:0|1:0,0:0:0:0:
188,34,30743,5,0,2:0:0:0:
241,84,30863,1,0,0:0:0:0:
314,92,30983,2,0,L|396:75,1,73.4999977569581,0|0,0:0|2:0,0:0:0:0:
443,31,31223,1,0,1:0:0:0:
475,94,31343,1,0,0:0:0:0:
445,158,31463,1,0,3:0:0:0:
499,218,31583,5,0,3:0:0:0:
499,218,31703,2,0,P|408:240|323:185,1,146.999995513916,0|0,2:0|0:0,0:0:0:0:
269,173,32063,1,0,2:0:0:0:
269,173,32183,2,0,P|281:220|268:277,1,73.4999977569581,0|0,1:0|2:0,0:0:0:0:
279,345,32423,2,0,P|313:311|369:293,1,73.4999977569581,0|0,1:0|2:0,0:0:0:0:
198,364,32663,5,8,0:0:0:0:
198,364,32783,1,0,0:0:0:0:
160,292,32903,1,8,0:0:0:0:
160,292,33023,1,0,0:0:0:0:
79,302,33143,5,8,0:0:0:0:
216,173,33383,5,8,0:0:0:0:
110,70,33623,5,12,0:0:0:0:
256,101,36983,5,8,1:1:0:0:
307,152,37103,1,8,1:1:0:0:
380,156,37223,1,8,1:1:0:0:
446,125,37343,1,8,1:1:0:0:
467,113,37463,6,0,P|460:222|460:286,1,146.999995513916,4|0,2:0|0:0,0:0:0:0:
399,302,37823,1,0,2:0:0:0:
328,280,37943,2,0,P|280:278|232:290,1,73.4999977569581,0|0,1:0|0:0,0:0:0:0:
181,288,38183,2,0,P|179:240|191:192,1,73.4999977569581,0|0,2:0|1:0,0:0:0:0:
355,131,38423,6,0,P|325:195|255:207,1,146.999995513916,0|0,2:0|0:0,0:0:0:0:
212,147,38783,1,0,2:0:0:0:
212,147,38903,1,0,1:0:0:0:
123,336,39143,1,0,3:0:0:0:
11,257,39383,6,0,P|8:169|15:72,1,146.999995513916,0|0,2:0|0:0,0:0:0:0:
58,53,39743,1,0,2:0:0:0:
131,49,39863,2,0,P|134:137|127:234,1,146.999995513916,0|0,1:0|2:0,0:0:0:0:
105,267,40223,5,0,1:0:0:0:
105,267,40343,2,0,P|152:297|208:294,1,73.4999977569581,0|0,2:0|0:0,0:0:0:0:
303,185,40583,2,0,P|256:155|200:158,1,73.4999977569581,0|0,0:0|2:0,0:0:0:0:
208,230,40823,1,0,1:0:0:0:
208,230,41063,5,0,3:0:0:0:
265,275,41183,1,0,3:0:0:0:
255,347,41303,2,0,P|338:349|437:345,1,146.999995513916,0|0,2:0|0:0,0:0:0:0:
437,281,41663,1,0,2:0:0:0:
509,310,41783,2,0,P|511:227|507:128,1,146.999995513916,0|0,1:0|2:0,0:0:0:0:
491,90,42143,1,0,1:0:0:0:
431,132,42263,5,0,2:0:0:0:
431,132,42383,1,0,0:0:0:0:
358,118,42503,1,0,0:0:0:0:
358,118,42623,1,0,2:0:0:0:
289,143,42743,1,0,1:0:0:0:
294,260,42983,5,0,3:0:0:0:
220,258,43103,1,0,3:0:0:0:
146,258,43223,2,0,P|65:261|-31:258,1,146.999995513916,0|0,2:0|0:0,0:0:0:0:
0,344,43583,1,0,2:0:0:0:
74,344,43703,2,0,P|155:347|251:344,1,146.999995513916,0|0,1:0|2:0,0:0:0:0:
292,361,44063,1,0,1:0:0:0:
393,315,44183,6,0,P|413:280|393:196,1,73.4999977569581,8|0,2:1|0:0,0:0:0:0:
278,126,44423,2,0,P|258:161|278:245,1,73.4999977569581,8|0,2:1|0:0,0:0:0:0:
465,163,44663,5,8,2:1:0:0:
396,171,44783,1,8,2:1:0:0:
405,240,44903,1,8,2:1:0:0:
473,232,45023,1,8,2:1:0:0:
474,158,45143,6,0,P|476:77|474:4,1,146.999995513916,4|0,0:2|2:0,0:0:0:0:
363,100,45503,2,0,P|361:181|363:254,1,146.999995513916,0|0,0:0|1:0,0:0:0:0:
348,326,45863,1,0,0:0:0:0:
348,326,45983,1,0,2:0:0:0:
264,294,46103,6,0,B|185:283|214:336|91:312,2,146.999995513916,0|0|0,0:0|0:0|2:0,0:0:0:0:
152,240,46823,1,0,0:0:0:0:
91,33,47063,5,0,0:0:0:0:
91,33,47183,1,0,2:0:0:0:
166,74,47303,5,0,0:0:0:0:
166,74,47423,1,0,2:0:0:0:
226,20,47543,5,0,0:0:0:0:
226,20,47663,1,0,2:0:0:0:
294,71,47783,5,0,0:0:0:0:
294,71,47903,1,0,2:0:0:0:
369,37,48023,6,0,P|373:81|391:132,1,73.4999977569581
488,179,48263,2,0,P|484:135|466:84,1,73.4999977569581
293,190,48503,5,8,1:0:0:0:
293,190,48563,1,0,2:0:0:0:
293,190,48623,2,0,L|300:285,2,73.4999977569581,8|8|8,1:0|1:0|1:0,0:0:0:0:
207,214,48983,6,0,L|217:360,1,146.999995513916,4|0,0:0|2:0,0:0:0:0:
217,360,49343,1,0,0:0:0:0:
111,295,49463,2,0,L|121:148,1,146.999995513916
121,148,49823,1,0,2:0:0:0:
199,116,49943,6,0,P|292:126|352:75,1,146.999995513916
389,49,50303,1,0,0:0:0:0:
461,63,50423,1,0,2:0:0:0:
424,222,50663,1,0,0:0:0:0:
294,340,50903,5,0,0:0:0:0:
357,176,51143,5,0,0:0:0:0:
129,103,51383,5,0,0:0:0:0:
183,243,51623,5,0,0:0:0:0:
30,192,51863,5,0,0:0:0:0:
51,311,52823,6,0,P|103:246|221:270,1,167.999994873047,4|8,1:0|0:0,0:0:0:0:
235,307,53183,1,0,2:0:0:0:
235,307,53303,2,0,P|267:258|251:196,2,83.9999974365235,0|0|8,1:0|2:0|0:0,0:0:0:0:
214,166,53663,2,0,L|319:142,1,83.9999974365235,0|0,1:0|2:0,0:0:0:0:
404,106,53903,5,0,1:0:0:0:
404,105,54023,2,0,P|432:134|472:144,1,83.9999974365235,8|0,0:0|2:0,0:0:0:0:
477,58,54263,2,0,P|448:28|407:18,1,83.9999974365235,0|0,1:0|1:0,0:0:0:0:
328,62,54503,2,0,L|211:81,1,83.9999974365235,8|0,0:0|2:0,0:0:0:0:
152,53,54743,5,0,1:0:0:0:
228,224,54983,1,8,0:0:0:0:
160,267,55103,1,0,2:0:0:0:
305,247,55223,2,0,L|305:71,1,167.999994873047,0|8,1:0|0:0,0:0:0:0:
393,152,55583,2,0,L|393:320,1,167.999994873047,0|0,1:0|1:0,0:0:0:0:
470,282,55943,5,8,0:0:0:0:
326,362,56063,1,0,2:0:0:0:
258,323,56183,2,0,P|207:335|173:343,2,83.9999974365235,0|0|8,1:0|1:0|0:0,0:0:0:0:
44,350,56663,6,0,P|23:313|23:272,1,83.9999974365235,4|0,1:2|2:0,0:0:0:0:
204,175,56903,2,0,P|224:211|224:252,1,83.9999974365235,8|0,0:0|2:0,0:0:0:0:
23,272,57143,1,0,1:0:0:0:
120,221,57383,5,8,0:0:0:0:
120,221,57503,2,0,P|122:137|121:53,1,167.999994873047,0|0,1:0|1:0,0:0:0:0:
196,14,57863,2,0,P|260:48|317:40,1,83.9999974365235,8|0,0:0|1:0,0:0:0:0:
345,58,58103,1,0,0:0:0:0:
401,7,58223,1,0,1:0:0:0:
472,31,58343,1,8,0:0:0:0:
300,173,58583,5,12,0:0:0:0:
373,213,58703,1,0,1:0:0:0:
455,199,58823,2,0,P|460:150|470:101,1,83.9999974365235,8|0,0:0|1:0,0:0:0:0:
303,253,59063,5,8,0:0:0:0:
319,335,59183,1,0,1:0:0:0:
386,285,59303,1,8,0:0:0:0:
226,282,59423,6,0,B|141:263|141:263|49:290,1,167.999994873047,0|0,1:0|0:0,0:0:0:0:
62,366,59783,2,0,B|147:385|147:385|239:358,1,167.999994873047,8|8,0:0|0:0,0:0:0:0:
296,319,60143,1,0,1:0:0:0:
363,352,60263,1,8,1:0:0:0:
427,311,60383,1,8,0:0:0:0:
314,245,60503,6,0,P|226:236|134:230,2,167.999994873047,4|8|0,0:0|0:0|1:0,0:0:0:0:
357,173,61103,1,0,2:0:0:0:
403,243,61223,1,8,0:0:0:0:
447,171,61343,6,0,P|481:98|437:24,1,167.999994873047,0|0,1:0|1:0,0:0:0:0:
284,25,61703,2,0,P|325:29|367:33,1,83.9999974365235,8|0,0:0|2:0,0:0:0:0:
250,100,61943,2,0,P|208:104|166:108,1,83.9999974365235,0|0,1:0|1:0,0:0:0:0:
110,43,62183,1,8,0:0:0:0:
110,43,62303,1,0,2:0:0:0:
41,100,62423,6,0,P|38:190|37:272,1,167.999994873047,0|8,1:0|0:0,0:0:0:0:
174,305,62783,1,0,2:0:0:0:
174,305,62903,2,0,B|85:291|108:368|-24:343,1,167.999994873047,0|8,1:0|0:0,0:0:0:0:
162,382,63263,2,0,P|238:358|251:279,1,167.999994873047,0|0,1:0|1:0,0:0:0:0:
188,226,63623,5,8,0:0:0:0:
329,290,63743,1,0,2:0:0:0:
401,248,63863,2,0,P|404:149|400:58,1,167.999994873047,0|8,1:0|0:0,0:0:0:0:
292,42,64343,5,4,1:2:0:0:
231,87,64463,1,0,2:0:0:0:
155,91,64583,1,8,1:0:0:0:
86,58,64703,1,0,2:0:0:0:
15,85,64823,2,0,P|14:138|14:186,2,83.9999974365235,0|0|8,1:0|2:0|0:0,0:0:0:0:
95,139,65183,6,0,P|104:219|226:244,1,167.999994873047,0|0,2:0|1:0,0:0:0:0:
259,265,65543,1,0,0:0:0:0:
259,265,65663,2,0,B|273:223|273:223|258:183,1,83.9999974365235,8|0,0:0|1:0,0:0:0:0:
298,110,65903,1,0,1:0:0:0:
381,118,66023,1,8,0:0:0:0:
486,303,66263,5,12,0:0:0:0:
424,245,66383,1,0,1:0:0:0:
342,266,66503,2,0,P|295:266|237:263,1,83.9999974365235,8|0,0:0|1:0,0:0:0:0:
68,286,66743,5,8,0:0:0:0:
113,356,66863,1,0,1:0:0:0:
192,328,66983,1,8,0:0:0:0:
197,221,67103,6,0,P|199:128|197:35,1,167.999994873047,8|0,0:0|0:0,0:0:0:0:
123,23,67463,1,8,0:0:0:0:
26,88,67703,5,0,1:0:0:0:
26,88,67763,1,0,1:0:0:0:
26,88,67823,2,0,B|65:101|65:101|152:95,2,83.9999974365235,0|8|8,1:0|0:0|0:0,0:0:0:0:
21,176,68183,6,0,P|17:231|50:283,1,83.9999974365235,12|0,0:0|0:0,0:0:0:0:
210,302,68423,2,0,P|214:247|181:195,1,83.9999974365235,8|0,0:0|0:0,0:0:0:0:
16,338,68663,2,0,B|64:350|61:326|126:339,1,83.9999974365235,8|0,0:0|0:0,0:0:0:0:
165,368,68903,1,8,0:0:0:0:
285,323,69023,6,0,P|286:223|284:129,1,167.999994873047
400,157,69383,2,0,P|443:155|497:126,1,83.9999974365235,8|0,0:0|0:0,0:0:0:0:
268,51,69623,2,0,P|225:53|171:82,1,83.9999974365235,8|0,0:0|0:0,0:0:0:0:
427,80,69863,2,0,P|425:37|396:-17,1,83.9999974365235,8|0,0:0|0:0,0:0:0:0:
361,221,70103,5,12,0:0:0:0:
392,298,70223,1,0,0:0:0:0:
444,232,70343,1,8,0:0:0:0:
309,287,70463,1,0,0:0:0:0:
228,262,70583,2,0,P|176:260|106:265,1,83.9999974365235,8|0,0:0|0:0,0:0:0:0:
35,357,70823,2,0,P|87:359|157:354,1,83.9999974365235,8|0,0:0|0:0,0:0:0:0:
57,275,71063,6,0,P|82:188|195:210,1,167.999994873047,8|8,0:0|0:0,0:0:0:0:
223,189,71423,1,0,0:0:0:0:
298,152,71543,1,8,0:0:0:0:
231,100,71663,2,0,P|181:95|116:92,1,83.9999974365235
379,175,71903,1,0,0:0:0:0:
379,175,72023,6,0,P|425:165|460:140,1,83.9999974365235,12|0,0:0|0:0,0:0:0:0:
316,244,72263,2,0,P|270:254|235:279,1,83.9999974365235,8|0,0:0|0:0,0:0:0:0:
393,360,72503,2,0,P|462:332|462:218,1,167.999994873047,8|8,0:0|0:0,0:0:0:0:
385,103,72863,2,0,B|373:134|373:134|394:274,1,167.999994873047
463,106,73223,1,8,0:0:0:0:
438,34,73343,1,0,0:0:0:0:
362,27,73463,1,8,0:0:0:0:
207,98,73703,1,8,0:0:0:0:
40,187,73943,5,12,0:0:0:0:
86,246,74063,1,8,0:0:0:0:
136,189,74183,1,8,0:0:0:0:
174,253,74303,5,8,0:0:0:0:
245,228,74423,1,8,0:0:0:0:
238,303,74543,1,8,0:0:0:0:
298,347,74663,5,8,0:0:0:0:
360,303,74783,2,0,B|365:220|365:220|322:123,1,167.999994873047,8|8,0:0|0:0,0:0:0:0:
221,90,75263,1,8,0:0:0:0:
221,90,75383,2,0,P|316:111|399:54,1,167.999994873047,8|0,0:0|0:0,0:0:0:0:
474,131,75863,5,12,2:2:0:0:
505,223,76103,1,0,0:0:0:0:
446,301,76343,1,0,3:0:0:0:
446,301,76463,1,0,0:0:0:0:
342,348,76703,6,0,L|187:335,1,140
137,361,77063,2,0,L|57:294,1,70,0|0,2:0|2:0,0:0:0:0:
20,284,77303,2,0,L|-7:184,1,70,0|0,1:0|2:0,0:0:0:0:
14,147,77543,2,0,L|48:49,1,70,0|0,2:0|2:0,0:0:0:0:
140,86,77783,5,4,1:2:0:0:
221,140,78023,1,0,0:0:0:0:
309,97,78263,1,0,3:0:0:0:
309,97,78383,1,0,0:0:0:0:
406,107,78623,6,0,P|407:193|337:264,1,140
352,308,78983,2,0,P|307:297|269:238,1,70,0|0,2:0|2:0,0:0:0:0:
228,234,79223,2,0,P|211:274|228:327,1,70,0|0,1:0|2:0,0:0:0:0:
260,361,79463,1,0,2:0:0:0:
89,310,79703,5,4,1:2:0:0:
52,219,79943,1,0,0:0:0:0:
115,144,80183,1,0,3:0:0:0:
115,144,80303,1,0,0:0:0:0:
212,143,80543,6,0,L|350:117,1,140
424,71,80903,2,0,L|437:140,1,70,0|0,2:0|2:0,0:0:0:0:
486,215,81143,2,0,L|417:228,1,70,0|0,1:0|2:0,0:0:0:0:
339,271,81383,2,0,L|326:202,1,70,0|0,2:0|2:0,0:0:0:0:
249,214,81623,5,4,1:2:0:0:
170,272,81863,1,0,0:0:0:0:
75,245,82103,1,0,3:0:0:0:
75,245,82223,1,0,0:0:0:0:
165,128,82463,6,0,P|245:126|326:134,1,140
383,145,82823,2,0,P|399:109|399:60,1,70,0|0,2:0|2:0,0:0:0:0:
327,210,83063,2,0,B|315:260|315:260|323:286|312:319,2,105.000004005432,0|0|4,1:0|1:2|1:2,0:0:0:0:
256,101,86903,5,8,1:1:0:0:
205,152,87023,1,8,1:1:0:0:
132,156,87143,1,8,1:1:0:0:
66,125,87263,1,8,1:1:0:0:
45,113,87383,6,0,P|52:222|51:282,1,146.999995513916,0|0,2:0|0:0,0:0:0:0:
89,323,87743,1,0,2:0:0:0:
148,279,87863,2,0,P|192:276|239:282,1,73.4999977569581,0|0,1:0|0:0,0:0:0:0:
277,340,88103,2,0,P|313:342|350:339,1,73.4999977569581,0|0,2:0|1:0,0:0:0:0:
509,221,88343,6,0,P|464:287|376:245,1,146.999995513916,0|0,2:0|0:0,0:0:0:0:
374,213,88703,1,0,2:0:0:0:
374,213,88823,1,0,1:0:0:0:
138,213,89063,1,0,3:0:0:0:
74,279,89303,6,0,P|45:201|114:129,1,146.999995513916,0|0,2:0|0:0,0:0:0:0:
144,131,89663,1,0,2:0:0:0:
215,116,89783,2,0,P|226:70|208:21,1,73.4999977569581,0|0,1:0|0:0,0:0:0:0:
96,4,90023,2,0,P|85:50|103:99,1,73.4999977569581,0|0,2:0|1:0,0:0:0:0:
210,190,90263,5,0,2:0:0:0:
258,179,90383,1,0,0:0:0:0:
307,170,90503,1,0,0:0:0:0:
356,160,90623,1,0,2:0:0:0:
404,152,90743,1,0,1:0:0:0:
404,152,90983,5,8,1:0:0:0:
350,265,91103,1,8,1:0:0:0:
460,340,91223,5,8,1:0:0:0:
460,340,92183,2,0,P|464:302|440:236,1,73.4999977569581,8|0,0:0|0:0,0:0:0:0:
365,340,92423,2,0,P|322:335|276:295,1,73.4999977569581,8|0,0:0|0:0,0:0:0:0:
226,256,92663,2,0,P|206:292|207:341,1,73.4999977569581,8|0,0:0|0:0,0:0:0:0:
129,365,92903,1,0,0:0:0:0:
129,365,92963,1,0,0:0:0:0:
129,365,93023,1,0,0:0:0:0:
53,315,93143,6,0,L|52:126,1,146.999995513916,0|0,2:0|0:0,0:0:0:0:
83,101,93503,1,0,2:0:0:0:
166,157,93623,2,0,P|210:161|254:129,1,73.4999977569581
308,8,93863,2,0,P|282:44|288:98,1,73.4999977569581,0|0,2:0|0:0,0:0:0:0:
321,150,94103,5,8,0:0:0:0:
321,150,94343,1,8,0:0:0:0:
453,136,94583,5,8,0:0:0:0:
442,186,94703,1,8,0:0:0:0:
431,236,94823,1,8,0:0:0:0:
420,286,94943,1,8,0:0:0:0:
369,277,95063,6,0,P|282:263|206:271,1,146.999995513916,4|8,1:1|0:0,0:0:0:0:
169,327,95423,1,8,0:0:0:0:
98,293,95543,2,0,P|91:328|100:364,1,73.4999977569581,0|0,1:0|2:0,0:0:0:0:
204,243,95783,2,0,P|210:207|201:171,1,73.4999977569581,8|0,0:0|2:0,0:0:0:0:
72,208,96023,6,0,L|-24:222,2,73.4999977569581,0|0|8,1:0|2:0|0:0,0:0:0:0:
127,140,96383,1,8,0:0:0:0:
127,140,96503,2,0,P|81:78|-6:93,1,146.999995513916,0|8,1:0|0:0,0:0:0:0:
249,87,96983,5,0,1:0:0:0:
249,87,97103,1,0,2:0:0:0:
310,33,97223,5,8,0:0:0:0:
310,33,97343,1,8,0:0:0:0:
381,81,97463,5,0,1:0:0:0:
381,81,97583,1,0,2:0:0:0:
433,19,97703,5,8,0:0:0:0:
433,19,97823,1,0,2:0:0:0:
494,68,97943,6,0,L|477:235,1,146.999995513916,0|8,1:0|0:0,0:0:0:0:
488,298,98303,1,0,2:0:0:0:
398,256,98423,5,0,0:0:0:0:
398,256,98483,1,0,0:0:0:0:
398,256,98543,2,0,L|298:251,2,73.4999977569581,8|0|0,0:0|0:0|0:0,0:0:0:0:
322,335,98903,6,0,P|250:290|274:194,1,146.999995513916,4|8,1:0|0:0,0:0:0:0:
295,151,99263,1,8,0:0:0:0:
295,151,99383,2,0,P|231:207|146:158,1,146.999995513916,0|8,1:0|0:0,0:0:0:0:
118,150,99743,1,0,2:0:0:0:
44,153,99863,6,0,P|42:228|43:303,1,146.999995513916,0|8,1:0|0:0,0:0:0:0:
102,343,100223,1,8,0:0:0:0:
156,293,100343,2,0,P|168:252|162:183,1,73.4999977569581,0|0,1:0|2:0,0:0:0:0:
260,312,100583,2,0,P|262:348|273:383,1,73.4999977569581,8|0,0:0|0:0,0:0:0:0:
346,332,100823,5,0,0:0:0:0:
456,178,101063,5,0,0:0:0:0:
345,33,101303,5,0,0:0:0:0:
235,187,101543,5,0,0:0:0:0:
503,239,101783,5,0,0:0:0:0:
156,139,102743,6,0,B|251:173|232:104|350:141,1,167.999994873047,4|8,1:0|0:0,0:0:0:0:
371,199,103103,1,0,2:0:0:0:
288,212,103223,1,0,1:0:0:0:
288,212,103343,2,0,L|271:330,1,83.9999974365235,0|8,2:0|0:0,0:0:0:0:
201,345,103583,6,0,P|292:306|409:339,1,167.999994873047,0|0,1:0|1:0,0:0:0:0:
467,343,103943,1,8,0:0:0:0:
427,268,104063,1,0,2:0:0:0:
497,222,104183,2,0,P|496:168|488:92,2,83.9999974365235,0|0|8,1:0|1:0|0:0,0:0:0:0:
350,211,104663,6,0,P|349:116|351:26,1,167.999994873047,0|8,1:0|0:0,0:0:0:0:
266,90,105023,1,0,2:0:0:0:
266,90,105143,2,0,P|266:152|268:190,1,83.9999974365235,0|0,1:0|2:0,0:0:0:0:
269,253,105383,1,8,0:0:0:0:
198,219,105503,6,0,P|131:223|59:304,1,167.999994873047,0|0,1:0|1:0,0:0:0:0:
6,203,105863,2,0,P|5:151|5:93,1,83.9999974365235,8|0,0:0|2:0,0:0:0:0:
143,63,106103,1,0,1:0:0:0:
92,119,106223,1,0,1:0:0:0:
19,97,106343,1,8,0:0:0:0:
241,83,106583,6,0,L|250:-1,2,83.9999974365235,4|0|8,1:2|2:0|0:0,0:0:0:0:
195,143,106943,1,0,2:0:0:0:
311,113,107063,2,0,B|400:101|374:166|481:146,1,167.999994873047,0|8,1:0|0:0,0:0:0:0:
439,71,107423,6,0,P|384:150|441:250,1,167.999994873047,0|0,1:0|1:0,0:0:0:0:
432,285,107783,1,8,0:0:0:0:
476,222,107903,1,0,2:0:0:0:
333,252,108023,2,0,P|274:251|138:251,1,167.999994873047,0|8,1:0|0:0,0:0:0:0:
46,358,108503,5,12,0:0:0:0:
142,320,108623,1,0,1:0:0:0:
47,256,108743,2,0,P|52:201|66:135,1,83.9999974365235,8|0,0:0|1:0,0:0:0:0:
199,147,108983,5,8,0:0:0:0:
181,56,109103,1,0,1:0:0:0:
111,117,109223,1,8,0:0:0:0:
269,86,109343,6,0,B|351:59|351:59|434:79,1,167.999994873047,0|0,1:0|0:0,0:0:0:0:
393,149,109703,2,0,P|352:74|415:-2,2,167.999994873047,8|8|8,0:0|0:0|1:0,0:0:0:0:
474,150,110303,5,8,0:0:0:0:
474,150,110423,2,0,P|482:206|462:263,1,83.9999974365235,4|0,0:0|2:0,0:0:0:0:
289,282,110663,2,0,P|281:226|301:169,1,83.9999974365235,8|0,0:0|2:0,0:0:0:0:
414,338,110903,2,0,B|326:319|339:382|246:354,1,167.999994873047,0|8,1:0|0:0,0:0:0:0:
184,307,111263,6,0,P|88:315|14:324,1,167.999994873047,0|0,1:0|1:0,0:0:0:0:
8,178,111623,1,8,0:0:0:0:
35,249,111743,1,0,2:0:0:0:
130,205,111863,6,0,P|134:161|121:112,1,83.9999974365235,0|0,1:0|1:0,0:0:0:0:
50,51,112103,1,8,0:0:0:0:
50,51,112343,6,0,P|115:68|186:46,1,83.9999974365235,0|0,1:0|2:0,0:0:0:0:
240,96,112583,1,8,0:0:0:0:
275,29,112703,1,0,2:0:0:0:
289,156,112823,6,0,P|200:199|123:186,1,167.999994873047,0|0,1:0|1:0,0:0:0:0:
235,290,113183,2,0,P|324:247|401:260,1,167.999994873047,0|0,1:0|1:0,0:0:0:0:
441,322,113543,1,8,0:0:0:0:
441,322,113663,1,0,2:0:0:0:
507,286,113783,6,0,P|516:244|503:192,1,83.9999974365235,0|0,1:0|1:0,0:0:0:0:
325,172,114023,2,0,P|316:214|329:266,1,83.9999974365235,8|0,0:0|2:0,0:0:0:0:
512,114,114263,6,0,L|413:133,1,83.9999974365235,4|0,1:2|2:0,0:0:0:0:
401,212,114503,1,8,1:0:0:0:
401,212,114623,1,0,2:0:0:0:
324,254,114743,6,0,L|125:251,1,167.999994873047,0|8,1:0|0:0,0:0:0:0:
84,285,115103,2,0,P|73:246|90:204,1,83.9999974365235,0|0,2:0|1:0,0:0:0:0:
138,139,115343,1,0,0:0:0:0:
221,140,115463,2,0,L|341:141,1,83.9999974365235
279,59,115703,2,0,L|111:56,1,167.999994873047,0|8,1:0|0:0,0:0:0:0:
353,128,116183,5,8,0:0:0:0:
420,177,116303,1,0,1:0:0:0:
340,205,116423,1,8,0:0:0:0:
487,216,116543,5,0,1:0:0:0:
420,265,116663,1,8,0:0:0:0:
500,293,116783,1,0,1:0:0:0:
436,361,116903,5,8,0:0:0:0:
436,361,117023,2,0,L|202:346,1,209.999993591309,0|0,1:0|0:0,0:0:0:0:
58,384,118103,5,4,0:0:0:0:
112,64,125783,6,0,P|145:144|92:227,1,140,0|0,0:0|2:0,0:0:0:0:
14,251,126143,2,0,B|92:237|76:293|205:259,1,140
225,320,126503,2,0,B|248:226|248:226|222:172,2,140,0|0|0,2:0|0:0|2:0,0:0:0:0:
158,357,127103,1,0,0:0:0:0:
305,311,127223,2,0,P|360:320|435:368,1,140,0|0,2:0|2:0,0:0:0:0:
481,294,127583,5,0,2:0:0:0:
481,294,127703,2,0,P|490:202|443:143,1,140,0|0,0:0|2:0,0:0:0:0:
287,158,128063,2,0,P|362:211|436:200,1,140
504,62,128423,2,0,P|419:100|392:170,2,140,0|0|0,2:0|0:0|2:0,0:0:0:0:
353,58,129023,1,0,0:0:0:0:
353,58,129143,2,0,P|260:55|186:37,1,140,0|0,1:0|2:0,0:0:0:0:
139,16,129503,5,0,2:0:0:0:
139,16,129623,2,0,P|61:58|64:140,1,140,0|0,0:0|2:0,0:0:0:0:
53,193,129983,2,0,P|131:151|128:69,1,140
213,80,130343,1,0,2:0:0:0:
250,147,130463,1,0,2:0:0:0:
200,205,130583,1,0,0:0:0:0:
84,271,130823,1,0,2:0:0:0:
167,383,131063,1,0,2:0:0:0:
292,316,131303,1,0,2:0:0:0:
292,316,131543,6,0,B|361:299|361:299|401:329|476:314,1,140,0|0,0:0|2:0,0:0:0:0:
503,335,131903,2,0,B|520:266|520:266|490:226|505:151,1,140
423,196,132263,1,0,2:0:0:0:
423,196,132383,1,0,2:0:0:0:
355,148,132503,6,0,P|306:142|262:156,1,70,0|0,0:0|2:0,0:0:0:0:
235,201,132743,2,0,L|121:185,1,70,0|0,2:0|0:0,0:0:0:0:
104,142,132983,1,0,2:0:0:0:
45,193,133103,2,0,P|21:236|19:271,1,70,0|0,0:0|2:0,0:0:0:0:
84,290,133343,1,0,2:0:0:0:
146,335,133463,6,0,B|189:341|221:314|221:314|313:337,1,140,0|0,0:0|2:0,0:0:0:0:
351,356,133823,2,0,P|369:276|330:199,1,140
280,175,134183,2,0,P|360:193|437:154,2,140,0|0|0,2:0|0:0|2:0,0:0:0:0:
207,214,134783,1,0,0:0:0:0:
134,176,134903,2,0,L|148:19,1,140,0|0,2:0|2:0,0:0:0:0:
228,0,135263,5,0,2:0:0:0:
228,0,135383,2,0,L|215:139,1,140,0|0,0:0|2:0,0:0:0:0:
286,145,135743,2,0,B|363:157|340:97|438:119,1,140
484,82,136103,2,0,P|492:132|461:176,1,70,0|0,2:0|2:0,0:0:0:0:
424,189,136343,5,0,0:0:0:0:
482,248,136583,1,0,2:0:0:0:
425,310,136823,1,0,0:0:0:0:
330,355,137063,5,0,2:0:0:0:
304,344,137183,1,0,2:0:0:0:
277,335,137303,2,0,P|190:326|103:344,1,140,0|0,0:0|2:0,0:0:0:0:
68,278,137663,2,0,P|155:287|242:269,1,140
257,216,138023,1,0,2:0:0:0:
257,216,138143,1,0,2:0:0:0:
181,180,138263,6,0,B|165:113|165:113|195:30,1,140,0|0,0:0|2:0,0:0:0:0:
325,155,138623,2,0,B|341:222|341:222|311:305,1,140
388,316,138983,1,0,2:0:0:0:
458,284,139103,1,0,2:0:0:0:
445,208,139223,5,0,1:0:0:0:
431,204,139343,1,0,1:0:0:0:
410,199,139463,1,0,1:0:0:0:
382,192,139583,1,0,1:0:0:0:
347,183,139703,1,0,1:0:0:0:
306,173,139823,1,0,1:0:0:0:
258,161,139943,1,0,1:0:0:0:
203,147,140063,1,0,1:0:0:0:
134,132,140183,5,8,0:0:0:0:
106,70,140303,1,8,0:0:0:0:
137,11,140423,1,8,0:0:0:0:
204,0,140543,1,8,0:0:0:0:
258,44,140663,1,8,0:0:0:0:
251,112,140783,1,8,0:0:0:0:
212,169,140903,1,8,0:0:0:0:
149,198,141023,1,8,0:0:0:0:
80,192,141143,6,0,B|69:147|95:104|95:104|73:30,1,167.999994873047,4|8,0:0|0:0,0:0:0:0:
14,97,141503,2,0,P|3:186|42:268,1,167.999994873047,0|0,1:0|1:0,0:0:0:0:
100,291,141863,1,8,0:0:0:0:
167,257,141983,1,0,1:0:0:0:
241,269,142103,6,0,P|250:317|239:361,1,83.9999974365235,2|0,0:0|2:0,0:0:0:0:
353,223,142343,2,0,P|306:206|274:175,1,83.9999974365235,10|0,0:0|2:0,0:0:0:0:
330,331,142583,2,0,P|367:299|410:286,1,83.9999974365235,2|0,0:0|2:0,0:0:0:0:
482,319,142823,1,8,0:0:0:0:
482,319,142943,1,0,2:0:0:0:
511,241,143063,6,0,L|511:64,1,167.999994873047,0|8,1:0|0:0,0:0:0:0:
443,38,143423,2,0,B|376:54|376:54|355:77|355:77|251:98,1,167.999994873047,0|0,1:0|1:0,0:0:0:0:
213,103,143783,1,8,0:0:0:0:
227,28,143903,1,0,1:0:0:0:
150,56,144023,6,0,P|134:99|157:160,1,83.9999974365235,2|0,0:0|2:0,0:0:0:0:
64,244,144263,2,0,P|109:236|150:185,1,83.9999974365235,10|0,0:0|2:0,0:0:0:0:
272,223,144503,2,0,P|242:187|178:177,1,83.9999974365235,2|0,0:0|2:0,0:0:0:0:
71,167,144743,1,8,0:0:0:0:
166,334,144983,6,0,P|257:337|343:332,1,167.999994873047,0|8,1:0|0:0,0:0:0:0:
402,365,145343,2,0,P|344:294|373:203,1,167.999994873047,0|0,1:0|1:0,0:0:0:0:
435,237,145703,1,8,0:0:0:0:
435,237,145823,1,0,1:0:0:0:
400,162,145943,6,0,P|355:148|298:170,1,83.9999974365235,2|0,0:0|2:0,0:0:0:0:
201,78,146183,2,0,P|211:123|258:162,1,83.9999974365235,10|0,0:0|2:0,0:0:0:0:
225,296,146423,2,0,P|259:264|269:203,1,83.9999974365235,2|0,0:0|2:0,0:0:0:0:
188,223,146663,1,8,0:0:0:0:
188,223,146783,1,0,2:0:0:0:
110,250,146903,6,0,P|109:150|113:72,1,167.999994873047,0|8,1:0|0:0,0:0:0:0:
272,61,147263,2,0,P|273:161|269:239,1,167.999994873047,0|0,1:0|1:0,0:0:0:0:
317,287,147623,1,8,0:0:0:0:
383,322,147743,1,0,1:0:0:0:
457,309,147863,6,0,P|426:260|354:254,1,97.9999970092774,10|0,0:0|2:0,0:0:0:0:
374,86,148103,2,0,P|347:137|377:202,1,97.9999970092774,10|0,0:0|2:0,0:0:0:0:
225,271,148343,2,0,P|282:268|324:209,1,97.9999970092774,10|0,0:0|2:0,0:0:0:0:
433,182,148583,2,0,L|461:167,4,24.4999992523194,10|0|0|0|0,2:1|2:0|2:0|2:0|2:0,2:0:0:0:
479,94,148823,6,0,B|423:24|423:24|380:-1|308:16,1,167.999994873047,4|8,0:0|0:0,0:0:0:0:
296,65,149183,2,0,P|206:96|137:73,1,167.999994873047,0|0,1:0|1:0,0:0:0:0:
71,40,149543,1,8,0:0:0:0:
35,106,149663,1,0,1:0:0:0:
56,178,149783,6,0,P|118:189|160:173,1,83.9999974365235,2|0,0:0|2:0,0:0:0:0:
252,171,150023,2,0,P|211:219|204:263,1,83.9999974365235,10|0,0:0|2:0,0:0:0:0:
160,341,150263,2,0,P|138:281|103:253,1,83.9999974365235,2|0,0:0|2:0,0:0:0:0:
81,335,150503,1,8,0:0:0:0:
81,335,150623,1,0,2:0:0:0:
232,368,150743,6,0,L|432:368,1,167.999994873047,0|8,1:0|0:0,0:0:0:0:
480,336,151103,2,0,B|462:297|420:288|420:288|300:288,1,167.999994873047,0|0,1:0|1:0,0:0:0:0:
253,286,151463,2,0,P|246:233|265:179,1,83.9999974365235,8|0,0:0|1:0,0:0:0:0:
359,122,151703,6,0,P|294:137|235:109,1,83.9999974365235,2|0,0:0|2:0,0:0:0:0:
173,221,151943,2,0,P|192:157|246:120,1,83.9999974365235,10|0,0:0|2:0,0:0:0:0:
178,9,152183,2,0,P|223:57|228:122,1,83.9999974365235,2|0,0:0|2:0,0:0:0:0:
329,214,152423,1,8,0:0:0:0:
329,214,152663,6,0,P|390:245|504:225,1,167.999994873047,0|8,1:0|0:0,0:0:0:0:
503,161,153023,2,0,B|521:104|473:68|473:68|457:-1,1,167.999994873047,0|0,1:0|1:0,0:0:0:0:
383,23,153383,2,0,L|410:132,1,83.9999974365235,8|0,0:0|1:0,0:0:0:0:
329,120,153623,6,0,P|277:128|224:106,1,83.9999974365235,2|0,0:0|2:0,0:0:0:0:
129,94,153863,2,0,P|161:135|169:191,1,83.9999974365235,10|0,0:0|2:0,0:0:0:0:
211,271,154103,2,0,P|230:221|275:187,1,83.9999974365235,2|0,0:0|2:0,0:0:0:0:
327,195,154343,1,8,0:0:0:0:
399,216,154463,1,0,2:0:0:0:
444,276,154583,6,0,P|387:351|294:326,1,167.999994873047,0|8,1:0|0:0,0:0:0:0:
237,351,154943,2,0,P|294:276|387:301,2,167.999994873047,0|0|0,1:0|1:0|1:0,0:0:0:0:
162,359,155543,5,2,1:2:0:0:
162,359,155663,1,2,1:2:0:0:
108,305,155783,5,2,1:2:0:0:
108,305,155903,1,2,1:2:0:0:
126,231,156023,5,2,1:2:0:0:
126,231,156143,1,2,1:2:0:0:
189,190,156263,5,2,1:2:0:0:
189,190,156383,1,2,1:2:0:0:
258,219,156503,5,12,1:0:0:0:
427,263,158423,5,8,1:0:0:0:
374,57,160343,5,8,1:0:0:0:
103,147,162263,6,0,P|97:195|104:258,1,83.9999974365235,8|0,0:0|1:0,0:0:0:0:
296,217,162503,2,0,P|302:169|295:106,1,83.9999974365235,8|0,0:0|1:0,0:0:0:0:
126,317,162743,1,8,0:0:0:0:
197,293,162863,1,0,1:0:0:0:
264,326,162983,1,8,0:0:0:0:
332,293,163103,6,0,P|392:290|490:342,1,167.999994873047,0|0,1:0|0:0,0:0:0:0:
412,375,163463,2,0,B|406:294|406:294|438:197,1,167.999994873047,8|8,0:0|0:0,0:0:0:0:
508,228,163823,2,0,P|503:177|458:136,2,83.9999974365235,8|8|8,0:0|0:0|0:0,0:0:0:0:
410,139,164183,6,0,L|210:151,1,167.999994873047,4|8,1:0|0:0,0:0:0:0:
188,95,164543,1,0,2:0:0:0:
95,170,164663,2,0,P|36:90|73:2,1,167.999994873047,0|8,1:0|0:0,0:0:0:0:
171,178,165023,6,0,L|143:369,1,167.999994873047,0|0,1:0|1:0,0:0:0:0:
69,333,165383,2,0,L|81:249,1,83.9999974365235,8|0,0:0|2:0,0:0:0:0:
242,244,165623,1,0,1:0:0:0:
232,319,165743,1,0,1:0:0:0:
294,362,165863,2,0,P|348:361|393:309,1,83.9999974365235,8|0,0:0|2:0,0:0:0:0:
423,234,166103,6,0,P|464:304|445:383,1,167.999994873047,0|8,1:0|0:0,0:0:0:0:
334,268,166463,1,0,2:0:0:0:
334,268,166583,2,0,P|292:197|311:118,1,167.999994873047,0|8,1:0|0:0,0:0:0:0:
391,63,166943,6,0,P|320:104|241:85,1,167.999994873047,0|0,1:0|1:0,0:0:0:0:
130,32,167303,1,8,0:0:0:0:
158,101,167423,1,0,2:0:0:0:
127,170,167543,2,0,L|10:161,1,83.9999974365235,0|0,1:0|1:0,0:0:0:0:
224,228,167783,2,0,L|307:234,1,83.9999974365235,8|0,0:0|2:0,0:0:0:0:
90,280,168023,5,4,1:2:0:0:
90,280,168143,1,0,2:0:0:0:
107,361,168263,1,8,0:0:0:0:
107,361,168383,1,0,2:0:0:0:
167,301,168503,2,0,L|250:307,2,83.9999974365235,0|0|8,1:0|2:0|0:0,0:0:0:0:
240,380,168863,6,0,P|311:353|287:245,1,167.999994873047,0|0,1:0|1:0,0:0:0:0:
278,170,169223,2,0,P|305:241|413:217,1,167.999994873047,8|0,0:0|1:0,0:0:0:0:
433,305,169583,1,0,1:0:0:0:
472,240,169703,1,8,0:0:0:0:
428,177,169823,1,0,2:0:0:0:
481,123,169943,6,0,L|331:134,1,83.9999974365235,8|0,1:0|1:0,0:0:0:0:
317,76,170183,2,0,L|233:69,1,83.9999974365235,8|0,1:0|1:0,0:0:0:0:
148,114,170423,2,0,L|-2:125,1,83.9999974365235,8|0,1:0|1:0,0:0:0:0:
15,186,170663,1,8,1:0:0:0:
15,186,170783,1,0,1:0:0:0:
87,153,171863,6,0,P|173:217|261:182,1,181.999991668702,4|8,1:0|0:0,0:0:0:0:
307,154,172223,1,0,2:0:0:0:
385,178,172343,1,0,1:0:0:0:
385,178,172463,2,0,L|378:50,1,90.9999958343508,0|8,2:0|0:0,0:0:0:0:
457,46,172703,6,0,L|466:227,1,181.999991668702,0|0,1:0|1:0,0:0:0:0:
335,249,173063,2,0,P|379:258|413:287,1,90.9999958343508,8|0,0:0|2:0,0:0:0:0:
493,308,173303,1,0,1:0:0:0:
438,369,173423,1,0,1:0:0:0:
360,343,173543,2,0,P|309:332|228:355,1,90.9999958343508,8|0,0:0|2:0,0:0:0:0:
193,364,173783,6,0,P|146:285|185:183,1,181.999991668702,0|8,1:0|0:0,0:0:0:0:
243,172,174143,1,0,2:0:0:0:
357,215,174263,2,0,P|404:136|365:34,1,181.999991668702,0|8,1:0|0:0,0:0:0:0:
296,33,174623,6,0,P|300:87|337:128,1,90.9999958343508,0|0,1:0|2:0,0:0:0:0:
487,113,174863,1,0,1:0:0:0:
487,113,174983,2,0,P|479:63|454:12,1,90.9999958343508,8|0,0:0|2:0,0:0:0:0:
338,188,175223,5,0,1:0:0:0:
415,161,175343,1,0,1:0:0:0:
490,191,175463,1,8,0:0:0:0:
383,286,175703,6,0,L|276:299,1,90.9999958343508,4|0,1:2|2:0,0:0:0:0:
232,352,175943,2,0,L|125:365,1,90.9999958343508,8|0,0:0|2:0,0:0:0:0:
70,322,176183,6,0,P|40:230|69:137,1,181.999991668702,0|8,1:0|0:0,0:0:0:0:
188,95,176543,2,0,B|199:138|199:138|171:229,1,90.9999958343508,0|0,1:0|2:0,0:0:0:0:
119,214,176783,1,0,1:0:0:0:
185,258,176903,2,0,P|232:260|282:243,1,90.9999958343508,8|0,0:0|2:0,0:0:0:0:
311,149,177143,5,0,1:0:0:0:
385,114,177263,1,0,1:0:0:0:
461,143,177383,2,0,L|471:246,1,90.9999958343508,8|0,0:0|2:0,0:0:0:0:
354,256,177623,5,12,0:0:0:0:
332,335,177743,1,0,1:0:0:0:
410,310,177863,2,0,P|463:311|513:307,1,90.9999958343508,8|0,0:0|1:0,0:0:0:0:
321,346,178103,5,8,0:0:0:0:
250,304,178223,1,0,1:0:0:0:
185,354,178343,1,8,0:0:0:0:
111,317,178463,2,0,P|98:260|102:216,1,90.9999958343508,0|0,1:0|0:0,0:0:0:0:
161,156,178703,5,0,0:0:0:0:
161,156,178823,2,0,P|101:229|-20:196,1,181.999991668702,8|0,0:0|0:0,0:0:0:0:
7,146,179183,1,0,1:0:0:0:
72,96,179303,1,8,1:0:0:0:
21,32,179423,5,8,0:0:0:0:
21,32,179543,2,0,L|209:26,1,181.999991668702,4|8,1:0|0:0,0:0:0:0:
251,88,179903,1,0,2:0:0:0:
386,142,180023,2,0,P|449:92|427:-11,1,181.999991668702,0|8,1:0|0:0,0:0:0:0:
325,95,180383,6,0,B|309:159|309:159|345:220|291:282,1,181.999991668702,0|0,1:0|1:0,0:0:0:0:
231,297,180743,2,0,P|231:233|270:192,1,90.9999958343508,8|0,0:0|2:0,0:0:0:0:
382,279,180983,2,0,P|346:332|290:344,1,90.9999958343508,0|0,1:0|1:0,0:0:0:0:
246,371,181223,1,8,0:0:0:0:
169,342,181343,1,0,2:0:0:0:
88,355,181463,6,0,L|88:152,1,181.999991668702,0|8,1:0|0:0,0:0:0:0:
123,98,181823,1,0,2:0:0:0:
237,139,181943,2,0,P|261:96|247:33,1,90.9999958343508,0|0,1:0|2:0,0:0:0:0:
166,175,182183,5,8,0:0:0:0:
166,175,182303,2,0,L|166:374,1,181.999991668702,0|0,1:0|1:0,0:0:0:0:
246,357,182663,1,8,0:0:0:0:
311,308,182783,1,0,2:0:0:0:
392,310,182903,6,0,P|403:257|366:193,1,90.9999958343508,0|0,1:0|1:0,0:0:0:0:
310,224,183143,1,8,0:0:0:0:
306,41,183383,6,0,P|362:39|424:41,1,90.9999958343508,4|0,1:2|2:0,0:0:0:0:
279,133,183623,2,0,P|223:135|161:133,1,90.9999958343508,8|0,0:0|2:0,0:0:0:0:
458,152,183863,2,0,P|482:103|460:36,1,90.9999958343508,0|0,1:0|2:0,0:0:0:0:
383,118,184103,5,8,0:0:0:0:
383,118,184223,2,0,L|365:305,1,181.999991668702,0|0,1:0|1:0,0:0:0:0:
278,325,184583,2,0,L|286:234,1,90.9999958343508,8|0,0:0|2:0,0:0:0:0:
206,205,184823,5,0,1:0:0:0:
195,286,184943,1,0,1:0:0:0:
125,329,185063,1,8,0:0:0:0:
34,161,185303,5,12,0:0:0:0:
20,155,185423,1,0,1:0:0:0:
86,89,185543,5,8,0:0:0:0:
77,74,185663,1,0,1:0:0:0:
174,74,185783,5,8,0:0:0:0:
175,57,185903,1,0,1:0:0:0:
261,110,186023,5,8,0:0:0:0:
332,70,186143,2,0,P|449:82|480:181,1,181.999991668702,0|0,1:0|0:0,0:0:0:0:
397,231,186503,2,0,P|383:178|396:129,1,90.9999958343508,8|0,0:0|2:0,0:0:0:0:
488,216,186743,5,8,0:0:0:0:
488,216,186803,1,8,0:0:0:0:
488,216,186863,2,0,L|474:315,1,90.9999958343508,0|8,1:0|1:0,0:0:0:0:
409,354,187103,1,8,0:0:0:0:
336,316,187223,6,0,P|281:300|210:318,1,90.9999958343508,12|0,0:0|1:0,0:0:0:0:
104,355,187463,2,0,P|159:371|230:353,1,90.9999958343508,8|0,0:0|1:0,0:0:0:0:
271,381,187703,1,8,0:0:0:0:
247,302,187823,1,0,1:0:0:0:
174,263,187943,1,8,0:0:0:0:
150,184,188063,1,0,1:0:0:0:
210,129,188183,6,0,P|259:120|337:135,1,90.9999958343508,8|0,0:0|1:0,0:0:0:0:
94,247,188423,2,0,P|45:256|-33:241,1,90.9999958343508,8|0,0:0|1:0,0:0:0:0:
40,173,188663,2,0,L|27:72,2,90.9999958343508,8|0|8,0:0|1:0|0:0,0:0:0:0:
118,115,189023,5,0,1:0:0:0:
118,115,189083,1,0,0:0:0:0:
118,115,189143,2,0,L|105:14,1,90.9999958343508,8|0,0:0|1:0,0:0:0:0:
190,33,189383,2,0,P|250:39|309:15,1,90.9999958343508,8|0,0:0|1:0,0:0:0:0:
365,18,189623,6,0,P|374:99|311:191,1,181.999991668702,8|8,0:0|0:0,0:0:0:0:
233,206,189983,2,0,P|314:197|406:260,1,181.999991668702,0|0,1:0|1:0,0:0:0:0:
479,244,190343,1,8,0:0:0:0:
440,316,190463,1,0,1:0:0:0:
358,316,190583,6,0,P|308:311|253:308,1,90.9999958343508,8|0,0:0|1:0,0:0:0:0:
186,293,190823,2,0,P|181:343|178:398,1,90.9999958343508,8|0,0:0|1:0,0:0:0:0:
101,291,191063,6,0,P|93:237|110:173,1,90.9999958343508,12|0,0:0|1:0,0:0:0:0:
271,197,191303,2,0,P|279:251|262:315,1,90.9999958343508,8|0,0:0|1:0,0:0:0:0:
38,337,191543,2,0,P|18:234|41:145,1,181.999991668702,8|8,0:0|0:0,0:0:0:0:
226,84,191903,6,0,B|139:114|139:114|16:76,1,181.999991668702,0|0,1:0|1:0,0:0:0:0:
59,5,192263,1,8,0:0:0:0:
136,30,192383,1,0,1:0:0:0:
41,15,192503,1,8,0:0:0:0:
191,174,192743,1,8,0:0:0:0:
314,165,192983,6,0,P|318:120|315:60,1,90.9999958343508,8|0,0:0|1:0,0:0:0:0:
135,231,193223,2,0,P|131:276|134:336,1,90.9999958343508,8|0,0:0|1:0,0:0:0:0:
312,354,193463,5,8,0:0:0:0:
316,291,193583,1,0,1:0:0:0:
251,286,193703,1,8,0:0:0:0:
249,350,193823,1,0,1:0:0:0:
377,325,193943,6,0,P|383:270|367:178,1,90.9999958343508,8|0,0:0|1:0,0:0:0:0:
218,118,194183,2,0,P|212:173|228:265,1,90.9999958343508,8|0,0:0|1:0,0:0:0:0:
348,156,194423,5,8,0:0:0:0:
348,156,194483,1,0,0:0:0:0:
348,156,194543,2,0,L|445:147,1,90.9999958343508,8|8,0:0|0:0,0:0:0:0:
507,191,194783,1,8,0:0:0:0:
510,102,194903,6,0,B|484:67|445:65|445:65|325:76,1,181.999991668702,12|8,0:0|0:0,0:0:0:0:
274,123,195263,1,0,1:0:0:0:
132,128,195383,2,0,P|115:77|132:22,1,90.9999958343508,8|0,0:0|1:0,0:0:0:0:
243,49,195623,1,8,0:0:0:0:
204,110,195743,6,0,L|205:314,1,181.999991668702,0|0,1:0|1:0,0:0:0:0:
270,325,196103,1,8,0:0:0:0:
342,324,196223,1,0,1:0:0:0:
451,276,196343,6,0,B|465:323|465:323|447:380,1,90.9999958343508,8|0,0:0|1:0,0:0:0:0:
310,255,196583,2,0,B|296:208|296:208|314:151,1,90.9999958343508,8|0,0:0|1:0,0:0:0:0:
508,150,196823,6,0,P|458:224|364:194,2,181.999991668702,8|8|8,0:0|0:0|0:0,0:0:0:0:
274,48,197543,1,8,0:0:0:0:
332,100,197663,2,0,L|516:74,1,181.999991668702,0|0,1:0|1:0,0:0:0:0:
451,3,198023,2,0,L|360:15,1,90.9999958343508,8|0,0:0|1:0,0:0:0:0:
270,151,198263,2,0,P|178:125|161:22,1,181.999991668702,8|8,0:0|0:0,0:0:0:0:
153,49,198623,1,0,1:0:0:0:
73,50,198743,6,0,B|52:133|52:133|80:238,1,181.999991668702,12|8,0:0|0:0,0:0:0:0:
140,261,199103,1,0,1:0:0:0:
253,224,199223,2,0,P|259:274|237:334,1,90.9999958343508,8|0,0:0|1:0,0:0:0:0:
192,359,199463,1,8,0:0:0:0:
335,289,199583,6,0,B|492:299,1,90.9999958343508,0|8,1:0|0:0,0:0:0:0:
425,294,199823,1,0,1:0:0:0:
512,210,199943,2,0,B|421:204,1,90.9999958343508,8|0,0:0|1:0,0:0:0:0:
324,106,200183,2,0,B|481:116,2,90.9999958343508,8|0|8,0:0|1:0|0:0,0:0:0:0:
266,159,200543,1,0,1:0:0:0:
154,132,200663,6,0,P|134:100|135:37,1,90.9999958343508,12|8,0:0|0:0,0:0:0:0:
324,212,200903,2,0,P|344:244|343:307,1,90.9999958343508,8|8,0:0|0:0,0:0:0:0:
187,306,201143,5,8,0:0:0:0:
145,245,201263,1,8,0:0:0:0:
206,204,201383,1,8,0:0:0:0:
246,264,201503,1,12,0:0:0:0:
43,341,201743,5,12,0:0:0:0:
53,97,201983,5,12,0:0:0:0:
53,97,202103,1,12,0:0:0:0:
