osu file format v14

[General]
AudioFilename: audio.mp3
AudioLeadIn: 0
PreviewTime: 52703
Countdown: 0
SampleSet: Normal
StackLeniency: 0.4
Mode: 0
LetterboxInBreaks: 0
WidescreenStoryboard: 1

[Editor]
DistanceSpacing: 1
BeatDivisor: 2
GridSize: 16
TimelineZoom: 3.899999

[Metadata]
Title:humanly
TitleUnicode:人間らしい
Artist:umu.
ArtistUnicode:ゆーむ
Creator:Luscent
Version:Expert
Source:
Tags:Mirash Delis ShirohaMyMommy _Epreus Epreus Japanese vocaloid GUMI ningenrashii umu ユリイ・カノン YURRY CANON utaite rock
BeatmapID:2185651
BeatmapSetID:1045518

[Difficulty]
HPDrainRate:6
CircleSize:4
OverallDifficulty:9
ApproachRate:9.5
SliderMultiplier:1.6
SliderTickRate:1

[Events]
//Background and Video events
0,0,"bg.png",0,0
//Break Periods
2,24223,25403
2,33823,36443
2,83743,86363
2,118303,125243
2,156703,157883
2,158623,159803
2,160543,161723
//Storyboard Layer 0 (Background)
//Storyboard Layer 1 (Fail)
//Storyboard Layer 2 (Pass)
//Storyboard Layer 3 (Foreground)
//Storyboard Layer 4 (Overlay)
//Storyboard Sound Samples

[TimingPoints]
983,240,4,1,1,50,1,0
983,-100,4,1,1,50,0,0
8663,-100,4,1,1,65,0,0
25943,-100,4,1,1,55,0,0
52103,-200,4,1,1,40,0,0
52823,-83.3333333333333,4,1,1,75,0,1
75383,-200,4,1,1,75,0,0
75863,-133.333333333333,4,1,1,60,0,0
83063,-200,4,1,1,60,0,0
87383,-100,4,1,1,55,0,0
93143,-100,4,1,1,55,0,0
95063,-100,4,1,1,55,0,0
102023,-200,4,1,1,55,0,0
102743,-83.3333333333333,4,1,1,75,0,1
117023,-200,4,1,1,40,0,1
117143,-200,4,1,1,5,0,1
117623,-200,4,1,1,25,0,1
118103,-200,4,1,1,65,0,0
125783,-100,4,1,1,60,0,0
139223,-100,4,1,1,40,0,0
139463,-100,4,1,1,45,0,0
139703,-100,4,1,1,50,0,0
139943,-100,4,1,1,55,0,0
140183,-100,4,1,1,60,0,0
156503,-100,4,1,1,55,0,0
162263,-100,4,1,1,75,0,1
170783,-100,4,1,1,75,0,0
171143,-200,4,1,1,50,0,0
171863,-76.9230769230769,4,1,1,80,0,1
186143,-76.9230769230769,4,1,1,80,0,0
187223,-76.9230769230769,4,1,1,80,0,1
193823,-76.9230769230769,4,1,1,80,0,0
194903,-76.9230769230769,4,1,1,80,0,1
200063,-76.9230769230769,4,1,1,80,0,0
200663,-76.9230769230769,4,1,1,80,0,1
202103,-76.9230769230769,4,1,1,80,0,0

[Colours]
Combo1 : 70,119,119
Combo2 : 198,200,176
Combo3 : 34,187,204
Combo4 : 247,115,154

[HitObjects]
256,232,983,5,0,0:0:0:0:
256,152,1103,1,0,0:0:0:0:
325,192,1223,6,0,L|385:104,1,80
221,251,1463,2,0,L|266:347,1,80
221,132,1703,5,0,0:0:0:0:
141,125,1823,1,0,0:0:0:0:
92,341,2063,5,0,0:0:0:0:
171,334,2183,1,0,0:0:0:0:
325,192,2423,5,0,0:0:0:0:
404,185,2543,1,0,0:0:0:0:
512,321,2783,5,0,0:0:0:0:
287,262,2903,5,0,0:0:0:0:
245,193,3023,1,0,0:0:0:0:
266,296,3143,6,0,L|354:355,1,80
325,192,3383,2,0,L|331:85,1,80
121,274,3623,5,0,0:0:0:0:
200,257,3743,1,0,0:0:0:0:
200,257,3983,5,0,0:0:0:0:
154,367,4103,1,0,0:0:0:0:
43,320,4223,1,0,0:0:0:0:
90,210,4343,1,0,0:0:0:0:
90,210,4583,6,0,L|99:158,1,40,2|0,0:2|0:0,0:0:0:0:
55,49,4823,5,0,0:0:0:0:
133,62,4943,1,0,0:0:0:0:
212,73,5063,6,0,L|248:-20,1,80
171,182,5303,2,0,L|199:256,1,80
355,107,5543,5,0,0:0:0:0:
276,122,5663,1,0,0:0:0:0:
424,286,5903,5,0,0:0:0:0:
503,271,6023,1,0,0:0:0:0:
273,270,6263,5,0,0:0:0:0:
288,349,6383,1,0,0:0:0:0:
491,139,6623,5,0,0:0:0:0:
370,181,6743,5,0,0:0:0:0:
291,196,6863,1,0,0:0:0:0:
202,143,6983,6,0,L|223:46,1,80
101,284,7223,2,0,L|117:362,1,80
13,183,7463,5,0,0:0:0:0:
90,203,7583,1,0,0:0:0:0:
90,203,7823,5,0,0:0:0:0:
13,183,7943,1,0,0:0:0:0:
90,203,8063,1,0,0:0:0:0:
13,183,8183,1,0,0:0:0:0:
204,265,8423,6,0,L|256:252,1,40,2|0,0:2|0:0,0:0:0:0:
224,375,8663,6,0,P|303:375|383:373,1,160,4|8,0:0|0:0,0:0:0:0:
485,349,9023,2,0,B|501:310|501:310|482:257,1,80,0|0,1:0|0:0,0:0:0:0:
383,148,9263,1,0,1:0:0:0:
317,193,9383,2,0,P|316:232|315:272,1,80,8|0,0:0|1:0,0:0:0:0:
503,59,9623,6,0,B|459:59|475:83|427:83,1,80,2|0,0:0|0:0,0:0:0:0:
200,103,9863,2,0,B|244:103|228:127|276:127,1,80,10|0,0:0|0:0,0:0:0:0:
469,202,10103,2,0,B|425:202|441:226|393:226,1,80,2|0,0:0|0:0,0:0:0:0:
232,286,10343,1,8,0:0:0:0:
152,275,10463,1,0,0:0:0:0:
72,265,10583,6,0,P|72:185|75:105,1,160,0|8,1:0|0:0,0:0:0:0:
200,103,10943,2,0,P|185:140|156:167,1,80,0|0,1:0|0:0,0:0:0:0:
170,28,11183,1,0,1:0:0:0:
246,3,11303,1,8,0:0:0:0:
321,29,11423,1,0,1:0:0:0:
481,67,11543,6,0,P|477:106|452:137,1,80,2|0,0:0|0:0,0:0:0:0:
287,204,11783,2,0,P|290:164|315:133,1,80,10|0,0:0|0:0,0:0:0:0:
501,209,12023,2,0,P|464:225|425:219,1,80,2|0,0:0|0:0,0:0:0:0:
216,275,12263,2,0,P|217:204|219:134,1,120,8|0,0:0|2:0,0:0:0:0:
195,85,12503,6,0,P|192:165|192:246,1,160,0|8,1:0|0:0,0:0:0:0:
356,317,12863,2,0,P|356:277|355:237,1,80,0|0,1:0|0:0,0:0:0:0:
123,301,13103,1,0,1:0:0:0:
166,367,13223,2,0,P|205:376|272:367,1,80,8|0,0:0|1:0,0:0:0:0:
45,259,13463,6,0,P|35:297|41:336,1,80,2|0,0:0|0:0,0:0:0:0:
121,148,13703,2,0,P|82:138|43:144,1,80,10|0,0:0|0:0,0:0:0:0:
275,208,13943,2,0,P|284:169|278:130,1,80,2|0,0:0|0:0,0:0:0:0:
348,312,14183,1,8,0:0:0:0:
417,272,14303,1,0,0:0:0:0:
510,212,14423,6,0,P|511:120|509:35,1,160,0|8,1:0|0:0,0:0:0:0:
426,8,14783,2,0,P|426:47|428:87,1,80,0|0,1:0|0:0,0:0:0:0:
352,182,15023,1,0,1:0:0:0:
299,121,15143,1,8,0:0:0:0:
221,139,15263,1,0,1:0:0:0:
66,189,15383,6,0,P|96:229|154:246,1,80,10|0,0:0|0:0,0:0:0:0:
153,384,15623,2,0,P|172:338|158:279,1,80,10|0,0:0|0:0,0:0:0:0:
279,209,15863,2,0,P|229:214|185:256,1,80,10|0,0:0|0:0,0:0:0:0:
359,326,16103,6,0,L|367:304,6,20,8|0|0|0|0|0|0,0:0|2:0|2:0|2:0|2:0|2:0|2:0,2:0:0:0:
448,312,16343,6,0,P|470:232|422:128,1,160,4|8,0:0|0:0,0:0:0:0:
317,132,16703,2,0,P|355:122|386:97,1,80,0|0,1:0|0:0,0:0:0:0:
282,5,16943,1,0,1:0:0:0:
223,59,17063,2,0,P|221:107|220:169,1,80,8|0,0:0|1:0,0:0:0:0:
94,218,17303,6,0,P|54:210|22:187,1,80,2|0,0:0|0:0,0:0:0:0:
230,246,17543,2,0,P|269:253|301:276,1,80,10|0,0:0|0:0,0:0:0:0:
84,300,17783,2,0,P|44:299|8:281,1,80,2|0,0:0|0:0,0:0:0:0:
240,331,18023,1,8,0:0:0:0:
240,331,18143,1,0,0:0:0:0:
373,235,18263,6,0,P|374:155|373:75,1,160,0|8,1:0|0:0,0:0:0:0:
460,38,18623,2,0,P|462:90|460:127,1,80,0|0,1:0|0:0,0:0:0:0:
297,202,18863,1,0,0:0:0:0:
230,246,18983,1,8,0:0:0:0:
152,226,19103,1,0,0:0:0:0:
34,121,19223,6,0,P|21:166|50:233,1,80,2|0,0:0|0:0,0:0:0:0:
188,124,19463,2,0,P|155:90|83:82,1,80,10|0,0:0|0:0,0:0:0:0:
108,256,19703,2,0,P|154:245|197:187,1,80,2|0,0:0|0:0,0:0:0:0:
112,171,19943,1,8,0:0:0:0:
112,171,20063,1,0,0:0:0:0:
24,334,20183,6,0,P|103:332|183:328,1,160,0|8,1:0|0:0,0:0:0:0:
263,281,20543,2,0,P|302:278|342:280,1,80,0|0,1:0|0:0,0:0:0:0:
307,356,20783,1,0,1:0:0:0:
422,324,20903,2,0,P|434:286|429:247,1,80,8|0,0:0|1:0,0:0:0:0:
302,127,21143,6,0,P|289:164|294:203,1,80,2|0,0:0|0:0,0:0:0:0:
402,45,21383,2,0,P|364:32|325:37,1,80,10|0,0:0|0:0,0:0:0:0:
493,142,21623,2,0,P|505:104|500:65,1,80,2|0,0:0|0:0,0:0:0:0:
376,174,21863,1,8,0:0:0:0:
376,174,21983,1,0,0:0:0:0:
222,123,22103,6,0,P|140:124|62:125,1,160,0|8,1:0|0:0,0:0:0:0:
22,231,22463,2,0,P|69:230|116:229,1,80,0|0,1:0|0:0,0:0:0:0:
181,205,22703,1,0,1:0:0:0:
247,293,22823,2,0,L|337:253,1,80,8|0,0:0|1:0,0:0:0:0:
328,105,23063,6,0,P|293:84|254:77,1,80,10|0,0:0|0:0,0:0:0:0:
393,207,23303,2,0,P|392:246|405:284,1,80,10|0,0:0|0:0,0:0:0:0:
452,102,23543,2,0,P|486:82|512:52,1,80,10|0,0:0|0:0,0:0:0:0:
293,192,23783,6,0,L|298:170,6,20,8|0|0|0|0|0|0,2:1|2:0|2:0|2:0|2:0|2:0|2:0,2:0:0:0:
224,159,24023,5,2,2:2:0:0:
104,202,25943,6,0,P|181:214|266:280,1,160,0|0,2:0|0:0,0:0:0:0:
201,323,26303,1,0,2:0:0:0:
331,249,26423,2,0,P|331:169|332:89,1,160,0|0,1:0|2:0,0:0:0:0:
292,19,26783,1,0,1:0:0:0:
408,150,26903,6,0,P|457:156|507:142,1,80,0|0,2:0|0:0,0:0:0:0:
484,49,27143,2,0,P|435:43|385:57,1,80,0|0,0:0|2:0,0:0:0:0:
258,113,27383,1,0,1:0:0:0:
258,113,27623,5,0,3:0:0:0:
184,144,27743,1,0,3:0:0:0:
110,112,27863,2,0,B|89:188|89:188|138:291,1,160,0|0,2:0|0:0,0:0:0:0:
309,297,28223,1,0,2:0:0:0:
251,352,28343,2,0,L|154:373,1,80,0|0,1:0|0:0,0:0:0:0:
372,249,28583,2,0,L|438:322,1,80,0|0,2:0|1:0,0:0:0:0:
439,70,28823,5,0,2:0:0:0:
495,127,28943,1,0,0:0:0:0:
439,184,29063,1,0,0:0:0:0:
382,127,29183,1,0,2:0:0:0:
439,70,29303,1,0,1:0:0:0:
287,234,29543,5,0,3:0:0:0:
207,241,29663,1,0,3:0:0:0:
127,228,29783,2,0,P|129:120|131:35,1,160,4|0,2:0|0:0,0:0:0:0:
189,13,30143,1,0,2:0:0:0:
48,122,30263,2,0,P|46:201|44:281,1,160,0|0,1:0|2:0,0:0:0:0:
102,337,30623,1,0,1:0:0:0:
198,291,30743,5,0,2:0:0:0:
261,325,30863,1,0,0:0:0:0:
326,294,30983,1,0,0:0:0:0:
470,336,31103,5,0,2:0:0:0:
405,294,31223,2,0,P|404:254|404:214,1,80,0|0,1:0|0:0,0:0:0:0:
479,40,31463,2,0,P|479:79|479:119,1,80,0|0,3:0|3:0,0:0:0:0:
348,140,31703,6,0,P|281:181|175:167,1,160,0|0,2:0|0:0,0:0:0:0:
144,123,32063,1,0,2:0:0:0:
80,209,32183,5,0,1:0:0:0:
95,205,32303,1,0,2:0:0:0:
193,269,32423,5,0,1:0:0:0:
178,265,32543,1,0,2:0:0:0:
72,355,32663,6,0,P|110:342|149:338,1,80,8|0,0:0|0:0,0:0:0:0:
348,258,32903,2,0,P|309:270|270:274,1,80,8|0,0:0|0:0,0:0:0:0:
467,344,33143,1,8,0:0:0:0:
448,363,33263,1,0,1:0:0:0:
404,305,33383,5,8,0:0:0:0:
430,238,33503,1,0,1:0:0:0:
456,171,33623,5,12,0:0:0:0:
236,224,36983,5,8,1:1:0:0:
308,196,37103,1,8,1:1:0:0:
386,205,37223,1,8,1:1:0:0:
451,248,37343,1,8,1:1:0:0:
468,260,37463,6,0,P|485:158|479:69,1,160,4|0,2:0|0:0,0:0:0:0:
440,34,37823,1,0,2:0:0:0:
341,114,37943,2,0,P|286:117|235:102,1,80,0|0,1:0|0:0,0:0:0:0:
200,59,38183,1,0,2:0:0:0:
200,59,38303,1,0,1:0:0:0:
70,114,38423,6,0,P|64:156|66:201,1,80,0|0,2:0|0:0,0:0:0:0:
195,240,38663,2,0,P|201:198|199:153,1,80,0|0,0:0|2:0,0:0:0:0:
0,290,38903,2,0,B|92:273|68:332|195:307,1,160,0|0,1:0|3:0,0:0:0:0:
155,312,39263,1,0,3:0:0:0:
353,285,39383,6,0,P|253:302|234:377,1,160,0|0,2:0|0:0,0:0:0:0:
305,380,39743,1,0,2:0:0:0:
433,324,39863,2,0,B|445:284|445:284|435:246,1,80,0|0,1:0|0:0,0:0:0:0:
278,128,40103,2,0,B|266:168|266:168|275:205,1,80,0|0,2:0|1:0,0:0:0:0:
423,154,40343,6,0,L|343:169,2,80,0|0|0,2:0|0:0|0:0,0:0:0:0:
502,190,40703,1,0,2:0:0:0:
502,190,40823,2,0,P|502:110|502:30,1,160,0|0,1:0|3:0,0:0:0:0:
422,27,41183,1,0,3:0:0:0:
243,103,41303,6,0,P|322:86|336:4,1,160,0|0,2:0|0:0,0:0:0:0:
265,0,41663,1,0,2:0:0:0:
130,40,41783,2,0,P|128:138|130:223,1,160,0|0,1:0|2:0,0:0:0:0:
181,260,42143,1,0,1:0:0:0:
83,320,42263,5,0,2:0:0:0:
12,334,42383,1,0,0:0:0:0:
0,261,42503,1,0,0:0:0:0:
70,249,42623,1,0,2:0:0:0:
153,339,42743,6,0,P|208:336|262:306,1,80,0|0,1:0|0:0,0:0:0:0:
258,194,42983,1,0,3:0:0:0:
269,266,43103,1,0,3:0:0:0:
402,303,43223,6,0,B|429:225|429:225|410:149,1,160,0|0,2:0|0:0,0:0:0:0:
410,149,43583,1,0,2:0:0:0:
266,40,43703,2,0,B|239:118|239:118|257:193,1,160,0|0,1:0|2:0,0:0:0:0:
257,193,44063,1,0,1:0:0:0:
67,154,44183,6,0,P|113:166|150:212,1,80,8|0,2:1|0:0,0:0:0:0:
195,361,44423,2,0,P|182:315|203:260,1,80,8|0,2:1|0:0,0:0:0:0:
356,241,44663,1,8,2:1:0:0:
269,266,44783,1,8,2:1:0:0:
331,330,44903,1,8,2:1:0:0:
356,241,45023,1,8,2:1:0:0:
458,268,45143,6,0,L|471:140,1,80,4|0,0:2|0:0,0:0:0:0:
466,188,45383,1,0,2:0:0:0:
333,142,45503,2,0,B|408:150|402:87|487:100,1,160,0|0,0:0|1:0,0:0:0:0:
265,42,45863,1,0,0:0:0:0:
343,63,45983,1,0,2:0:0:0:
126,90,46103,6,0,P|108:53|115:5,1,80
247,143,46343,2,0,P|265:180|258:228,1,80
19,142,46583,2,0,L|40:314,1,160,0|0,2:0|0:0,0:0:0:0:
38,300,46943,1,0,0:0:0:0:
212,279,47063,5,2,0:2:0:0:
137,287,47183,1,0,2:2:0:0:
253,340,47303,5,2,0:2:0:0:
179,349,47423,1,0,2:2:0:0:
358,261,47543,5,2,0:2:0:0:
285,270,47663,1,0,2:2:0:0:
401,322,47783,5,2,0:2:0:0:
327,331,47903,1,0,2:2:0:0:
435,255,48023,6,0,P|458:203|453:149,2,80
473,107,48383,1,0,0:0:0:0:
323,85,48503,5,8,1:0:0:0:
323,85,48563,1,0,2:0:0:0:
323,85,48623,1,8,1:0:0:0:
388,135,48743,1,8,1:0:0:0:
402,52,48863,1,8,1:0:0:0:
248,39,48983,6,0,P|198:42|159:52,2,80,4|0|0,0:0|0:0|2:0,0:0:0:0:
93,88,49343,1,0,0:0:0:0:
34,161,49463,2,0,P|84:164|123:174,1,80,0|0,0:0|2:0,0:0:0:0:
231,197,49703,1,0,0:0:0:0:
265,123,49823,1,0,2:0:0:0:
126,241,49943,6,0,P|178:310|292:285,1,160
246,315,50303,1,0,0:0:0:0:
441,253,50423,2,0,P|389:184|275:209,1,160,0|0,2:0|0:0,0:0:0:0:
320,178,50783,1,0,0:0:0:0:
367,361,50903,5,2,0:2:0:0:
142,309,51143,5,2,0:2:0:0:
441,253,51383,5,2,0:2:0:0:
171,175,51623,5,2,0:2:0:0:
366,132,51863,5,2,0:2:0:0:
171,175,52103,6,0,L|181:78,2,80,2|2|2,2:2|2:2|2:2,0:2:0:0:
128,247,52823,6,0,B|216:279|187:217|288:254,1,143.999995605469,4|0,1:0|2:0,0:0:0:0:
341,272,53063,2,0,P|370:202|350:146,1,95.9999970703126,8|0,0:0|2:0,0:0:0:0:
291,170,53303,1,0,1:0:0:0:
427,274,53423,1,0,2:0:0:0:
236,315,53543,1,8,0:0:0:0:
502,332,53663,6,0,L|500:133,1,191.999994140625,0|0,1:0|1:0,0:0:0:0:
367,85,54023,1,8,0:0:0:0:
430,127,54143,1,0,2:0:0:0:
422,18,54263,5,0,1:0:0:0:
345,9,54383,1,0,1:0:0:0:
287,59,54503,1,8,0:0:0:0:
132,112,54623,5,0,2:0:0:0:
132,112,54683,1,0,0:0:0:0:
132,112,54743,2,0,L|137:229,1,95.9999970703126,0|0,1:0|2:0,0:0:0:0:
362,272,54983,2,0,L|357:155,1,95.9999970703126,8|0,0:0|2:0,0:0:0:0:
156,309,55223,1,0,1:0:0:0:
240,289,55343,1,0,2:0:0:0:
305,345,55463,1,8,0:0:0:0:
453,303,55583,6,0,L|448:71,1,191.999994140625,0|0,1:0|1:0,0:0:0:0:
399,53,55943,1,8,0:0:0:0:
325,75,56063,1,0,2:0:0:0:
180,22,56183,5,0,1:0:0:0:
107,56,56303,1,0,1:0:0:0:
36,15,56423,1,8,0:0:0:0:
183,106,56543,5,0,2:0:0:0:
183,106,56603,1,0,0:0:0:0:
183,106,56663,2,0,L|146:208,1,95.9999970703126,4|0,1:2|2:0,0:0:0:0:
224,343,56903,2,0,L|154:259,1,95.9999970703126,8|0,0:0|2:0,0:0:0:0:
0,258,57143,2,0,L|106:239,1,95.9999970703126,0|0,1:0|2:0,0:0:0:0:
55,329,57383,1,8,0:0:0:0:
223,222,57503,6,0,B|312:186|312:186|402:218,1,191.999994140625,0|0,1:0|1:0,0:0:0:0:
497,274,57863,1,8,0:0:0:0:
466,340,57983,1,0,2:0:0:0:
303,303,58103,1,0,1:0:0:0:
334,369,58223,1,0,1:0:0:0:
408,290,58343,2,0,L|407:114,1,143.999995605469,8|0,0:0|2:0,0:0:0:0:
374,80,58583,5,12,0:0:0:0:
223,144,58703,1,0,1:0:0:0:
336,179,58823,1,8,0:0:0:0:
199,123,58943,5,0,1:0:0:0:
323,253,59063,1,8,0:0:0:0:
301,94,59183,1,0,1:0:0:0:
179,205,59303,1,8,0:0:0:0:
406,214,59423,6,0,L|405:344,1,95.9999970703126,0|0,1:0|0:0,0:0:0:0:
350,371,59663,1,0,0:0:0:0:
481,264,59783,1,8,0:0:0:0:
406,214,59903,1,0,2:0:0:0:
142,284,60023,5,8,0:0:0:0:
142,284,60083,1,0,0:0:0:0:
142,284,60143,1,0,1:0:0:0:
290,283,60263,1,8,1:0:0:0:
216,327,60383,1,8,0:0:0:0:
55,319,60503,6,0,L|58:175,1,143.999995605469,4|0,0:0|2:0,0:0:0:0:
105,113,60743,2,0,B|161:111|140:137|209:133,1,95.9999970703126,8|0,0:0|2:0,0:0:0:0:
332,216,60983,1,0,1:0:0:0:
299,130,61103,1,0,2:0:0:0:
241,201,61223,1,8,0:0:0:0:
335,300,61343,6,0,P|409:247|390:159,1,191.999994140625,0|0,1:0|1:0,0:0:0:0:
278,48,61703,5,8,0:0:0:0:
366,86,61823,1,0,2:0:0:0:
454,48,61943,5,0,1:0:0:0:
366,86,62063,1,0,1:0:0:0:
278,48,62183,1,8,0:0:0:0:
498,128,62303,5,0,2:0:0:0:
498,128,62363,1,0,0:0:0:0:
498,128,62423,2,0,L|495:261,1,95.9999970703126,0|0,1:0|2:0,0:0:0:0:
265,350,62663,2,0,L|266:254,1,95.9999970703126,8|0,0:0|2:0,0:0:0:0:
434,294,62903,1,0,1:0:0:0:
351,323,63023,1,0,2:0:0:0:
343,172,63143,1,8,0:0:0:0:
430,186,63263,1,0,1:0:0:0:
430,186,63503,5,0,1:0:0:0:
336,243,63623,1,8,0:0:0:0:
242,186,63743,1,0,2:0:0:0:
97,225,63863,5,0,1:0:0:0:
177,276,63983,1,0,1:0:0:0:
90,316,64103,1,8,0:0:0:0:
252,367,64223,5,0,2:0:0:0:
252,367,64283,1,0,0:0:0:0:
252,367,64343,1,4,1:2:0:0:
266,258,64463,1,0,2:0:0:0:
222,95,64583,1,8,1:0:0:0:
208,204,64703,1,0,2:0:0:0:
328,315,64823,5,0,1:0:0:0:
342,206,64943,1,0,2:0:0:0:
328,315,65063,1,8,0:0:0:0:
452,257,65183,6,0,P|444:128|330:100,1,191.999994140625,0|0,2:0|1:0,0:0:0:0:
242,107,65543,1,8,0:0:0:0:
323,100,65663,5,0,2:0:0:0:
245,126,65783,1,0,1:0:0:0:
172,85,65903,1,0,1:0:0:0:
90,67,66023,2,0,L|89:190,1,95.9999970703126,8|0,0:0|2:0,0:0:0:0:
111,303,66263,5,12,0:0:0:0:
30,271,66383,1,0,1:0:0:0:
249,288,66503,5,8,0:0:0:0:
262,373,66623,1,0,1:0:0:0:
168,175,66743,5,8,0:0:0:0:
235,121,66863,1,0,1:0:0:0:
419,172,66983,5,8,0:0:0:0:
487,124,67103,2,0,L|490:21,1,95.9999970703126,8|0,0:0|0:0,0:0:0:0:
340,142,67343,5,0,0:0:0:0:
346,218,67463,1,8,0:0:0:0:
415,251,67583,1,0,0:0:0:0:
293,278,67703,5,0,1:0:0:0:
293,278,67763,1,0,1:0:0:0:
293,278,67823,1,0,1:0:0:0:
180,303,67943,1,8,0:0:0:0:
67,328,68063,1,8,0:0:0:0:
0,269,68183,6,0,L|0:173,1,95.9999970703126,12|0,0:0|0:0,0:0:0:0:
236,97,68423,2,0,L|236:192,1,95.9999970703126,8|0,0:0|0:0,0:0:0:0:
180,303,68663,1,8,0:0:0:0:
104,264,68783,1,0,0:0:0:0:
259,269,68903,1,8,0:0:0:0:
341,295,69023,6,0,L|341:103,1,191.999994140625
339,26,69383,1,8,0:0:0:0:
508,30,69503,1,0,0:0:0:0:
510,124,69623,1,8,0:0:0:0:
410,126,69743,1,0,0:0:0:0:
410,200,69863,1,8,0:0:0:0:
506,316,69983,5,0,0:0:0:0:
506,316,70043,1,0,0:0:0:0:
506,316,70103,2,0,L|415:367,1,95.9999970703126,12|0,0:0|0:0,0:0:0:0:
203,335,70343,2,0,L|286:287,1,95.9999970703126,8|0,0:0|0:0,0:0:0:0:
343,352,70583,1,8,0:0:0:0:
381,253,70703,1,0,0:0:0:0:
321,165,70823,1,8,0:0:0:0:
295,178,70943,1,0,0:0:0:0:
286,286,71063,5,8,0:0:0:0:
209,235,71183,1,0,0:0:0:0:
116,269,71303,1,8,0:0:0:0:
18,226,71423,1,0,0:0:0:0:
175,166,71543,5,8,0:0:0:0:
99,139,71663,1,0,1:0:0:0:
99,139,71723,1,0,1:0:0:0:
99,139,71783,2,0,L|98:23,1,95.9999970703126,8|8,1:0|0:0,0:0:0:0:
278,54,72023,5,12,0:0:0:0:
172,46,72143,1,0,0:0:0:0:
247,126,72263,5,8,0:0:0:0:
361,104,72383,1,0,0:0:0:0:
449,179,72503,5,8,0:0:0:0:
326,172,72623,1,0,0:0:0:0:
455,255,72743,1,8,0:0:0:0:
289,258,72863,6,0,P|201:288|74:275,1,191.999994140625
55,343,73223,1,8,0:0:0:0:
25,271,73343,1,0,0:0:0:0:
73,211,73463,1,8,0:0:0:0:
223,201,73583,5,0,0:0:0:0:
223,201,73643,1,0,0:0:0:0:
223,201,73703,1,8,0:0:0:0:
142,178,73823,1,0,0:0:0:0:
297,216,73943,5,12,0:0:0:0:
353,163,74063,1,8,0:0:0:0:
320,22,74183,5,8,0:0:0:0:
361,87,74303,1,8,0:0:0:0:
246,0,74423,5,8,0:0:0:0:
175,30,74543,1,8,0:0:0:0:
158,173,74663,5,8,0:0:0:0:
140,98,74783,1,8,0:0:0:0:
458,187,75023,1,8,0:0:0:0:
245,301,75263,1,8,0:0:0:0:
367,341,75383,2,0,L|381:255,1,80,8|0,0:0|0:0,0:0:0:0:
99,362,75863,5,12,2:2:0:0:
53,212,76103,1,0,0:0:0:0:
22,344,76343,1,0,3:0:0:0:
0,269,76463,1,0,0:0:0:0:
352,138,76703,5,0,0:0:0:0:
352,138,76943,5,0,0:0:0:0:
414,184,77063,1,0,2:0:0:0:
489,165,77183,1,0,2:0:0:0:
411,174,77303,1,0,1:0:0:0:
348,220,77423,1,0,2:0:0:0:
271,206,77543,1,0,2:0:0:0:
210,156,77663,1,0,2:0:0:0:
48,165,77783,5,4,1:2:0:0:
109,20,78023,1,0,0:0:0:0:
0,101,78263,1,0,3:0:0:0:
31,30,78383,1,0,0:0:0:0:
330,92,78623,5,0,0:0:0:0:
330,92,78863,5,0,0:0:0:0:
385,146,78983,1,0,2:0:0:0:
461,129,79103,1,0,2:0:0:0:
391,165,79223,1,0,1:0:0:0:
345,225,79343,1,0,2:0:0:0:
364,300,79463,1,0,2:0:0:0:
321,234,79583,1,0,2:0:0:0:
413,362,79703,5,4,1:2:0:0:
459,212,79943,1,0,0:0:0:0:
490,344,80183,1,0,3:0:0:0:
512,269,80303,1,0,0:0:0:0:
203,256,80543,5,0,0:0:0:0:
203,256,80783,5,0,0:0:0:0:
171,184,80903,1,0,2:0:0:0:
212,117,81023,1,0,2:0:0:0:
288,132,81143,1,0,1:0:0:0:
323,201,81263,1,0,2:0:0:0:
314,278,81383,1,0,2:0:0:0:
380,318,81503,1,0,2:0:0:0:
464,165,81623,5,4,1:2:0:0:
403,20,81863,1,0,0:0:0:0:
512,101,82103,1,0,3:0:0:0:
481,30,82223,1,0,0:0:0:0:
229,134,82463,5,0,0:0:0:0:
229,134,82703,5,0,0:0:0:0:
338,169,82823,1,0,2:0:0:0:
193,236,82943,1,0,2:0:0:0:
390,252,83063,2,0,L|368:348,1,80,0|0,1:0|1:0,0:0:0:0:
153,163,83543,5,4,1:2:0:0:
279,298,86903,5,8,1:1:0:0:
215,249,87023,1,8,1:1:0:0:
138,228,87143,1,8,1:1:0:0:
61,248,87263,1,8,1:1:0:0:
40,260,87383,6,0,L|52:74,1,160,0|0,2:0|0:0,0:0:0:0:
154,26,87743,1,0,2:0:0:0:
210,70,87863,2,0,L|292:59,1,80,0|0,1:0|0:0,0:0:0:0:
354,193,88103,2,0,L|272:182,1,80,0|0,2:0|1:0,0:0:0:0:
429,88,88343,5,0,2:0:0:0:
481,137,88463,1,0,0:0:0:0:
447,200,88583,1,0,0:0:0:0:
491,256,88703,1,0,2:0:0:0:
469,324,88823,1,0,1:0:0:0:
469,324,89063,2,0,L|366:345,1,80,0|0,3:0|3:0,0:0:0:0:
153,321,89303,6,0,L|356:360,1,160,0|0,2:0|0:0,0:0:0:0:
310,351,89663,1,0,2:0:0:0:
244,262,89783,1,0,1:0:0:0:
266,193,89903,1,0,0:0:0:0:
337,181,90023,1,0,2:0:0:0:
315,250,90143,1,0,1:0:0:0:
195,181,90263,5,0,2:0:0:0:
180,174,90383,1,0,0:0:0:0:
71,127,90503,5,0,0:0:0:0:
86,120,90623,1,0,2:0:0:0:
195,50,90743,5,0,1:0:0:0:
195,50,90983,5,8,1:0:0:0:
151,241,91103,1,8,1:0:0:0:
369,232,91223,5,8,1:0:0:0:
369,232,92183,2,0,P|330:261|273:263,1,80,8|0,0:0|0:0,0:0:0:0:
448,186,92423,2,0,P|492:205|522:253,1,80,8|0,0:0|0:0,0:0:0:0:
367,146,92663,2,0,P|361:97|388:47,1,80,8|0,0:0|0:0,0:0:0:0:
402,349,92903,1,0,0:0:0:0:
402,349,92963,1,0,0:0:0:0:
402,349,93023,1,0,0:0:0:0:
261,326,93143,5,0,2:0:0:0:
188,294,93263,1,0,0:0:0:0:
110,286,93383,1,0,0:0:0:0:
185,266,93503,1,0,2:0:0:0:
253,228,93623,5,0,0:0:0:0:
186,187,93743,1,0,0:0:0:0:
254,150,93863,1,0,2:0:0:0:
187,109,93983,1,0,0:0:0:0:
348,222,94103,6,0,L|320:323,1,80,8|0,0:0|0:0,0:0:0:0:
428,79,94343,2,0,L|406:1,1,80,8|0,0:0|0:0,0:0:0:0:
469,268,94583,5,8,0:0:0:0:
508,123,94703,1,8,0:0:0:0:
469,268,94823,1,8,0:0:0:0:
488,192,94943,1,8,0:0:0:0:
449,337,95063,6,0,L|340:319,1,80,4|0,1:1|2:0,0:0:0:0:
162,305,95303,1,8,0:0:0:0:
179,384,95423,1,8,0:0:0:0:
326,263,95543,2,0,L|302:152,1,80,0|0,1:0|2:0,0:0:0:0:
256,127,95783,1,8,0:0:0:0:
179,103,95903,1,0,2:0:0:0:
331,112,96023,6,0,L|391:59,1,80,0|0,1:0|2:0,0:0:0:0:
309,184,96263,2,0,L|326:263,1,80,8|8,0:0|0:0,0:0:0:0:
256,127,96503,2,0,L|179:102,2,80,0|0|8,1:0|2:0|0:0,0:0:0:0:
180,334,96983,5,0,1:0:0:0:
108,363,97103,1,0,2:0:0:0:
180,192,97223,5,8,0:0:0:0:
209,263,97343,1,8,0:0:0:0:
37,192,97463,5,0,1:0:0:0:
108,163,97583,1,0,2:0:0:0:
37,334,97703,5,8,0:0:0:0:
8,263,97823,1,0,2:0:0:0:
258,311,97943,6,0,L|260:125,1,160,0|8,1:0|0:0,0:0:0:0:
260,152,98303,1,0,2:0:0:0:
409,88,98423,5,0,0:0:0:0:
409,88,98483,1,0,0:0:0:0:
409,88,98543,1,8,0:0:0:0:
371,166,98663,1,0,0:0:0:0:
336,246,98783,1,0,0:0:0:0:
483,217,98903,6,0,B|493:178|493:178|481:139,1,80,4|0,1:0|2:0,0:0:0:0:
356,319,99143,2,0,B|384:347|384:347|423:356,1,80,8|8,0:0|0:0,0:0:0:0:
261,234,99383,2,0,L|72:220,1,160,0|8,1:0|0:0,0:0:0:0:
101,221,99743,1,0,2:0:0:0:
201,337,99863,6,0,L|285:324,1,80,0|0,1:0|2:0,0:0:0:0:
201,337,100103,1,8,0:0:0:0:
403,218,100223,5,8,0:0:0:0:
325,192,100343,1,0,1:0:0:0:
403,218,100463,1,0,2:0:0:0:
220,87,100583,5,8,0:0:0:0:
295,71,100703,1,0,0:0:0:0:
369,55,100823,1,0,0:0:0:0:
84,159,101063,5,0,0:0:0:0:
488,180,101303,5,0,0:0:0:0:
144,305,101543,5,0,0:0:0:0:
404,353,101783,5,0,0:0:0:0:
256,191,102023,6,0,L|267:104,2,80,2|2|2,2:2|2:2|2:2,0:0:0:0:
40,275,102743,6,0,B|105:241|105:241|213:254,1,143.999995605469,4|0,1:0|2:0,0:0:0:0:
246,290,102983,2,0,L|223:404,1,95.9999970703126,8|0,0:0|2:0,0:0:0:0:
411,238,103223,5,0,1:0:0:0:
327,259,103343,1,0,2:0:0:0:
313,344,103463,1,8,0:0:0:0:
488,270,103583,6,0,L|501:58,1,191.999994140625,0|0,1:0|1:0,0:0:0:0:
433,34,103943,1,8,0:0:0:0:
356,53,104063,1,0,2:0:0:0:
266,185,104183,5,0,1:0:0:0:
200,140,104303,1,0,1:0:0:0:
123,160,104423,1,8,0:0:0:0:
338,239,104543,5,0,2:0:0:0:
338,239,104603,1,0,0:0:0:0:
338,239,104663,2,0,L|340:116,1,95.9999970703126,0|0,1:0|2:0,0:0:0:0:
58,205,104903,2,0,L|56:328,1,95.9999970703126,8|0,0:0|2:0,0:0:0:0:
172,358,105143,1,0,1:0:0:0:
235,310,105263,1,0,2:0:0:0:
312,329,105383,1,8,0:0:0:0:
437,290,105503,6,0,L|437:66,1,191.999994140625,0|0,1:0|1:0,0:0:0:0:
362,46,105863,1,8,0:0:0:0:
293,80,105983,1,0,2:0:0:0:
110,40,106103,5,0,1:0:0:0:
138,121,106223,1,0,1:0:0:0:
58,153,106343,1,8,0:0:0:0:
240,199,106463,5,0,2:0:0:0:
240,199,106523,1,0,0:0:0:0:
240,199,106583,2,0,L|221:86,1,95.9999970703126,4|0,1:2|2:0,0:0:0:0:
116,260,106823,1,8,0:0:0:0:
130,338,106943,1,0,2:0:0:0:
306,257,107063,6,0,L|357:162,1,95.9999970703126,0|0,1:0|2:0,0:0:0:0:
428,163,107303,1,8,0:0:0:0:
512,326,107423,2,0,B|438:364|438:364|308:325,1,191.999994140625,0|0,1:0|1:0,0:0:0:0:
191,277,107783,5,8,0:0:0:0:
116,260,107903,1,0,2:0:0:0:
41,242,108023,2,0,L|14:337,1,95.9999970703126,0|0,1:0|1:0,0:0:0:0:
305,203,108263,2,0,L|331:110,1,95.9999970703126,8|0,0:0|2:0,0:0:0:0:
63,45,108503,5,12,0:0:0:0:
169,154,108623,1,0,1:0:0:0:
247,68,108743,1,8,0:0:0:0:
303,113,108863,1,0,1:0:0:0:
434,41,108983,5,8,0:0:0:0:
412,122,109103,1,0,1:0:0:0:
391,204,109223,1,8,0:0:0:0:
371,287,109343,2,0,L|247:320,1,95.9999970703126,0|0,1:0|0:0,0:0:0:0:
20,245,109583,5,0,0:0:0:0:
95,280,109703,1,8,0:0:0:0:
60,355,109823,1,0,2:0:0:0:
222,237,109943,5,8,0:0:0:0:
222,237,110003,1,0,0:0:0:0:
222,237,110063,1,0,1:0:0:0:
85,200,110183,1,8,1:0:0:0:
165,327,110303,1,8,0:0:0:0:
274,170,110423,6,0,L|382:186,2,95.9999970703126,4|0|8,0:0|2:0|0:0,0:0:0:0:
221,105,110783,1,0,2:0:0:0:
221,105,110903,2,0,L|126:90,1,95.9999970703126,0|0,1:0|2:0,0:0:0:0:
426,17,111143,1,8,0:0:0:0:
496,65,111263,2,0,L|499:256,1,191.999994140625,0|0,1:0|1:0,0:0:0:0:
350,273,111623,1,8,0:0:0:0:
426,310,111743,1,0,2:0:0:0:
276,323,111863,5,0,1:0:0:0:
225,259,111983,1,0,1:0:0:0:
248,181,112103,1,8,0:0:0:0:
95,334,112223,5,0,2:0:0:0:
95,334,112283,1,0,0:0:0:0:
95,334,112343,2,0,L|-23:340,1,95.9999970703126,0|0,1:0|2:0,0:0:0:0:
126,171,112583,1,8,0:0:0:0:
109,252,112703,1,0,2:0:0:0:
19,130,112823,6,0,P|9:83|19:36,1,95.9999970703126,0|0,1:0|2:0,0:0:0:0:
46,198,113063,1,8,0:0:0:0:
199,94,113183,2,0,L|220:298,1,191.999994140625,0|0,1:0|1:0,0:0:0:0:
275,337,113543,1,8,0:0:0:0:
351,327,113663,1,0,2:0:0:0:
445,181,113783,5,0,1:0:0:0:
366,191,113903,1,0,1:0:0:0:
287,201,114023,1,8,0:0:0:0:
480,303,114143,5,0,2:0:0:0:
480,303,114203,1,0,0:0:0:0:
480,303,114263,2,0,L|517:199,1,95.9999970703126,4|0,1:2|2:0,0:0:0:0:
304,117,114503,2,0,L|375:201,1,95.9999970703126,8|0,1:0|2:0,0:0:0:0:
512,66,114743,2,0,L|403:85,1,95.9999970703126,0|0,1:0|2:0,0:0:0:0:
445,181,114983,1,8,0:0:0:0:
276,247,115103,6,0,L|60:251,1,191.999994140625,0|0,2:0|1:0,0:0:0:0:
50,122,115463,1,8,0:0:0:0:
29,196,115583,1,0,2:0:0:0:
155,172,115703,5,0,1:0:0:0:
176,98,115823,1,0,1:0:0:0:
197,24,115943,1,8,0:0:0:0:
355,124,116063,5,0,2:0:0:0:
355,124,116123,1,0,0:0:0:0:
355,124,116183,1,8,0:0:0:0:
262,104,116303,1,0,1:0:0:0:
414,180,116423,5,8,0:0:0:0:
352,253,116543,1,0,1:0:0:0:
491,215,116663,5,8,0:0:0:0:
490,309,116783,1,0,1:0:0:0:
418,370,116903,1,8,0:0:0:0:
229,293,117023,6,0,L|18:338,1,200,0|0,1:0|0:0,0:0:0:0:
229,293,118103,1,4,0:0:0:0:
437,170,125783,6,0,L|401:338,1,160,0|0,0:0|2:0,0:0:0:0:
407,327,126143,2,0,P|336:309|229:330,1,160
180,308,126503,1,0,2:0:0:0:
203,376,126623,1,0,2:0:0:0:
60,283,126743,6,0,L|82:206,1,80,0|0,0:0|2:0,0:0:0:0:
254,175,126983,2,0,L|231:251,1,80,0|0,2:0|0:0,0:0:0:0:
33,77,127223,2,0,B|120:103|120:103|199:70,1,160,0|0,2:0|2:0,0:0:0:0:
161,8,127583,1,0,2:0:0:0:
319,132,127703,6,0,P|392:89|359:3,1,160,0|0,0:0|2:0,0:0:0:0:
319,132,128063,2,0,B|311:199|311:199|314:220|314:220|296:296,1,160
376,288,128423,1,0,2:0:0:0:
364,358,128543,1,0,2:0:0:0:
229,320,128663,6,0,P|152:298|74:312,1,160,0|0,0:0|2:0,0:0:0:0:
6,157,129023,1,0,0:0:0:0:
6,157,129143,2,0,P|83:143|140:89,1,160,0|0,1:0|2:0,0:0:0:0:
83,45,129503,1,0,2:0:0:0:
182,166,129623,6,0,B|257:177|257:177|260:182|260:182|355:197,1,160,0|0,0:0|2:0,0:0:0:0:
377,273,129983,2,0,P|420:210|375:123,1,160
377,273,130343,1,0,2:0:0:0:
317,313,130463,1,0,2:0:0:0:
258,354,130583,1,0,0:0:0:0:
39,301,130823,5,0,2:0:0:0:
109,284,130943,1,0,0:0:0:0:
260,93,131183,5,0,0:0:0:0:
289,158,131303,1,0,2:0:0:0:
271,227,131423,1,0,2:0:0:0:
208,261,131543,2,0,P|125:252|53:181,1,160,0|0,0:0|2:0,0:0:0:0:
86,46,131903,2,0,L|64:228,1,160
190,110,132263,5,0,2:0:0:0:
260,93,132383,1,0,2:0:0:0:
329,74,132503,2,0,L|434:106,1,80,0|0,0:0|2:0,0:0:0:0:
273,237,132743,2,0,L|238:152,1,80,0|0,2:0|0:0,0:0:0:0:
412,182,132983,1,0,2:0:0:0:
471,222,133103,2,0,L|480:274,2,40,0|0|0,0:0|0:0|2:0,0:0:0:0:
429,315,133343,1,0,2:0:0:0:
306,365,133463,6,0,P|226:364|146:359,1,160,0|0,0:0|2:0,0:0:0:0:
113,231,133823,2,0,P|193:232|273:237,1,160
342,255,134183,1,0,2:0:0:0:
394,304,134303,1,0,2:0:0:0:
471,222,134423,6,0,P|485:146|428:95,1,160,0|0,0:0|2:0,0:0:0:0:
279,56,134783,2,0,P|264:131|321:182,1,160
350,110,135143,1,0,2:0:0:0:
350,110,135263,1,0,2:0:0:0:
202,35,135383,6,0,B|122:11|122:11|49:35,1,160,0|0,0:0|2:0,0:0:0:0:
37,176,135743,2,0,L|174:141,1,80,0|0,0:0|2:0,0:0:0:0:
183,175,135983,1,0,0:0:0:0:
106,317,136103,2,0,P|70:309|32:262,1,80,0|0,2:0|2:0,0:0:0:0:
249,222,136343,6,0,P|248:309|246:403,1,160,0|0,0:0|2:0,0:0:0:0:
354,112,136703,1,0,0:0:0:0:
354,112,136823,2,0,P|353:199|351:293,1,160,0|0,0:0|2:0,0:0:0:0:
406,318,137183,1,0,2:0:0:0:
509,240,137303,6,0,L|470:149,1,80,0|0,0:0|2:0,0:0:0:0:
462,10,137543,1,0,2:0:0:0:
402,50,137663,2,0,L|304:23,1,80,0|0,0:0|2:0,0:0:0:0:
226,70,137903,1,0,0:0:0:0:
163,34,138023,2,0,L|75:78,1,80,0|0,2:0|2:0,0:0:0:0:
17,186,138263,6,0,L|107:226,1,80,0|0,0:0|2:0,0:0:0:0:
47,277,138503,1,0,2:0:0:0:
204,356,138623,2,0,L|228:255,1,80,0|0,0:0|2:0,0:0:0:0:
348,196,138863,1,0,0:0:0:0:
398,247,138983,2,0,L|485:228,1,80,0|0,2:0|2:0,0:0:0:0:
512,145,139223,5,0,1:0:0:0:
490,101,139343,1,0,1:0:0:0:
453,57,139463,1,0,1:0:0:0:
396,22,139583,1,0,1:0:0:0:
320,8,139703,1,0,1:0:0:0:
237,29,139823,1,0,1:0:0:0:
163,89,139943,1,0,1:0:0:0:
129,188,140063,1,0,1:0:0:0:
220,313,140183,5,8,0:0:0:0:
220,159,140303,1,8,0:0:0:0:
129,283,140423,1,8,0:0:0:0:
275,235,140543,1,8,0:0:0:0:
122,183,140663,5,8,0:0:0:0:
222,320,140783,1,8,0:0:0:0:
222,151,140903,1,8,0:0:0:0:
122,287,141023,1,8,0:0:0:0:
283,234,141143,6,0,P|368:231|458:231,1,160,4|8,0:0|0:0,0:0:0:0:
442,230,141503,2,0,P|444:285|442:340,1,80,0|0,1:0|2:0,0:0:0:0:
428,140,141743,1,0,1:0:0:0:
497,79,141863,2,0,P|495:24|497:-31,1,80,8|0,0:0|1:0,0:0:0:0:
153,25,142103,6,0,L|204:91,1,80,2|0,0:0|2:0,0:0:0:0:
189,247,142343,2,0,L|220:169,1,80,10|0,0:0|2:0,0:0:0:0:
364,104,142583,2,0,L|281:115,1,80,2|0,0:0|2:0,0:0:0:0:
140,143,142823,1,8,0:0:0:0:
112,217,142943,1,0,2:0:0:0:
6,307,143063,6,0,L|169:283,1,160,0|8,1:0|0:0,0:0:0:0:
245,384,143423,2,0,L|145:361,1,80,0|0,1:0|2:0,0:0:0:0:
275,271,143663,1,0,1:0:0:0:
357,241,143783,1,8,0:0:0:0:
428,292,143903,1,0,1:0:0:0:
293,197,144023,6,0,L|266:114,1,80,2|0,0:0|2:0,0:0:0:0:
150,23,144263,2,0,L|235:41,1,80,10|0,0:0|2:0,0:0:0:0:
376,0,144503,2,0,L|317:64,1,80,2|0,0:0|2:0,0:0:0:0:
460,118,144743,1,8,0:0:0:0:
442,44,144863,1,0,2:0:0:0:
473,195,144983,6,0,L|425:360,1,160,0|8,1:0|0:0,0:0:0:0:
428,348,145343,2,0,P|367:327|304:345,1,80,0|0,1:0|2:0,0:0:0:0:
203,319,145583,1,0,1:0:0:0:
275,275,145703,2,0,P|290:238|289:199,1,80,8|0,0:0|1:0,0:0:0:0:
21,147,145943,6,0,L|129:179,1,80,2|0,0:0|2:0,0:0:0:0:
122,329,146183,2,0,L|95:219,1,80,10|0,0:0|2:0,0:0:0:0:
233,147,146423,2,0,L|151:224,1,80,2|0,0:0|2:0,0:0:0:0:
23,235,146663,1,8,0:0:0:0:
23,235,146783,1,0,2:0:0:0:
153,124,146903,6,0,P|176:54|99:-1,1,160,0|8,1:0|0:0,0:0:0:0:
23,67,147263,2,0,P|21:106|20:146,1,80,0|0,1:0|2:0,0:0:0:0:
194,218,147503,1,0,1:0:0:0:
253,164,147623,2,0,P|254:124|255:84,1,80,8|0,0:0|1:0,0:0:0:0:
52,217,147863,6,0,L|148:260,1,80,10|0,0:0|2:0,0:0:0:0:
324,205,148103,2,0,L|238:266,1,80,10|0,0:0|2:0,0:0:0:0:
202,384,148343,2,0,L|191:279,1,80,10|0,0:0|2:0,0:0:0:0:
398,309,148583,6,0,L|408:288,6,20,10|0|0|0|0|0|0,2:1|2:0|2:0|2:0|2:0|2:0|2:0,2:0:0:0:
476,338,148823,6,0,P|499:262|475:187,1,160,4|8,0:0|0:0,0:0:0:0:
376,99,149183,2,0,P|374:138|397:178,1,80,0|0,1:0|2:0,0:0:0:0:
504,50,149423,1,0,1:0:0:0:
439,0,149543,2,0,L|329:27,1,80,8|0,0:0|1:0,0:0:0:0:
89,70,149783,6,0,P|136:75|168:97,1,80,2|0,0:0|2:0,0:0:0:0:
203,255,150023,2,0,P|183:211|186:173,1,80,10|0,0:0|2:0,0:0:0:0:
304,70,150263,2,0,P|276:108|241:124,1,80,2|0,0:0|2:0,0:0:0:0:
102,149,150503,1,8,0:0:0:0:
63,219,150623,1,0,2:0:0:0:
154,337,150743,6,0,L|331:305,1,160,0|8,1:0|0:0,0:0:0:0:
399,297,151103,2,0,P|408:335|405:375,1,80,0|0,1:0|2:0,0:0:0:0:
357,199,151343,1,0,1:0:0:0:
439,168,151463,1,8,0:0:0:0:
512,216,151583,1,0,1:0:0:0:
375,59,151703,6,0,P|328:64|296:86,1,80,2|0,0:0|2:0,0:0:0:0:
261,244,151943,2,0,P|280:200|277:162,1,80,10|0,0:0|2:0,0:0:0:0:
160,59,152183,2,0,P|187:97|222:113,1,80,2|0,0:0|2:0,0:0:0:0:
470,41,152423,2,0,P|472:100|473:160,1,120,8|0,0:0|2:0,0:0:0:0:
444,235,152663,6,0,P|439:155|440:75,1,160,0|8,1:0|0:0,0:0:0:0:
202,150,153023,2,0,P|259:158|303:189,1,80,0|0,1:0|2:0,0:0:0:0:
376,302,153263,1,0,1:0:0:0:
328,237,153383,2,0,L|378:132,1,80,8|0,0:0|1:0,0:0:0:0:
63,168,153623,6,0,P|110:173|142:195,1,80,2|0,0:0|2:0,0:0:0:0:
177,353,153863,2,0,P|158:309|161:271,1,80,10|0,0:0|2:0,0:0:0:0:
278,168,154103,2,0,P|251:206|216:222,1,80,2|0,0:0|2:0,0:0:0:0:
81,250,154343,1,8,0:0:0:0:
81,250,154463,1,0,2:0:0:0:
236,298,154583,6,0,L|330:282,1,80,0|0,1:0|2:0,0:0:0:0:
314,284,154823,1,8,0:0:0:0:
461,192,154943,6,0,L|367:176,1,80,0|0,1:0|2:0,0:0:0:0:
382,178,155183,1,0,1:0:0:0:
196,76,155303,6,0,L|290:60,1,80,8|0,0:0|1:0,0:0:0:0:
437,48,155543,5,2,1:2:0:0:
359,73,155663,1,2,1:2:0:0:
421,124,155783,5,2,1:2:0:0:
344,149,155903,1,2,1:2:0:0:
402,205,156023,5,2,1:2:0:0:
325,231,156143,1,2,1:2:0:0:
387,282,156263,5,2,1:2:0:0:
309,307,156383,1,2,1:2:0:0:
449,331,156503,5,12,1:0:0:0:
43,221,158423,5,8,1:0:0:0:
349,40,160343,5,8,1:0:0:0:
94,207,162263,5,8,0:0:0:0:
110,292,162383,1,0,1:0:0:0:
159,145,162503,5,8,0:0:0:0:
26,265,162623,1,0,1:0:0:0:
177,232,162743,5,8,0:0:0:0:
196,318,162863,1,0,1:0:0:0:
259,258,162983,1,8,0:0:0:0:
371,227,163103,6,0,P|425:232|469:239,1,80,0|0,1:0|0:0,0:0:0:0:
468,353,163343,1,0,0:0:0:0:
377,384,163463,1,8,0:0:0:0:
301,324,163583,1,0,0:0:0:0:
381,306,163703,5,8,0:0:0:0:
381,306,163763,1,8,0:0:0:0:
381,306,163823,1,8,0:0:0:0:
303,194,163943,1,8,0:0:0:0:
381,82,164063,1,8,0:0:0:0:
469,68,164183,6,0,P|467:107|447:141,1,80,4|0,1:0|2:0,0:0:0:0:
300,100,164423,2,0,P|301:60|321:26,1,80,8|0,0:0|2:0,0:0:0:0:
319,274,164663,2,0,P|279:270|246:248,1,80,0|0,1:0|2:0,0:0:0:0:
230,173,164903,1,8,0:0:0:0:
409,211,165023,6,0,B|420:240|420:240|379:395,1,160,0|0,1:0|1:0,0:0:0:0:
306,352,165383,1,8,0:0:0:0:
220,372,165503,1,0,2:0:0:0:
135,347,165623,1,0,1:0:0:0:
50,368,165743,1,0,1:0:0:0:
135,365,165863,1,8,0:0:0:0:
20,286,165983,5,0,2:0:0:0:
20,286,166043,1,0,0:0:0:0:
20,286,166103,2,0,L|43:187,1,80,0|0,1:0|2:0,0:0:0:0:
122,71,166343,1,8,0:0:0:0:
102,151,166463,1,0,2:0:0:0:
266,248,166583,6,0,L|247:325,1,80,0|0,1:0|2:0,0:0:0:0:
333,190,166823,1,8,0:0:0:0:
427,271,166943,2,0,P|456:195|431:121,1,160,0|0,1:0|1:0,0:0:0:0:
143,0,167303,5,8,0:0:0:0:
198,63,167423,1,0,2:0:0:0:
182,224,167543,5,0,1:0:0:0:
210,143,167663,1,0,1:0:0:0:
358,74,167783,5,8,0:0:0:0:
274,90,167903,1,0,2:0:0:0:
143,111,168023,6,0,P|102:106|46:102,1,80,4|0,1:2|2:0,0:0:0:0:
109,141,168263,2,0,P|68:136|12:132,1,80,8|0,0:0|2:0,0:0:0:0:
41,295,168503,5,0,1:0:0:0:
0,220,168623,1,0,2:0:0:0:
41,295,168743,1,8,0:0:0:0:
141,321,168863,6,0,P|220:322|300:319,1,160,0|0,1:0|1:0,0:0:0:0:
377,296,169223,1,8,0:0:0:0:
355,373,169343,1,0,2:0:0:0:
307,244,169463,5,0,1:0:0:0:
329,167,169583,1,0,1:0:0:0:
351,90,169703,1,8,0:0:0:0:
463,200,169823,5,0,2:0:0:0:
463,200,169883,1,0,0:0:0:0:
463,200,169943,2,0,P|427:217|387:221,1,80,8|0,1:0|1:0,0:0:0:0:
125,221,170183,2,0,P|85:217|50:200,1,80,8|0,1:0|1:0,0:0:0:0:
276,45,170423,5,8,1:0:0:0:
259,139,170543,1,0,1:0:0:0:
251,234,170663,1,8,1:0:0:0:
246,329,170783,1,0,1:0:0:0:
125,142,171143,6,0,B|112:186|135:172|124:220,2,80,2|2|2,2:2|2:2|2:2,0:0:0:0:
167,352,171863,6,0,P|229:313|305:327,1,155.999992858887,4|0,1:0|2:0,0:0:0:0:
310,331,172103,2,0,P|314:268|314:212,1,103.999995239258,8|0,0:0|2:0,0:0:0:0:
466,145,172343,1,0,1:0:0:0:
374,164,172463,1,0,2:0:0:0:
437,234,172583,1,8,0:0:0:0:
402,78,172703,6,0,B|301:59|301:59|198:83,1,207.999990478516,0|0,1:0|1:0,0:0:0:0:
67,89,173063,1,8,0:0:0:0:
136,25,173183,1,0,2:0:0:0:
108,174,173303,5,0,1:0:0:0:
202,160,173423,1,0,1:0:0:0:
108,174,173543,1,8,0:0:0:0:
20,266,173663,5,0,1:0:0:0:
20,266,173723,1,0,0:0:0:0:
20,266,173783,2,0,L|146:250,1,103.999995239258,0|0,1:0|2:0,0:0:0:0:
216,245,174023,1,8,0:0:0:0:
164,323,174143,1,0,2:0:0:0:
349,316,174263,6,0,L|246:330,1,103.999995239258,0|0,1:0|2:0,0:0:0:0:
246,330,174503,1,8,0:0:0:0:
419,373,174623,2,0,P|435:292|323:231,1,207.999990478516,0|0,1:0|1:0,0:0:0:0:
326,145,174983,1,8,0:0:0:0:
260,196,175103,1,0,2:0:0:0:
183,163,175223,1,0,1:0:0:0:
443,167,175343,5,0,1:0:0:0:
512,114,175463,2,0,P|512:54|511:-7,1,103.999995239258,8|0,0:0|2:0,0:0:0:0:
256,44,175703,6,0,L|372:79,1,103.999995239258,4|0,1:2|2:0,0:0:0:0:
191,226,175943,2,0,L|163:108,1,103.999995239258,8|0,0:0|2:0,0:0:0:0:
378,204,176183,2,0,L|289:286,1,103.999995239258,0|0,1:0|2:0,0:0:0:0:
302,275,176423,1,8,0:0:0:0:
483,354,176543,6,0,P|496:304|488:253,1,103.999995239258,0|0,1:0|2:0,0:0:0:0:
319,361,176783,1,0,1:0:0:0:
242,328,176903,2,0,L|131:356,1,103.999995239258,8|0,0:0|2:0,0:0:0:0:
22,342,177143,1,0,1:0:0:0:
74,277,177263,1,0,1:0:0:0:
4,231,177383,2,0,L|9:56,1,155.999992858887,8|0,0:0|2:0,0:0:0:0:
58,23,177623,5,12,0:0:0:0:
217,90,177743,1,0,1:0:0:0:
98,127,177863,1,8,0:0:0:0:
242,68,177983,5,0,1:0:0:0:
111,205,178103,1,8,0:0:0:0:
135,37,178223,1,0,1:0:0:0:
263,154,178343,1,8,0:0:0:0:
38,174,178463,6,0,L|38:313,1,103.999995239258,0|0,1:0|0:0,0:0:0:0:
100,347,178703,1,0,0:0:0:0:
214,306,178823,1,8,0:0:0:0:
38,278,178943,1,0,1:0:0:0:
283,264,179063,5,0,0:0:0:0:
283,264,179123,1,8,0:0:0:0:
283,264,179183,1,0,1:0:0:0:
376,274,179303,1,8,1:0:0:0:
469,284,179423,1,8,0:0:0:0:
512,221,179543,6,0,P|508:151|508:49,1,155.999992858887,4|0,1:0|2:0,0:0:0:0:
507,65,179783,2,0,B|446:64|456:36|398:39,1,103.999995239258,8|0,0:0|2:0,0:0:0:0:
322,96,180023,1,0,1:0:0:0:
230,74,180143,1,0,2:0:0:0:
207,164,180263,1,8,0:0:0:0:
50,47,180383,6,0,L|49:273,1,207.999990478516,0|0,1:0|1:0,0:0:0:0:
131,316,180743,1,8,0:0:0:0:
213,374,180863,1,0,2:0:0:0:
227,271,180983,5,0,1:0:0:0:
131,316,181103,1,0,1:0:0:0:
213,374,181223,5,8,0:0:0:0:
138,219,181343,1,0,2:0:0:0:
312,299,181463,6,0,P|315:242|312:177,1,103.999995239258,0|0,1:0|2:0,0:0:0:0:
137,140,181703,2,0,P|134:83|137:18,1,103.999995239258,8|0,0:0|2:0,0:0:0:0:
314,23,181943,1,0,1:0:0:0:
226,57,182063,1,0,2:0:0:0:
399,55,182183,1,8,0:0:0:0:
483,21,182303,6,0,L|480:246,1,207.999990478516,0|0,1:0|1:0,0:0:0:0:
399,251,182663,1,8,0:0:0:0:
334,305,182783,1,0,2:0:0:0:
204,365,182903,5,0,1:0:0:0:
140,296,183023,1,0,1:0:0:0:
47,310,183143,1,8,0:0:0:0:
290,157,183263,5,0,2:0:0:0:
290,157,183323,1,0,0:0:0:0:
290,157,183383,2,0,L|412:168,1,103.999995239258,4|0,1:2|2:0,0:0:0:0:
196,63,183623,2,0,L|70:48,1,103.999995239258,8|0,0:0|2:0,0:0:0:0:
194,148,183863,5,0,1:0:0:0:
296,63,183983,1,0,2:0:0:0:
194,148,184103,1,8,0:0:0:0:
87,129,184223,6,0,P|69:246|174:273,1,207.999990478516,0|0,1:0|1:0,0:0:0:0:
265,237,184583,1,8,0:0:0:0:
214,303,184703,1,0,2:0:0:0:
346,251,184823,5,0,1:0:0:0:
427,266,184943,1,0,1:0:0:0:
508,281,185063,2,0,L|509:396,1,103.999995239258,8|0,0:0|2:0,0:0:0:0:
317,184,185303,5,12,0:0:0:0:
256,103,185423,1,0,1:0:0:0:
454,79,185543,5,8,0:0:0:0:
415,170,185663,1,0,1:0:0:0:
295,12,185783,5,8,0:0:0:0:
394,0,185903,1,0,1:0:0:0:
317,184,186023,5,8,0:0:0:0:
256,103,186143,2,0,P|130:98|15:94,1,207.999990478516,0|0,1:0|0:0,0:0:0:0:
17,95,186503,2,0,B|-3:147|-3:147|21:222,1,103.999995239258,8|0,0:0|2:0,0:0:0:0:
174,257,186743,1,8,0:0:0:0:
174,257,186803,1,8,0:0:0:0:
174,257,186863,1,0,1:0:0:0:
111,171,186983,1,8,1:0:0:0:
28,325,187103,1,8,0:0:0:0:
221,317,187223,6,0,B|274:306|274:306|306:268,1,103.999995239258,12|0,0:0|1:0,0:0:0:0:
269,80,187463,2,0,B|216:91|216:91|183:128,1,103.999995239258,8|0,0:0|1:0,0:0:0:0:
461,157,187703,2,0,L|437:55,1,103.999995239258,8|0,0:0|1:0,0:0:0:0:
439,236,187943,1,8,0:0:0:0:
327,189,188063,2,0,B|274:161|217:206|240:202|183:247|131:219,1,207.999990478516,0|0,1:0|1:0,0:0:0:0:
278,322,188423,5,8,0:0:0:0:
201,354,188543,1,0,1:0:0:0:
38,349,188663,5,8,0:0:0:0:
0,274,188783,1,0,1:0:0:0:
41,156,188903,5,8,0:0:0:0:
172,147,189023,5,0,1:0:0:0:
172,147,189083,1,0,0:0:0:0:
172,147,189143,2,0,L|160:38,1,103.999995239258,8|0,0:0|1:0,0:0:0:0:
289,261,189383,2,0,L|300:364,1,103.999995239258,8|0,0:0|1:0,0:0:0:0:
463,144,189623,5,8,0:0:0:0:
368,119,189743,1,0,1:0:0:0:
345,213,189863,1,8,0:0:0:0:
439,236,189983,1,0,1:0:0:0:
487,142,190103,6,0,B|499:90|499:90|479:34,1,103.999995239258,8|0,0:0|1:0,0:0:0:0:
385,287,190343,2,0,B|424:323|424:323|482:334,1,103.999995239258,8|0,0:0|1:0,0:0:0:0:
302,152,190583,1,8,0:0:0:0:
242,247,190703,1,0,1:0:0:0:
242,247,190763,1,8,0:0:0:0:
242,247,190823,1,8,0:0:0:0:
166,330,190943,1,0,1:0:0:0:
47,325,191063,6,0,L|44:221,1,103.999995239258,12|0,0:0|1:0,0:0:0:0:
225,167,191303,2,0,L|227:270,1,103.999995239258,8|0,0:0|1:0,0:0:0:0:
17,85,191543,2,0,B|69:68|69:68|131:95,1,103.999995239258,8|0,0:0|1:0,0:0:0:0:
154,149,191783,1,8,0:0:0:0:
297,152,191903,6,0,P|376:95|350:1,1,207.999990478516,0|0,1:0|1:0,0:0:0:0:
152,10,192263,1,8,0:0:0:0:
205,86,192383,1,0,1:0:0:0:
296,67,192503,1,8,0:0:0:0:
460,80,192623,5,0,1:0:0:0:
460,80,192683,1,0,0:0:0:0:
460,80,192743,1,8,0:0:0:0:
503,175,192863,1,0,1:0:0:0:
343,236,192983,6,0,P|300:222|205:220,1,103.999995239258,8|0,0:0|1:0,0:0:0:0:
386,375,193223,2,0,P|437:370|487:355,1,103.999995239258,8|0,0:0|1:0,0:0:0:0:
168,217,193463,5,8,0:0:0:0:
142,311,193583,1,0,1:0:0:0:
235,290,193703,1,8,0:0:0:0:
209,384,193823,1,0,1:0:0:0:
32,283,193943,6,0,L|32:179,1,103.999995239258,8|0,0:0|1:0,0:0:0:0:
316,132,194183,2,0,L|315:235,1,103.999995239258,8|0,0:0|1:0,0:0:0:0:
102,61,194423,1,8,0:0:0:0:
102,61,194483,1,0,0:0:0:0:
102,61,194543,1,8,0:0:0:0:
213,116,194663,1,8,0:0:0:0:
314,44,194783,1,8,0:0:0:0:
133,142,194903,6,0,B|122:194|122:194|141:241,1,103.999995239258,12|0,0:0|1:0,0:0:0:0:
395,167,195143,2,0,B|406:115|406:115|386:67,1,103.999995239258,8|0,0:0|1:0,0:0:0:0:
241,207,195383,1,8,0:0:0:0:
302,352,195503,1,0,1:0:0:0:
197,310,195623,1,8,0:0:0:0:
344,249,195743,1,0,1:0:0:0:
397,300,195863,6,0,P|448:297|500:298,1,103.999995239258,8|0,0:0|1:0,0:0:0:0:
197,310,196103,2,0,P|145:312|93:311,1,103.999995239258,8|0,0:0|1:0,0:0:0:0:
22,247,196343,1,8,0:0:0:0:
68,166,196463,1,0,1:0:0:0:
49,74,196583,1,8,0:0:0:0:
218,223,196703,5,0,1:0:0:0:
218,223,196763,1,0,0:0:0:0:
218,222,196823,2,0,P|218:170|219:118,1,103.999995239258,8|0,0:0|1:0,0:0:0:0:
221,37,197063,2,0,B|272:31|259:73|345:58,1,103.999995239258,8|0,0:0|1:0,0:0:0:0:
144,93,197303,2,0,P|125:46|136:-3,1,103.999995239258,8|0,0:0|1:0,0:0:0:0:
359,134,197543,5,8,0:0:0:0:
459,85,197663,1,0,1:0:0:0:
342,144,197783,5,8,0:0:0:0:
420,208,197903,1,0,1:0:0:0:
354,270,198023,1,8,0:0:0:0:
422,328,198143,1,0,1:0:0:0:
240,361,198263,5,8,0:0:0:0:
240,361,198323,1,0,0:0:0:0:
240,360,198383,2,0,P|239:309|242:257,1,103.999995239258,0|8,1:0|0:0,0:0:0:0:
309,209,198623,1,0,1:0:0:0:
51,259,198743,6,0,P|102:258|146:232,1,103.999995239258,12|0,0:0|1:0,0:0:0:0:
97,71,198983,2,0,P|71:115|72:167,1,103.999995239258,8|0,0:0|1:0,0:0:0:0:
245,102,199223,1,8,0:0:0:0:
231,200,199343,1,0,1:0:0:0:
152,141,199463,1,8,0:0:0:0:
284,24,199583,6,0,L|399:39,1,103.999995239258,0|8,1:0|0:0,0:0:0:0:
464,4,199823,1,0,1:0:0:0:
331,203,199943,5,8,0:0:0:0:
352,115,200063,1,0,1:0:0:0:
496,137,200183,5,8,0:0:0:0:
480,231,200303,1,0,1:0:0:0:
480,231,200363,1,0,0:0:0:0:
480,231,200423,1,8,0:0:0:0:
453,313,200543,1,0,1:0:0:0:
320,356,200663,5,12,0:0:0:0:
188,333,200783,1,8,0:0:0:0:
189,252,200903,5,8,0:0:0:0:
321,230,201023,1,8,0:0:0:0:
322,148,201143,5,8,0:0:0:0:
191,125,201263,1,8,0:0:0:0:
192,44,201383,5,8,0:0:0:0:
323,22,201503,1,12,0:0:0:0:
75,176,201743,5,12,0:0:0:0:
438,222,201983,5,12,0:0:0:0:
412,296,202103,1,12,0:0:0:0:
