osu file format v14

[General]
AudioFilename: audio.mp3
AudioLeadIn: 0
PreviewTime: 52043
Countdown: 0
SampleSet: Soft
StackLeniency: 0.6
Mode: 0
LetterboxInBreaks: 0
EpilepsyWarning: 1
WidescreenStoryboard: 0

[Editor]
Bookmarks: 31103,37463,44663,75863,83543,87383,118103,125543
DistanceSpacing: 1.2
BeatDivisor: 4
GridSize: 32
TimelineZoom: 3.330002

[Metadata]
Title:humanly
TitleUnicode:人間らしい
Artist:umu.
ArtistUnicode:ゆーむ
Creator:Half
Version:hard
Source:
Tags:Len Japanese vocaloid GUMI ningenrashi umu ユリイ・カノン YURRY CANON utaite
BeatmapID:2085989
BeatmapSetID:977552

[Difficulty]
HPDrainRate:6
CircleSize:3.8
OverallDifficulty:7
ApproachRate:8
SliderMultiplier:1.5
SliderTickRate:1

[Events]
//Background and Video events
0,0,"bg.jpg",0,0
Video,0,"950.mp4"
//Break Periods
2,8863,23273
2,76063,84713
2,141343,154793
//Storyboard Layer 0 (Background)
//Storyboard Layer 1 (Fail)
//Storyboard Layer 2 (Pass)
//Storyboard Layer 3 (Foreground)
//Storyboard Sound Samples

[TimingPoints]
983,240,4,2,1,60,1,0
983,-125,4,2,1,60,0,0
52823,-125,4,2,1,75,0,1
67223,-125,4,2,1,75,0,0
68183,-125,4,2,1,75,0,1
75863,-125,7,2,1,60,0,0
102743,-125,7,2,1,75,0,1
118103,-125,7,2,1,60,0,0
139223,-125,7,2,1,75,0,1
141143,-125,7,2,1,60,0,0
164183,-125,7,2,1,75,0,1
170903,-125,7,2,1,75,0,0
171863,-125,7,2,1,75,0,1
186263,-125,7,2,1,75,0,0
187223,-125,7,2,1,75,0,1
202103,-125,7,2,1,75,0,0

[Colours]
Combo1 : 116,116,116
Combo2 : 230,111,114
Combo3 : 224,39,39
Combo4 : 191,191,191

[HitObjects]
78,166,983,6,0,L|8:178,2,60,0|0|8,1:0|1:0|0:0,0:0:0:0:
114,64,1463,2,0,P|145:39|229:49,1,120,8|8,0:0|0:0,0:0:0:0:
239,88,1823,2,0,B|279:110|279:110|370:85,1,120,8|8,1:2|0:0,0:0:0:0:
397,78,2183,2,0,L|371:214,1,120,8|8,1:2|0:0,0:0:0:0:
399,237,2543,1,8,1:2:0:0:
399,237,2663,2,0,L|386:316,1,60,0|0,1:0|1:0,0:0:0:0:
379,343,2903,6,0,L|443:355,2,60,0|0|8,1:0|1:0|0:0,0:0:0:0:
313,272,3383,2,0,P|267:243|193:261,1,120,8|8,0:0|0:0,0:0:0:0:
185,296,3743,2,0,P|140:316|72:306,1,120,8|8,1:2|0:0,0:0:0:0:
24,279,4103,2,0,L|38:209,1,60,8|8,1:2|0:0,0:0:0:0:
45,167,4343,1,8,0:0:0:0:
188,49,4823,6,0,P|156:43|122:38,2,60,0|0|8,1:0|1:0|0:0,0:0:0:0:
266,130,5303,2,0,P|336:129|378:92,1,120,8|8,0:0|0:0,0:0:0:0:
402,60,5663,2,0,P|395:134|422:184,1,120,8|8,1:2|0:0,0:0:0:0:
456,196,6023,2,0,P|465:266|442:311,1,120,8|8,1:2|0:0,0:0:0:0:
413,346,6383,1,8,1:2:0:0:
413,346,6503,2,0,L|334:359,1,60,0|0,1:0|1:0,0:0:0:0:
313,319,6743,6,0,L|241:308,2,60,0|0|8,1:0|1:0|0:0,0:0:0:0:
351,222,7223,2,0,P|305:195|235:194,1,120,8|8,0:0|0:0,0:0:0:0:
211,231,7583,2,0,P|163:259|100:251,1,120,8|8,1:2|1:2,0:0:0:0:
60,225,7943,2,0,L|70:152,1,60,8|8,1:2|1:2,0:0:0:0:
74,111,8183,1,8,1:2:0:0:
151,35,8423,1,0,1:2:0:0:
225,113,8663,5,4,1:2:0:0:
43,242,24023,5,2,0:0:0:0:
101,308,24383,5,2,0:0:0:0:
101,308,24503,1,2,0:0:0:0:
181,274,24863,5,2,0:0:0:0:
239,340,25103,5,2,0:0:0:0:
319,306,25343,5,2,0:0:0:0:
319,306,25463,1,2,0:0:0:0:
311,219,25703,5,2,0:0:0:0:
227,194,25943,6,0,B|169:178|169:178|54:214,1,180,4|8,1:2|0:0,0:0:0:0:
1,226,26423,2,0,L|33:92,1,120,0|8,1:2|0:0,0:0:0:0:
43,57,26783,1,0,0:0:0:0:
43,57,26903,6,0,L|105:44,1,60,0|0,1:2|0:0,0:0:0:0:
145,75,27143,2,0,L|210:85,1,60,0|8,0:0|0:0,0:0:0:0:
257,91,27383,1,0,1:2:0:0:
345,28,27623,1,8,0:0:0:0:
433,89,27863,6,0,B|472:129|472:129|446:265,1,180,0|8,1:2|0:0,0:0:0:0:
440,304,28343,2,0,L|366:320,1,60,0|0,1:2|0:0,0:0:0:0:
339,351,28583,2,0,P|307:348|276:332,1,60,8|0,0:0|0:0,0:0:0:0:
253,290,28823,6,0,L|261:226,4,60,0|0|0|8|0,1:2|0:0|0:0|0:0|1:2,0:0:0:0:
155,336,29543,1,8,0:0:0:0:
70,269,29783,6,0,B|33:237|33:237|61:99,1,180,0|8,1:2|0:0,0:0:0:0:
74,56,30263,2,0,P|139:46|182:77,1,120,0|8,1:2|0:0,0:0:0:0:
198,121,30623,1,0,0:0:0:0:
198,121,30743,6,0,L|277:134,1,60,0|0,1:2|0:0,0:0:0:0:
290,173,30983,2,0,P|322:182|362:176,1,60,0|8,0:0|0:0,0:0:0:0:
400,166,31223,1,0,1:2:0:0:
464,79,31463,1,8,0:0:0:0:
508,177,31703,6,0,L|497:301,1,120,0|0,1:2|0:0,0:0:0:0:
491,350,32063,1,8,0:0:0:0:
491,350,32183,2,0,L|406:343,1,60,0|0,1:2|0:0,0:0:0:0:
393,306,32423,2,0,L|308:299,1,60,8|0,0:0|0:0,0:0:0:0:
284,323,32663,5,8,0:0:0:0:
200,254,32903,1,8,0:0:0:0:
108,311,33143,1,8,0:0:0:0:
30,235,33383,1,8,0:0:0:0:
75,136,33623,1,0,1:2:0:0:
256,192,35543,12,8,36983,0:0:0:0:
69,138,37463,6,0,P|102:96|220:96,1,180,0|8,1:2|0:0,0:0:0:0:
247,142,37943,2,0,B|288:168|288:168|377:145,1,120,0|8,1:2|0:0,0:0:0:0:
407,130,38303,1,0,0:0:0:0:
407,130,38423,6,0,L|398:208,1,60,0|0,1:2|0:0,0:0:0:0:
393,243,38663,2,0,L|467:255,1,60,0|8,0:0|0:0,0:0:0:0:
505,264,38903,1,0,1:2:0:0:
492,371,39143,1,8,0:0:0:0:
385,353,39383,6,0,P|337:322|218:335,1,180,0|8,1:2|0:0,0:0:0:0:
176,367,39863,2,0,P|185:305|160:249,1,120,0|8,1:2|0:0,0:0:0:0:
126,213,40223,1,0,0:0:0:0:
126,213,40343,6,0,L|120:148,4,60,0|0|0|8|0,1:2|0:0|0:0|0:0|1:2,0:0:0:0:
19,227,41063,1,8,0:0:0:0:
7,119,41303,6,0,P|48:47|138:36,1,180,0|8,1:2|0:0,0:0:0:0:
173,76,41783,2,0,B|209:101|209:101|297:77,1,120,0|8,1:2|0:0,0:0:0:0:
330,107,42143,1,0,0:0:0:0:
330,107,42263,6,0,L|392:89,1,60,0|0,1:2|0:0,0:0:0:0:
440,79,42503,2,0,L|460:150,1,60,0|8,0:0|0:0,0:0:0:0:
472,188,42743,1,0,1:2:0:0:
499,291,42983,2,0,L|427:311,1,60,8|0,0:0|0:0,0:0:0:0:
399,272,43223,6,0,P|349:251|292:277,1,120,0|0,1:2|0:0,0:0:0:0:
256,317,43583,1,8,0:0:0:0:
256,317,43703,2,0,L|169:331,1,60,0|0,1:2|0:0,0:0:0:0:
153,293,43943,2,0,L|83:304,1,60,8|0,0:0|0:0,0:0:0:0:
39,307,44183,5,8,0:0:0:0:
91,212,44423,1,8,0:0:0:0:
17,133,44663,1,8,0:0:0:0:
209,34,45143,6,0,L|291:25,1,60,0|0,1:2|0:0,0:0:0:0:
307,65,45383,2,0,L|389:56,1,60,8|8,0:0|0:0,0:0:0:0:
407,94,45623,2,0,L|489:85,3,60,0|0|8|0,1:2|0:0|0:0|0:0,0:0:0:0:
500,129,46103,1,0,1:2:0:0:
437,217,46343,1,8,0:0:0:0:
480,315,46583,1,0,1:2:0:0:
265,338,47063,6,0,L|194:349,3,60,0|0|8|8,1:2|0:0|0:0|0:0,0:0:0:0:
171,304,47543,2,0,L|111:294,3,60,0|0|8|0,1:2|0:0|0:0|0:0,0:0:0:0:
85,246,48023,1,0,1:2:0:0:
138,152,48263,1,8,0:0:0:0:
73,65,48503,1,8,1:2:0:0:
284,22,48983,6,0,P|339:13|395:40,1,120,0|8,1:2|0:0,0:0:0:0:
417,89,49343,1,8,0:0:0:0:
391,136,49463,2,0,P|378:190|411:254,1,120,0|8,1:2|0:0,0:0:0:0:
442,284,49823,1,0,0:0:0:0:
483,318,49943,2,0,L|344:352,1,120,0|8,1:2|0:0,0:0:0:0:
285,275,50423,2,0,L|168:246,1,120,0|8,1:2|0:0,0:0:0:0:
69,290,50903,5,8,0:0:0:0:
1,205,51143,1,8,0:0:0:0:
49,108,51383,1,8,0:0:0:0:
156,108,51623,1,8,0:0:0:0:
223,23,51863,1,8,0:0:0:0:
223,23,52823,6,0,L|354:41,1,120,4|8,1:2|0:0,0:0:0:0:
448,54,53303,1,0,1:2:0:0:
448,54,53423,2,0,L|441:140,1,60,0|8,0:0|0:0,0:0:0:0:
469,160,53663,2,0,L|459:299,1,120,0|0,1:2|1:2,0:0:0:0:
452,333,54023,2,0,L|380:327,1,60,8|0,0:0|0:0,0:0:0:0:
352,290,54263,1,0,1:2:0:0:
257,342,54503,1,8,0:0:0:0:
199,250,54743,6,0,L|214:118,1,120,0|8,1:2|0:0,0:0:0:0:
226,23,55223,1,0,1:2:0:0:
226,23,55343,2,0,L|148:14,1,60,0|8,0:0|0:0,0:0:0:0:
112,10,55583,2,0,P|59:32|32:92,1,120,0|0,1:2|1:2,0:0:0:0:
43,138,55943,2,0,L|52:223,1,60,8|0,0:0|0:0,0:0:0:0:
86,236,56183,1,0,1:2:0:0:
40,333,56423,1,8,0:0:0:0:
146,350,56663,6,0,L|219:357,3,60,0|0|8|0,1:2|0:0|0:0|0:0,0:0:0:0:
248,322,57143,2,0,L|376:304,1,120,0|8,1:2|0:0,0:0:0:0:
420,298,57503,2,0,P|439:244|408:184,1,120,0|0,1:2|1:2,0:0:0:0:
370,157,57863,2,0,L|380:88,1,60,8|0,0:0|0:0,0:0:0:0:
386,44,58103,1,0,1:2:0:0:
279,28,58343,1,8,0:0:0:0:
260,134,58583,5,8,0:0:0:0:
207,116,58703,1,0,1:2:0:0:
158,94,58823,1,8,0:0:0:0:
108,71,58943,1,0,1:2:0:0:
58,49,59063,2,0,L|85:-6,2,60,8|0|8,0:0|1:2|0:0,0:0:0:0:
30,95,59423,6,0,P|9:126|29:208,1,120,0|0,1:2|1:2,0:0:0:0:
59,243,59783,2,0,L|129:234,1,60,8|0,0:0|0:0,0:0:0:0:
163,206,60023,1,0,1:2:0:0:
251,268,60263,1,8,0:0:0:0:
348,221,60503,6,0,B|381:202|381:202|472:226,1,120,4|8,1:2|0:0,0:0:0:0:
486,118,60983,1,0,1:2:0:0:
486,118,61103,2,0,L|411:99,1,60,0|8,0:0|0:0,0:0:0:0:
408,52,61343,2,0,P|357:26|298:43,1,120,0|0,1:2|1:2,0:0:0:0:
259,78,61703,2,0,L|183:63,1,60,8|0,0:0|0:0,0:0:0:0:
148,52,61943,2,0,L|130:138,1,60,0|0,1:2|0:0,0:0:0:0:
124,164,62183,2,0,L|48:149,1,60,8|0,0:0|0:0,0:0:0:0:
11,145,62423,6,0,L|34:279,1,120,0|8,1:2|0:0,0:0:0:0:
54,368,62903,1,0,1:2:0:0:
54,368,63023,2,0,L|128:352,1,60,0|8,0:0|0:0,0:0:0:0:
134,305,63263,2,0,P|183:275|244:288,1,120,0|0,1:2|1:2,0:0:0:0:
282,322,63623,2,0,L|341:309,1,60,8|0,0:0|0:0,0:0:0:0:
393,297,63863,1,0,1:2:0:0:
467,375,64103,1,8,0:0:0:0:
502,272,64343,6,0,L|512:205,3,60,0|0|8|0,1:2|0:0|0:0|0:0,0:0:0:0:
465,183,64823,2,0,L|447:52,1,120,0|8,1:2|0:0,0:0:0:0:
435,11,65183,2,0,P|386:46|327:37,1,120,0|0,1:2|1:2,0:0:0:0:
284,9,65543,2,0,L|274:80,1,60,8|0,0:0|0:0,0:0:0:0:
245,113,65783,1,0,1:2:0:0:
309,199,66023,1,8,0:0:0:0:
247,287,66263,5,8,0:0:0:0:
193,296,66383,1,0,1:2:0:0:
139,304,66503,1,8,0:0:0:0:
86,315,66623,1,0,1:2:0:0:
32,324,66743,2,0,L|39:383,2,60,8|0|8,0:0|1:2|0:0,0:0:0:0:
4,277,67103,6,0,L|34:142,1,120,0|0,1:2|1:2,0:0:0:0:
76,131,67463,2,0,L|69:57,1,60,8|0,0:0|1:2,0:0:0:0:
66,16,67703,1,8,0:0:0:0:
165,58,67943,1,8,0:0:0:0:
264,15,68183,6,0,P|326:8|386:33,1,120,12|8,0:0|0:0,0:0:0:0:
457,102,68663,2,0,P|431:148|448:218,1,120,8|8,0:0|0:0,0:0:0:0:
479,251,69023,2,0,L|352:271,1,120,0|0,1:2|1:2,0:0:0:0:
314,298,69383,1,8,0:0:0:0:
242,217,69623,1,8,0:0:0:0:
143,262,69863,1,8,0:0:0:0:
71,180,70103,6,0,P|64:131|96:67,1,120,8|8,0:0|0:0,0:0:0:0:
182,7,70583,2,0,P|231:42|289:41,1,120,8|8,0:0|0:0,0:0:0:0:
335,13,70943,2,0,L|355:142,1,120,0|0,1:2|1:2,0:0:0:0:
362,184,71303,2,0,L|441:173,1,60,8|0,0:0|1:2,0:0:0:0:
475,169,71543,1,8,0:0:0:0:
489,275,71783,1,8,0:0:0:0:
489,275,71903,1,0,1:2:0:0:
489,275,72023,6,0,L|365:295,1,120,8|8,0:0|0:0,0:0:0:0:
284,359,72503,2,0,L|165:339,1,120,8|8,0:0|0:0,0:0:0:0:
112,328,72863,2,0,P|105:263|145:219,1,120,0|0,1:2|1:2,0:0:0:0:
184,196,73223,2,0,L|178:135,1,60,8|0,0:0|1:2,0:0:0:0:
171,82,73463,1,8,0:0:0:0:
278,71,73703,1,8,0:0:0:0:
289,180,73943,6,0,L|303:314,1,120,8|8,0:0|0:0,0:0:0:0:
399,346,74423,2,0,B|442:363|442:363|511:327,1,120,8|8,0:0|0:0,0:0:0:0:
509,274,74783,1,8,1:2:0:0:
425,204,75023,1,8,1:2:0:0:
467,104,75263,1,8,1:2:0:0:
467,104,75383,1,8,1:2:0:0:
397,20,75623,1,0,1:2:0:0:
291,43,75863,5,4,1:2:0:0:
256,192,85463,12,8,86903,0:0:0:0:
323,65,87383,6,0,B|279:38|279:38|152:72,1,180,4|8,1:2|0:0,0:0:0:0:
103,87,87863,2,0,L|84:218,1,120,0|8,1:2|0:0,0:0:0:0:
77,259,88223,1,0,0:0:0:0:
77,259,88343,2,0,L|148:241,1,60,0|0,1:2|0:0,0:0:0:0:
177,278,88583,2,0,L|258:257,1,60,0|8,0:0|0:0,0:0:0:0:
270,222,88823,1,0,1:2:0:0:
359,282,89063,1,8,0:0:0:0:
447,219,89303,6,0,B|482:186|482:186|464:53,1,180,0|8,1:2|0:0,0:0:0:0:
454,2,89783,2,0,L|372:13,1,60,0|0,1:2|0:0,0:0:0:0:
364,55,90023,2,0,L|282:66,1,60,8|0,0:0|0:0,0:0:0:0:
260,31,90263,1,0,1:2:0:0:
180,104,90503,1,0,0:0:0:0:
98,33,90743,1,0,1:2:0:0:
10,96,90983,1,8,0:0:0:0:
46,197,91223,5,8,1:2:0:0:
46,197,92183,6,0,L|26:319,2,120,8|8|8,1:2|1:2|1:2,0:0:0:0:
146,157,92903,1,8,0:0:0:0:
209,244,93143,6,0,B|239:273|239:273|328:250,1,120,0|0,1:2|0:0,0:0:0:0:
368,241,93503,1,8,0:0:0:0:
368,241,93623,2,0,L|384:159,1,60,0|0,1:2|0:0,0:0:0:0:
423,150,93863,2,0,L|407:68,1,60,8|0,0:0|0:0,0:0:0:0:
372,53,94103,1,8,0:0:0:0:
277,105,94343,1,8,0:0:0:0:
197,31,94583,1,8,0:0:0:0:
11,141,95063,6,0,L|28:282,1,120,4|8,1:2|0:0,0:0:0:0:
44,366,95543,2,0,L|162:347,1,120,0|8,1:2|0:0,0:0:0:0:
202,314,95903,1,0,0:0:0:0:
202,314,96023,2,0,L|267:303,1,60,0|0,1:2|0:0,0:0:0:0:
305,337,96263,1,8,0:0:0:0:
389,269,96503,1,0,1:2:0:0:
467,63,96983,6,0,L|399:48,3,60,0|0|8|8,1:2|0:0|0:0|0:0,0:0:0:0:
372,90,97463,2,0,L|313:102,3,60,0|0|8|8,1:2|0:0|0:0|0:0,0:0:0:0:
276,142,97943,1,0,1:2:0:0:
190,76,98183,1,8,0:0:0:0:
91,120,98423,1,8,0:0:0:0:
46,331,98903,6,0,L|172:352,1,120,0|8,1:2|0:0,0:0:0:0:
249,283,99383,2,0,L|386:257,1,120,0|8,1:2|0:0,0:0:0:0:
420,251,99743,1,0,0:0:0:0:
472,238,99863,2,0,L|448:114,1,120,0|8,1:2|0:0,0:0:0:0:
436,67,100223,1,8,0:0:0:0:
390,37,100343,2,0,B|355:18|355:18|268:39,1,120,0|8,1:2|0:0,0:0:0:0:
355,158,100823,5,8,0:0:0:0:
264,113,101063,1,8,0:0:0:0:
178,179,101303,1,8,0:0:0:0:
90,114,101543,1,8,0:0:0:0:
4,181,101783,1,8,0:0:0:0:
4,181,102743,6,0,L|21:318,1,120,4|8,1:2|0:0,0:0:0:0:
104,365,103223,1,0,1:2:0:0:
104,365,103343,2,0,P|133:368|161:357,1,60,0|8,0:0|0:0,0:0:0:0:
193,313,103583,2,0,P|232:294|306:318,1,120,0|0,1:2|1:2,0:0:0:0:
332,359,103943,2,0,L|397:368,1,60,8|0,0:0|0:0,0:0:0:0:
438,340,104183,1,0,1:2:0:0:
406,236,104423,1,8,0:0:0:0:
484,161,104663,6,0,P|492:110|454:58,1,120,0|8,1:2|0:0,0:0:0:0:
349,28,105143,1,0,1:2:0:0:
349,28,105263,2,0,L|272:40,1,60,0|8,0:0|0:0,0:0:0:0:
264,85,105503,2,0,P|212:107|156:83,1,120,0|0,1:2|1:2,0:0:0:0:
123,39,105863,2,0,L|61:49,1,60,8|0,0:0|0:0,0:0:0:0:
10,58,106103,1,0,1:2:0:0:
21,165,106343,1,8,0:0:0:0:
34,272,106583,6,0,L|106:259,1,60,0|0,1:2|0:0,0:0:0:0:
127,302,106823,2,0,L|186:312,1,60,8|0,0:0|0:0,0:0:0:0:
239,320,107063,2,0,L|257:194,1,120,0|8,1:2|0:0,0:0:0:0:
265,148,107423,2,0,P|329:135|374:165,1,120,0|0,1:2|1:2,0:0:0:0:
405,206,107783,2,0,P|438:206|463:192,1,60,8|0,0:0|0:0,0:0:0:0:
497,153,108023,1,0,1:2:0:0:
453,54,108263,1,8,0:0:0:0:
346,35,108503,5,8,0:0:0:0:
293,48,108623,1,0,1:2:0:0:
239,56,108743,1,8,0:0:0:0:
185,64,108863,1,0,1:2:0:0:
131,72,108983,2,0,L|124:9,2,60,8|0|8,0:0|1:2|0:0,0:0:0:0:
88,104,109343,6,0,P|52:147|69:213,1,120,0|0,1:2|1:2,0:0:0:0:
101,244,109703,2,0,L|92:315,1,60,8|0,0:0|0:0,0:0:0:0:
87,357,109943,1,0,1:2:0:0:
193,372,110183,1,8,0:0:0:0:
209,265,110423,6,0,L|279:273,1,60,4|0,1:2|0:0,0:0:0:0:
299,315,110663,2,0,L|369:323,1,60,8|0,0:0|0:0,0:0:0:0:
412,322,110903,2,0,L|385:192,1,120,0|8,1:2|0:0,0:0:0:0:
422,162,111263,2,0,P|430:111|394:57,1,120,0|0,1:2|1:2,0:0:0:0:
350,29,111623,2,0,L|283:43,1,60,8|0,0:0|0:0,0:0:0:0:
261,86,111863,1,0,1:2:0:0:
158,52,112103,1,8,0:0:0:0:
70,114,112343,6,0,P|36:154|49:234,1,120,0|8,1:2|0:0,0:0:0:0:
61,267,112703,1,0,0:0:0:0:
61,267,112823,2,0,L|188:291,1,120,0|8,1:2|0:0,0:0:0:0:
232,297,113183,2,0,L|252:174,1,120,0|0,1:2|1:2,0:0:0:0:
257,124,113543,2,0,L|325:135,1,60,8|0,0:0|0:0,0:0:0:0:
354,171,113783,1,0,1:2:0:0:
447,116,114023,1,8,0:0:0:0:
511,202,114263,6,0,L|500:267,3,60,0|0|8|0,1:2|0:0|0:0|0:0,0:0:0:0:
491,314,114743,2,0,P|442:286|379:302,1,120,0|8,1:2|0:0,0:0:0:0:
354,345,115103,2,0,B|315:362|315:362|235:341,1,120,0|0,1:2|1:2,0:0:0:0:
188,327,115463,2,0,L|126:341,1,60,8|0,0:0|0:0,0:0:0:0:
76,351,115703,1,0,1:2:0:0:
51,245,115943,1,8,0:0:0:0:
62,120,116183,6,0,L|81:59,1,60,8|0,0:0|1:2,0:0:0:0:
99,12,116423,2,0,L|174:33,1,60,8|0,0:0|1:2,0:0:0:0:
194,67,116663,1,8,0:0:0:0:
194,67,116783,1,0,1:2:0:0:
194,67,116903,1,8,0:0:0:0:
194,67,117023,2,0,L|313:101,1,120,0|0,1:2|0:0,0:0:0:0:
355,72,117383,2,0,L|420:92,1,60,0|0,0:0|0:0,0:0:0:0:
464,105,117623,1,0,0:0:0:0:
367,298,118103,5,2,1:2:0:0:
65,194,119063,1,2,1:2:0:0:
371,99,120023,1,2,1:2:0:0:
178,357,120983,1,2,1:2:0:0:
183,35,121943,1,2,1:2:0:0:
367,298,122903,1,2,1:2:0:0:
65,194,123863,1,2,1:2:0:0:
371,99,124823,1,2,1:2:0:0:
371,99,125183,1,2,1:2:0:0:
484,214,125543,5,2,0:0:0:0:
484,214,125783,2,0,L|468:347,1,120,6|2,1:2|0:0,0:0:0:0:
415,325,126143,1,0,1:2:0:0:
415,325,126263,2,0,L|336:313,1,60,2|0,0:0|1:2,0:0:0:0:
302,304,126503,2,0,P|286:252|323:191,1,120,2|0,0:0|1:2,0:0:0:0:
406,138,126983,1,2,0:0:0:0:
354,43,127223,1,2,0:0:0:0:
261,99,127463,1,2,0:0:0:0:
197,11,127703,6,0,L|66:38,1,120,0|2,1:2|0:0,0:0:0:0:
26,46,128063,1,0,1:2:0:0:
26,46,128183,2,0,L|43:129,1,60,2|0,0:0|1:2,0:0:0:0:
85,130,128423,2,0,P|113:178|95:237,1,120,2|0,0:0|1:2,0:0:0:0:
43,331,128903,1,2,0:0:0:0:
138,382,129143,1,2,0:0:0:0:
194,290,129383,1,2,0:0:0:0:
194,290,129503,1,2,0:0:0:0:
194,290,129623,6,0,P|246:271|312:284,1,120,0|2,1:2|0:0,0:0:0:0:
340,326,129983,1,0,1:2:0:0:
340,326,130103,2,0,P|371:326|405:307,1,60,2|0,0:0|1:2,0:0:0:0:
434,276,130343,2,0,L|419:139,1,120,2|0,0:0|1:2,0:0:0:0:
410,48,130823,1,2,0:0:0:0:
302,58,131063,1,2,0:0:0:0:
313,165,131303,1,2,0:0:0:0:
205,174,131543,6,0,L|194:51,1,120,0|2,1:2|0:0,0:0:0:0:
140,57,131903,1,0,1:2:0:0:
140,57,132023,2,0,L|65:64,1,60,2|0,0:0|1:2,0:0:0:0:
32,89,132263,2,0,P|22:114|26:149,1,60,2|0,0:0|0:0,0:0:0:0:
52,193,132503,2,0,P|65:253|29:312,2,120,0|2|2,1:2|0:0|0:0,0:0:0:0:
152,233,133223,1,2,0:0:0:0:
247,183,133463,6,0,B|284:164|284:164|378:190,1,120,4|2,1:2|0:0,0:0:0:0:
415,204,133823,1,0,1:2:0:0:
415,204,133943,2,0,L|434:277,1,60,2|0,0:0|1:2,0:0:0:0:
443,314,134183,2,0,P|380:298|315:307,1,120,2|0,0:0|1:2,0:0:0:0:
239,368,134663,1,2,0:0:0:0:
152,302,134903,1,2,0:0:0:0:
54,347,135143,1,2,0:0:0:0:
11,247,135383,6,0,L|33:119,1,120,0|2,1:2|0:0,0:0:0:0:
38,75,135743,1,0,1:2:0:0:
38,75,135863,2,0,L|111:59,1,60,2|0,0:0|1:2,0:0:0:0:
143,89,136103,2,0,L|279:61,1,120,2|0,0:0|1:2,0:0:0:0:
330,146,136583,1,2,0:0:0:0:
421,89,136823,1,2,0:0:0:0:
506,155,137063,1,2,0:0:0:0:
506,155,137183,1,2,0:0:0:0:
506,155,137303,6,0,L|493:281,1,120,0|2,1:2|0:0,0:0:0:0:
487,328,137663,1,0,1:2:0:0:
487,328,137783,2,0,L|411:320,1,60,2|0,0:0|1:2,0:0:0:0:
394,278,138023,2,0,P|355:253|285:271,1,120,2|0,0:0|1:2,0:0:0:0:
209,344,138503,1,2,0:0:0:0:
113,294,138743,1,2,0:0:0:0:
18,345,138983,1,10,0:0:0:0:
18,345,139103,1,10,0:0:0:0:
256,192,139223,12,4,141143,1:2:0:0:
256,191,155543,6,0,L|336:177,3,60,10|10|10|10,0:0|0:0|0:0|0:0,0:0:0:0:
358,212,156023,2,0,L|438:198,3,60,10|10|10|10,0:0|0:0|0:0|0:0,0:0:0:0:
463,229,156503,5,4,1:2:0:0:
194,331,158423,1,4,1:2:0:0:
240,42,160343,1,4,1:2:0:0:
463,229,162263,6,0,L|386:246,1,60,12|0,0:0|1:2,0:0:0:0:
398,295,162503,2,0,L|321:312,1,60,8|0,0:0|1:2,0:0:0:0:
289,288,162743,1,8,0:0:0:0:
237,271,162863,1,0,1:2:0:0:
185,253,162983,1,8,0:0:0:0:
134,234,163103,6,0,P|126:185|169:130,1,120,0|0,1:2|1:2,0:0:0:0:
213,104,163463,2,0,L|204:41,1,60,8|0,0:0|0:0,0:0:0:0:
236,1,163703,1,0,1:2:0:0:
325,61,163943,1,8,0:0:0:0:
424,20,164183,6,0,L|455:143,1,120,4|8,1:2|0:0,0:0:0:0:
487,238,164663,2,0,L|360:223,1,120,0|8,1:2|0:0,0:0:0:0:
314,217,165023,2,0,P|283:261|293:326,1,120,0|0,1:2|1:2,0:0:0:0:
322,365,165383,2,0,L|237:354,1,60,8|0,0:0|0:0,0:0:0:0:
209,347,165623,1,0,1:2:0:0:
138,264,165863,1,8,0:0:0:0:
36,299,166103,6,0,B|17:266|17:266|36:179,1,120,0|8,1:2|0:0,0:0:0:0:
129,134,166583,1,0,1:2:0:0:
129,134,166703,2,0,L|118:57,1,60,0|8,0:0|0:0,0:0:0:0:
114,20,166943,2,0,L|257:49,1,120,0|0,1:2|1:2,0:0:0:0:
268,83,167303,2,0,L|342:71,1,60,8|0,0:0|0:0,0:0:0:0:
370,40,167543,1,0,1:2:0:0:
458,101,167783,1,8,0:0:0:0:
431,205,168023,6,0,L|359:222,1,60,0|0,1:2|0:0,0:0:0:0:
346,266,168263,2,0,L|274:283,1,60,8|0,0:0|0:0,0:0:0:0:
235,293,168503,2,0,L|248:357,2,60,0|0|8,1:2|0:0|0:0,0:0:0:0:
188,266,168863,2,0,P|161:225|176:159,1,120,0|0,1:2|1:2,0:0:0:0:
216,123,169223,2,0,L|205:49,1,60,8|0,0:0|0:0,0:0:0:0:
198,10,169463,1,0,1:2:0:0:
91,28,169703,1,8,0:0:0:0:
19,108,169943,5,8,0:0:0:0:
33,160,170063,1,0,1:2:0:0:
47,212,170183,1,8,0:0:0:0:
62,263,170303,1,0,1:2:0:0:
76,315,170423,2,0,L|15:336,2,60,8|0|8,0:0|1:2|0:0,0:0:0:0:
127,331,170783,5,0,1:2:0:0:
127,331,171863,6,0,L|247:306,1,120,4|8,1:2|0:0,0:0:0:0:
391,359,172343,1,0,1:2:0:0:
391,359,172463,2,0,L|469:342,1,60,0|8,0:0|0:0,0:0:0:0:
499,285,172703,2,0,P|509:226|474:176,1,120,0|0,1:2|1:2,0:0:0:0:
410,137,173063,1,8,0:0:0:0:
410,137,173183,1,0,0:0:0:0:
354,191,173303,2,0,L|269:207,1,60,0|0,1:2|0:0,0:0:0:0:
242,144,173543,2,0,L|164:128,1,60,8|0,0:0|0:0,0:0:0:0:
106,116,173783,6,0,P|68:161|75:220,1,120,0|8,1:2|0:0,0:0:0:0:
177,336,174263,1,0,1:2:0:0:
177,336,174383,2,0,L|263:352,1,60,0|8,0:0|0:0,0:0:0:0:
294,294,174623,2,0,L|426:274,1,120,0|0,1:2|1:2,0:0:0:0:
456,211,174983,1,8,0:0:0:0:
456,211,175103,1,0,0:0:0:0:
406,150,175223,2,0,L|418:74,1,60,0|0,1:2|0:0,0:0:0:0:
425,13,175463,2,0,L|356:26,1,60,8|0,0:0|0:0,0:0:0:0:
311,79,175703,6,0,L|242:90,3,60,0|0|8|0,1:2|0:0|0:0|0:0,0:0:0:0:
189,41,176183,2,0,P|137:31|77:63,1,120,0|8,1:2|0:0,0:0:0:0:
28,119,176543,2,0,L|42:245,1,120,0|0,1:2|1:2,0:0:0:0:
53,315,176903,1,8,0:0:0:0:
53,315,177023,1,0,0:0:0:0:
129,331,177143,2,0,L|201:343,1,60,0|0,1:2|0:0,0:0:0:0:
242,284,177383,1,8,0:0:0:0:
179,140,177623,5,8,0:0:0:0:
179,140,177743,1,0,1:2:0:0:
244,181,177863,1,8,0:0:0:0:
244,181,177983,1,0,1:2:0:0:
318,159,178103,1,8,0:0:0:0:
318,159,178223,2,0,L|399:136,1,60,0|8,1:2|0:0,0:0:0:0:
451,123,178463,2,0,L|429:261,1,120,0|0,1:2|1:2,0:0:0:0:
424,319,178823,2,0,L|349:305,1,60,8|0,0:0|0:0,0:0:0:0:
287,292,179063,1,0,1:2:0:0:
287,292,179183,1,0,1:2:0:0:
223,337,179303,1,8,0:0:0:0:
223,337,179423,1,8,0:0:0:0:
146,322,179543,6,0,L|16:295,1,120,4|8,1:2|0:0,0:0:0:0:
23,141,180023,1,0,1:2:0:0:
23,141,180143,2,0,L|101:154,1,60,0|8,0:0|0:0,0:0:0:0:
128,213,180383,2,0,L|253:185,1,120,0|0,1:2|1:2,0:0:0:0:
322,171,180743,2,0,L|305:96,1,60,8|0,0:0|0:0,0:0:0:0:
283,38,180983,2,0,L|359:21,1,60,0|0,1:2|0:0,0:0:0:0:
416,4,181223,2,0,L|432:70,1,60,8|0,0:0|0:0,0:0:0:0:
483,120,181463,6,0,L|465:245,1,120,0|8,1:2|0:0,0:0:0:0:
341,334,181943,1,0,1:2:0:0:
341,334,182063,2,0,L|259:322,1,60,0|8,0:0|0:0,0:0:0:0:
224,272,182303,2,0,L|103:297,1,120,0|0,1:2|1:2,0:0:0:0:
30,313,182663,1,8,0:0:0:0:
30,313,182783,1,0,0:0:0:0:
42,236,182903,2,0,L|54:160,1,60,0|0,1:2|0:0,0:0:0:0:
113,129,183143,2,0,L|126:63,1,60,8|0,0:0|0:0,0:0:0:0:
200,50,183383,6,0,L|275:35,3,60,0|0|8|0,1:2|0:0|0:0|0:0,0:0:0:0:
317,90,183863,2,0,P|371:118|430:99,1,120,0|8,1:2|0:0,0:0:0:0:
493,64,184223,2,0,L|468:202,1,120,0|0,1:2|1:2,0:0:0:0:
454,258,184583,1,8,0:0:0:0:
454,258,184703,1,0,0:0:0:0:
378,237,184823,2,0,L|308:220,1,60,0|0,1:2|0:0,0:0:0:0:
256,268,185063,1,8,0:0:0:0:
109,321,185303,5,8,0:0:0:0:
109,321,185423,1,0,1:2:0:0:
41,281,185543,1,8,0:0:0:0:
41,281,185663,1,0,1:2:0:0:
49,203,185783,1,8,0:0:0:0:
49,203,185903,2,0,L|60:129,1,60,0|8,1:2|0:0,0:0:0:0:
67,66,186143,6,0,P|130:55|177:82,1,120,0|0,1:2|1:2,0:0:0:0:
205,154,186503,2,0,L|291:164,1,60,8|0,0:0|1:2,0:0:0:0:
315,101,186743,2,0,L|321:57,2,30,8|8|0,0:0|0:0|1:2,0:0:0:0:
393,111,186983,1,8,0:0:0:0:
393,111,187103,1,8,0:0:0:0:
437,175,187223,6,0,P|456:234|430:284,1,120,12|8,0:0|0:0,0:0:0:0:
294,359,187703,2,0,B|160:369|161:369,1,120,8|8,0:0|0:0,0:0:0:0:
96,370,188063,2,0,P|76:321|99:258,1,120,0|0,1:2|1:2,0:0:0:0:
167,225,188423,2,0,L|156:148,1,60,8|0,0:0|1:2,0:0:0:0:
87,132,188663,2,0,L|77:61,1,60,8|0,0:0|1:2,0:0:0:0:
130,13,188903,2,0,L|196:2,1,60,8|0,0:0|1:2,0:0:0:0:
241,60,189143,6,0,B|283:80|283:80|372:50,1,120,8|8,0:0|0:0,0:0:0:0:
476,150,189623,2,0,L|355:193,1,120,8|8,0:0|0:0,0:0:0:0:
326,260,189983,2,0,P|266:281|216:257,1,120,0|0,1:2|1:2,0:0:0:0:
179,190,190343,2,0,L|110:181,1,60,8|0,0:0|1:2,0:0:0:0:
55,226,190583,1,8,0:0:0:0:
39,70,190823,1,8,0:0:0:0:
39,70,190943,1,0,1:2:0:0:
110,38,191063,6,0,B|155:21|155:21|237:49,1,120,8|8,0:0|0:0,0:0:0:0:
313,171,191543,2,0,P|373:175|423:115,1,120,8|8,0:0|0:0,0:0:0:0:
452,68,191903,2,0,L|479:193,1,120,0|0,1:2|1:2,0:0:0:0:
493,261,192263,2,0,L|428:277,1,60,8|0,0:0|1:2,0:0:0:0:
382,333,192503,1,8,0:0:0:0:
251,246,192743,1,8,0:0:0:0:
107,306,192983,6,0,B|85:273|85:273|103:195,1,120,8|8,0:0|0:0,0:0:0:0:
138,42,193463,1,8,0:0:0:0:
138,42,193583,2,0,L|216:56,1,60,0|8,1:2|0:0,0:0:0:0:
231,122,193823,2,0,P|287:142|348:98,1,120,0|0,1:2|1:2,0:0:0:0:
385,54,194183,2,0,L|463:70,1,60,8|0,0:0|1:2,0:0:0:0:
467,134,194423,2,0,L|508:143,2,30,8|8|0,0:0|0:0|1:2,0:0:0:0:
420,195,194663,1,8,0:0:0:0:
420,195,194783,1,8,0:0:0:0:
453,270,194903,6,0,L|330:301,1,120,12|8,0:0|0:0,0:0:0:0:
183,328,195383,2,0,P|151:283|168:222,1,120,8|8,0:0|0:0,0:0:0:0:
227,175,195743,2,0,P|242:119|210:70,1,120,0|0,1:2|1:2,0:0:0:0:
137,40,196103,2,0,L|67:55,1,60,8|0,0:0|1:2,0:0:0:0:
14,97,196343,2,0,P|3:125|9:159,1,60,8|0,0:0|1:2,0:0:0:0:
65,206,196583,2,0,P|76:234|70:268,1,60,8|0,0:0|1:2,0:0:0:0:
35,332,196823,6,0,B|75:358|75:358|151:338,1,120,8|8,0:0|0:0,0:0:0:0:
293,291,197303,2,0,L|264:169,1,120,8|8,0:0|0:0,0:0:0:0:
246,98,197663,2,0,P|281:58|344:56,1,120,0|0,1:2|1:2,0:0:0:0:
387,121,198023,2,0,L|452:130,1,60,8|0,0:0|1:2,0:0:0:0:
511,84,198263,1,8,0:0:0:0:
494,239,198503,1,8,0:0:0:0:
494,239,198623,1,0,1:2:0:0:
434,289,198743,6,0,P|392:302|332:264,1,120,8|8,0:0|0:0,0:0:0:0:
260,124,199223,2,0,P|211:105|154:133,1,120,8|8,0:0|0:0,0:0:0:0:
127,206,199583,2,0,L|1:226,1,120,0|0,1:2|1:2,0:0:0:0:
21,147,199943,2,0,L|35:73,1,60,8|0,0:0|1:2,0:0:0:0:
88,32,200183,1,8,0:0:0:0:
243,18,200423,1,8,0:0:0:0:
243,18,200543,1,0,1:2:0:0:
303,67,200663,6,0,B|340:86|340:86|421:58,1,120,8|8,0:0|0:0,0:0:0:0:
503,188,201143,2,0,L|421:180,1,60,8|0,0:0|1:2,0:0:0:0:
378,225,201383,1,8,0:0:0:0:
311,184,201503,5,10,1:2:0:0:
196,289,201743,5,10,1:2:0:0:
340,337,201983,5,10,1:2:0:0:
285,266,202103,5,10,1:2:0:0:
